<?xml version="1.0" standalone="no"?>
<!DOCTYPE svg PUBLIC "-//W3C//DTD SVG 1.1//EN" "http://www.w3.org/Graphics/SVG/1.1/DTD/svg11.dtd" >
<svg xmlns="http://www.w3.org/2000/svg" xmlns:xlink="http://www.w3.org/1999/xlink" version="1.1">
<metadata>
Created by FontForge 20201107 at Wed May 31 04:50:37 2017
 By Jimmy Wärting
(c) 2015-2017 Apple Inc. All rights reserved.
</metadata>
<defs>
<font id="SFProDisplay-ThinItalic" horiz-adv-x="0" >
  <font-face 
    font-family="SF Pro Display"
    font-weight="200"
    font-style="italic"
    font-stretch="normal"
    units-per-em="2048"
    panose-1="0 0 3 0 0 0 0 0 0 0"
    ascent="1638"
    descent="-410"
    x-height="1040"
    cap-height="1443"
    bbox="-530 -494 2716 2087"
    underline-thickness="61"
    underline-position="-369"
    slope="-12"
    stemh="82"
    stemv="86"
    unicode-range="U+0020-FB02"
  />
<missing-glyph horiz-adv-x="2048" 
d="M-58 -494l72 339h1848l-72 -339h-1848zM32 -73l72 339h1847l-72 -339h-1847zM121 348l72 339h1848l-72 -339h-1848zM211 769l72 339h1847l-72 -339h-1847zM300 1190l72 339h1848l-72 -339h-1848zM390 1611l72 339h1847l-72 -339h-1847z" />
    <glyph glyph-name=".notdef" horiz-adv-x="2048" 
d="M-58 -494l72 339h1848l-72 -339h-1848zM32 -73l72 339h1847l-72 -339h-1847zM121 348l72 339h1848l-72 -339h-1848zM211 769l72 339h1847l-72 -339h-1847zM300 1190l72 339h1848l-72 -339h-1848zM390 1611l72 339h1847l-72 -339h-1847z" />
    <glyph glyph-name=".null" 
 />
    <glyph glyph-name="nonmarkingreturn" 
 />
    <glyph glyph-name="space" unicode=" " horiz-adv-x="462" 
 />
    <glyph glyph-name="A" unicode="A" horiz-adv-x="1221" 
d="M846 1341l-463 -789h598l-131 789h-4zM1071 0l-79 482h-648l-285 -482h-90l855 1443h81l242 -1443h-76z" />
    <glyph glyph-name="Agrave" unicode="&#xc0;" horiz-adv-x="1221" 
d="M846 1341l-463 -789h598l-131 789h-4zM1071 0l-79 482h-648l-285 -482h-90l855 1443h81l242 -1443h-76zM840 1556l-184 287h86l171 -287h-73z" />
    <glyph glyph-name="Aacute" unicode="&#xc1;" horiz-adv-x="1221" 
d="M846 1341l-463 -789h598l-131 789h-4zM1071 0l-79 482h-648l-285 -482h-90l855 1443h81l242 -1443h-76zM927 1556h-86l336 287h100z" />
    <glyph glyph-name="Adieresis" unicode="&#xc4;" horiz-adv-x="1221" 
d="M846 1341l-463 -789h598l-131 789h-4zM1071 0l-79 482h-648l-285 -482h-90l855 1443h81l242 -1443h-76zM762 1605c-37 0 -67 30 -67 66c0 37 30 66 67 66c36 0 66 -29 66 -66c0 -36 -30 -66 -66 -66zM1060 1605c-36 0 -67 30 -67 66c0 37 31 66 67 66s67 -29 67 -66
c0 -36 -31 -66 -67 -66z" />
    <glyph glyph-name="Adieresismacron" unicode="&#x1de;" horiz-adv-x="1221" 
d="M846 1341l-463 -789h598l-131 789h-4zM1071 0l-79 482h-648l-285 -482h-90l855 1443h81l242 -1443h-76zM753 1683c36 0 65 -29 65 -65s-29 -65 -65 -65c-35 0 -65 29 -65 65s30 65 65 65zM1262 1919l-13 -60h-594l13 60h594zM1047 1683c36 0 65 -29 65 -65
s-29 -65 -65 -65s-65 29 -65 65s29 65 65 65z" />
    <glyph glyph-name="Aring" unicode="&#xc5;" horiz-adv-x="1221" 
d="M846 1341l-463 -789h598l-131 789h-4zM1071 0l-79 482h-648l-285 -482h-90l855 1443h81l242 -1443h-76zM922 1564c-93 0 -169 72 -169 168c0 97 76 173 171 173c93 0 170 -72 170 -168c-1 -97 -77 -173 -172 -173zM922 1613c70 0 121 53 121 123c0 68 -51 120 -119 120
c-69 0 -121 -53 -121 -123c0 -68 52 -120 119 -120z" />
    <glyph glyph-name="Aringacute" unicode="&#x1fa;" horiz-adv-x="1221" 
d="M846 1341l-463 -789h598l-131 789h-4zM1071 0l-79 482h-648l-285 -482h-90l855 1443h81l242 -1443h-76zM915 1522c-92 0 -168 71 -168 166s76 170 170 170c93 0 168 -71 168 -165c0 -96 -75 -171 -170 -171zM915 1571c69 0 120 52 120 121c-1 66 -51 117 -118 117
c-68 0 -119 -52 -119 -121c0 -66 50 -117 117 -117zM1102 2087h88l-185 -164h-80z" />
    <glyph glyph-name="Atilde" unicode="&#xc3;" horiz-adv-x="1221" 
d="M846 1341l-463 -789h598l-131 789h-4zM1071 0l-79 482h-648l-285 -482h-90l855 1443h81l242 -1443h-76zM1037 1551c-132 0 -155 165 -258 165c-57 0 -108 -57 -126 -153h-62c23 132 98 212 192 212c135 0 156 -165 258 -165c54 0 102 54 122 153h62
c-28 -136 -98 -212 -188 -212z" />
    <glyph glyph-name="Abrevegrave" unicode="&#x1eb0;" horiz-adv-x="1221" 
d="M846 1341l-463 -789h598l-131 789h-4zM1071 0l-79 482h-648l-285 -482h-90l855 1443h81l242 -1443h-76zM982 1771h-75l-178 206h85zM644 1781h62c-1 -3 -2 -11 -2 -20c0 -91 76 -152 191 -152c116 0 208 70 223 172h67c-19 -135 -141 -230 -296 -230
c-148 0 -247 83 -247 202c0 11 1 23 2 28z" />
    <glyph glyph-name="Adotmacron" unicode="&#x1e0;" horiz-adv-x="1221" 
d="M846 1341l-463 -789h598l-131 789h-4zM1071 0l-79 482h-648l-285 -482h-90l855 1443h81l242 -1443h-76zM904 1560c-42 0 -77 35 -77 76c0 42 35 76 77 76c41 0 76 -34 76 -76c0 -41 -35 -76 -76 -76zM1262 1919l-13 -60h-594l13 60h594z" />
    <glyph glyph-name="Aringbelow" unicode="&#x1e00;" horiz-adv-x="1221" 
d="M846 1341l-463 -789h598l-131 789h-4zM1071 0l-79 482h-648l-285 -482h-90l855 1443h81l242 -1443h-76zM498 -444c-93 0 -169 72 -169 168c0 97 76 173 171 173c93 0 170 -72 170 -168c-1 -97 -77 -173 -172 -173zM498 -395c70 0 121 53 121 123c0 68 -51 120 -119 120
c-69 0 -121 -53 -121 -123c0 -68 52 -120 119 -120z" />
    <glyph glyph-name="Acircumflex" unicode="&#xc2;" horiz-adv-x="1221" 
d="M846 1341l-463 -789h598l-131 789h-4zM1071 0l-79 482h-648l-285 -482h-90l855 1443h81l242 -1443h-76zM974 1845l202 -289h-78l-160 232h-3l-259 -232h-90l324 289h64z" />
    <glyph glyph-name="Acircumflexdotbelow" unicode="&#x1eac;" horiz-adv-x="1221" 
d="M846 1341l-463 -789h598l-131 789h-4zM1071 0l-79 482h-648l-285 -482h-90l855 1443h81l242 -1443h-76zM974 1845l202 -289h-78l-160 232h-3l-259 -232h-90l324 289h64zM507 -309c-42 0 -78 35 -78 77s36 78 78 78s78 -36 78 -78s-36 -77 -78 -77z" />
    <glyph glyph-name="Acircumflexacute" unicode="&#x1ea4;" horiz-adv-x="1221" 
d="M846 1341l-463 -789h598l-131 789h-4zM1071 0l-79 482h-648l-285 -482h-90l855 1443h81l242 -1443h-76zM893 1768h69l222 -218h-86l-173 168h-3l-244 -168h-98zM1083 1771l243 206h93l-251 -206h-85z" />
    <glyph glyph-name="Acircumflextilde" unicode="&#x1eaa;" horiz-adv-x="1221" 
d="M846 1341l-463 -789h598l-131 789h-4zM1071 0l-79 482h-648l-285 -482h-90l855 1443h81l242 -1443h-76zM1072 1827c-104 0 -147 119 -224 119c-54 0 -95 -41 -107 -106h-61c17 102 85 164 173 164c103 0 147 -119 224 -119c53 0 93 40 106 106h61
c-17 -101 -86 -164 -172 -164zM893 1765h68l223 -215h-86l-174 166h-3l-243 -166h-98z" />
    <glyph glyph-name="Acircumflexgrave" unicode="&#x1ea6;" horiz-adv-x="1221" 
d="M846 1341l-463 -789h598l-131 789h-4zM1071 0l-79 482h-648l-285 -482h-90l855 1443h81l242 -1443h-76zM893 1768h69l222 -218h-86l-173 168h-3l-244 -168h-98zM1282 1771h-75l-178 206h85z" />
    <glyph glyph-name="Acircumflexhookabove" unicode="&#x1ea8;" horiz-adv-x="1221" 
d="M846 1341l-463 -789h598l-131 789h-4zM1071 0l-79 482h-648l-285 -482h-90l855 1443h81l242 -1443h-76zM893 1768h69l222 -218h-86l-173 168h-3l-244 -168h-98zM1032 1907l12 52c19 10 59 20 98 20c88 0 148 -49 148 -120c0 -66 -39 -118 -107 -148l-33 41
c48 20 76 54 76 96c0 49 -36 79 -97 79c-34 0 -73 -9 -97 -20z" />
    <glyph glyph-name="Abreve" unicode="&#x102;" horiz-adv-x="1221" 
d="M846 1341l-463 -789h598l-131 789h-4zM1071 0l-79 482h-648l-285 -482h-90l855 1443h81l242 -1443h-76zM645 1788h64c-1 -4 -2 -15 -2 -21c0 -98 75 -159 191 -159c117 0 208 71 224 180h64c-21 -145 -138 -237 -299 -237c-145 0 -245 82 -245 209c0 7 1 22 3 28z" />
    <glyph glyph-name="Abreveacute" unicode="&#x1eae;" horiz-adv-x="1221" 
d="M846 1341l-463 -789h598l-131 789h-4zM1071 0l-79 482h-648l-285 -482h-90l855 1443h81l242 -1443h-76zM844 1771l243 206h93l-251 -206h-85zM887 1551c-149 0 -244 83 -244 209c0 4 1 16 1 21h62c-1 -3 -1 -11 -1 -13c0 -97 75 -159 192 -159c114 0 203 69 221 172h67
c-22 -137 -142 -230 -298 -230z" />
    <glyph glyph-name="Abrevetilde" unicode="&#x1eb4;" horiz-adv-x="1221" 
d="M846 1341l-463 -789h598l-131 789h-4zM1071 0l-79 482h-648l-285 -482h-90l855 1443h81l242 -1443h-76zM1070 1824c-122 0 -123 143 -214 143c-50 0 -99 -48 -114 -124h-64c22 110 96 182 184 182c121 0 122 -142 213 -142c52 0 98 46 115 124h64
c-24 -110 -97 -183 -184 -183zM887 1551c-149 0 -244 83 -244 209c0 4 1 16 1 21h62c-1 -3 -1 -11 -1 -13c0 -97 75 -159 192 -159c114 0 203 69 221 172h67c-22 -137 -142 -230 -298 -230z" />
    <glyph glyph-name="Abrevehookabove" unicode="&#x1eb2;" horiz-adv-x="1221" 
d="M846 1341l-463 -789h598l-131 789h-4zM1071 0l-79 482h-648l-285 -482h-90l855 1443h81l242 -1443h-76zM768 1946l13 55c19 10 62 20 100 20c92 0 152 -54 152 -125c0 -67 -39 -121 -110 -152l-35 42c50 21 80 56 80 100c0 47 -36 80 -99 80c-36 0 -76 -9 -101 -20z
M887 1551c-149 0 -244 83 -244 209c0 4 1 16 1 21h62c-1 -3 -1 -11 -1 -13c0 -97 75 -159 192 -159c114 0 203 69 221 172h67c-22 -137 -142 -230 -298 -230z" />
    <glyph glyph-name="Abrevedotbelow" unicode="&#x1eb6;" horiz-adv-x="1221" 
d="M846 1341l-463 -789h598l-131 789h-4zM1071 0l-79 482h-648l-285 -482h-90l855 1443h81l242 -1443h-76zM645 1788h64c-1 -4 -2 -15 -2 -21c0 -98 75 -159 191 -159c117 0 208 71 224 180h64c-21 -145 -138 -237 -299 -237c-145 0 -245 82 -245 209c0 7 1 22 3 28z
M507 -309c-42 0 -78 35 -78 77s36 78 78 78s78 -36 78 -78s-36 -77 -78 -77z" />
    <glyph glyph-name="Ainvertedbreve" unicode="&#x202;" horiz-adv-x="1221" 
d="M846 1341l-463 -789h598l-131 789h-4zM1071 0l-79 482h-648l-285 -482h-90l855 1443h81l242 -1443h-76zM1166 1551h-64c2 2 4 14 4 27c0 92 -76 153 -191 153c-119 0 -212 -73 -225 -180h-64c16 141 136 237 297 237c143 0 248 -83 248 -203c0 -15 -2 -29 -5 -34z" />
    <glyph glyph-name="Acaron" unicode="&#x1cd;" horiz-adv-x="1221" 
d="M846 1341l-463 -789h598l-131 789h-4zM1071 0l-79 482h-648l-285 -482h-90l855 1443h81l242 -1443h-76zM859 1556l-201 289h78l159 -232h4l258 232h90l-324 -289h-64z" />
    <glyph glyph-name="Adotaccent" unicode="&#x226;" horiz-adv-x="1221" 
d="M846 1341l-463 -789h598l-131 789h-4zM1071 0l-79 482h-648l-285 -482h-90l855 1443h81l242 -1443h-76zM919 1644c-42 0 -78 35 -78 77s36 78 78 78s78 -36 78 -78s-36 -77 -78 -77z" />
    <glyph glyph-name="Adotbelow" unicode="&#x1ea0;" horiz-adv-x="1221" 
d="M846 1341l-463 -789h598l-131 789h-4zM1071 0l-79 482h-648l-285 -482h-90l855 1443h81l242 -1443h-76zM507 -309c-42 0 -78 35 -78 77s36 78 78 78s78 -36 78 -78s-36 -77 -78 -77z" />
    <glyph glyph-name="Ahookabove" unicode="&#x1ea2;" horiz-adv-x="1221" 
d="M846 1341l-463 -789h598l-131 789h-4zM1071 0l-79 482h-648l-285 -482h-90l855 1443h81l242 -1443h-76zM756 1754l12 55c19 11 61 20 93 20c93 0 155 -52 155 -127c0 -77 -57 -136 -147 -163l-26 44c66 20 107 60 107 111c0 49 -36 80 -98 80c-36 0 -72 -8 -96 -20z" />
    <glyph glyph-name="Adblgrave" unicode="&#x200;" horiz-adv-x="1221" 
d="M846 1341l-463 -789h598l-131 789h-4zM1071 0l-79 482h-648l-285 -482h-90l855 1443h81l242 -1443h-76zM719 1556l-184 287h86l171 -287h-73zM989 1556l-184 287h85l172 -287h-73z" />
    <glyph glyph-name="Amacron" unicode="&#x100;" horiz-adv-x="1221" 
d="M846 1341l-463 -789h598l-131 789h-4zM1071 0l-79 482h-648l-285 -482h-90l855 1443h81l242 -1443h-76zM1211 1679l-13 -59h-594l13 59h594z" />
    <glyph glyph-name="Aogonek" unicode="&#x104;" horiz-adv-x="1221" 
d="M1068 -318l-13 -61c-17 -8 -51 -14 -82 -14c-95 0 -163 59 -163 142c0 104 91 195 260 261l-80 472h-647l-283 -482h-91l854 1443h81l243 -1441l-6 -4c-173 -69 -257 -147 -257 -231c0 -57 47 -98 114 -98c29 0 54 4 70 13zM844 1340l-461 -788h597l-132 788h-4z" />
    <glyph glyph-name="B" unicode="B" horiz-adv-x="1198" 
d="M596 0h-516l307 1443h476c231 0 368 -131 368 -316c0 -191 -154 -350 -352 -382l-1 -4c165 -22 281 -132 281 -307c0 -262 -228 -434 -563 -434zM452 1371l-126 -593h416c224 0 407 145 407 336c0 158 -105 257 -308 257h-389zM176 72h423c285 0 478 149 478 356
c0 187 -145 279 -347 279h-419z" />
    <glyph glyph-name="Blinebelow" unicode="&#x1e06;" horiz-adv-x="1198" 
d="M596 0h-516l307 1443h476c231 0 368 -131 368 -316c0 -191 -154 -350 -352 -382l-1 -4c165 -22 281 -132 281 -307c0 -262 -228 -434 -563 -434zM452 1371l-126 -593h416c224 0 407 145 407 336c0 158 -105 257 -308 257h-389zM176 72h423c285 0 478 149 478 356
c0 187 -145 279 -347 279h-419zM784 -231l-13 -59h-594l13 59h594z" />
    <glyph glyph-name="Bdotbelow" unicode="&#x1e04;" horiz-adv-x="1198" 
d="M596 0h-516l307 1443h476c231 0 368 -131 368 -316c0 -191 -154 -350 -352 -382l-1 -4c165 -22 281 -132 281 -307c0 -262 -228 -434 -563 -434zM452 1371l-126 -593h416c224 0 407 145 407 336c0 158 -105 257 -308 257h-389zM176 72h423c285 0 478 149 478 356
c0 187 -145 279 -347 279h-419zM483 -309c-42 0 -78 35 -78 77s36 78 78 78s78 -36 78 -78s-36 -77 -78 -77z" />
    <glyph glyph-name="Bdotaccent" unicode="&#x1e02;" horiz-adv-x="1198" 
d="M596 0h-516l307 1443h476c231 0 368 -131 368 -316c0 -191 -154 -350 -352 -382l-1 -4c165 -22 281 -132 281 -307c0 -262 -228 -434 -563 -434zM452 1371l-126 -593h416c224 0 407 145 407 336c0 158 -105 257 -308 257h-389zM176 72h423c285 0 478 149 478 356
c0 187 -145 279 -347 279h-419zM836 1644c-42 0 -78 35 -78 77s36 78 78 78s78 -36 78 -78s-36 -77 -78 -77z" />
    <glyph glyph-name="C" unicode="C" horiz-adv-x="1356" 
d="M1356 974v7c-8 240 -187 409 -460 409c-366 0 -645 -353 -645 -810c0 -318 195 -527 491 -527c239 0 430 129 509 345h83c-85 -260 -311 -419 -595 -419c-341 0 -568 238 -568 595c0 505 313 890 728 890c317 0 530 -199 537 -482v-8h-80z" />
    <glyph glyph-name="Cacute" unicode="&#x106;" horiz-adv-x="1356" 
d="M1356 974v7c-8 240 -187 409 -460 409c-366 0 -645 -353 -645 -810c0 -318 195 -527 491 -527c239 0 430 129 509 345h83c-85 -260 -311 -419 -595 -419c-341 0 -568 238 -568 595c0 505 313 890 728 890c317 0 530 -199 537 -482v-8h-80zM984 1557h-86l336 287h100z" />
    <glyph glyph-name="Ccaron" unicode="&#x10c;" horiz-adv-x="1356" 
d="M1356 974v7c-8 240 -187 409 -460 409c-366 0 -645 -353 -645 -810c0 -318 195 -527 491 -527c239 0 430 129 509 345h83c-85 -260 -311 -419 -595 -419c-341 0 -568 238 -568 595c0 505 313 890 728 890c317 0 530 -199 537 -482v-8h-80zM916 1557l-201 289h78l159 -232
h4l258 232h90l-324 -289h-64z" />
    <glyph glyph-name="Ccircumflex" unicode="&#x108;" horiz-adv-x="1356" 
d="M1356 974v7c-8 240 -187 409 -460 409c-366 0 -645 -353 -645 -810c0 -318 195 -527 491 -527c239 0 430 129 509 345h83c-85 -260 -311 -419 -595 -419c-341 0 -568 238 -568 595c0 505 313 890 728 890c317 0 530 -199 537 -482v-8h-80zM1031 1846l202 -289h-78
l-160 232h-3l-259 -232h-90l324 289h64z" />
    <glyph glyph-name="Cdotaccent" unicode="&#x10a;" horiz-adv-x="1356" 
d="M1356 974v7c-8 240 -187 409 -460 409c-366 0 -645 -353 -645 -810c0 -318 195 -527 491 -527c239 0 430 129 509 345h83c-85 -260 -311 -419 -595 -419c-341 0 -568 238 -568 595c0 505 313 890 728 890c317 0 530 -199 537 -482v-8h-80zM976 1645c-42 0 -78 35 -78 77
s36 78 78 78s78 -36 78 -78s-36 -77 -78 -77z" />
    <glyph glyph-name="Ccedilla" unicode="&#xc7;" horiz-adv-x="1356" 
d="M600 -147l82 128c-309 25 -511 256 -511 593c0 505 313 890 728 890c317 0 530 -199 537 -482v-8h-80v7c-8 240 -187 409 -460 409c-366 0 -645 -353 -645 -810c0 -318 195 -527 491 -527c239 0 430 129 509 345h83c-84 -258 -307 -416 -587 -419l-77 -120
c116 -6 184 -59 184 -150c0 -109 -88 -176 -213 -176c-66 0 -124 15 -168 37l13 60c42 -22 91 -36 153 -36c88 0 148 39 148 109c0 64 -51 98 -145 105l-52 3z" />
    <glyph glyph-name="Ccedillaacute" unicode="&#x1e08;" horiz-adv-x="1356" 
d="M1334 1844l-350 -287h-86l336 287h100zM600 -147l82 128c-309 25 -511 256 -511 593c0 505 313 890 728 890c317 0 530 -199 537 -482v-8h-80v7c-8 240 -187 409 -460 409c-366 0 -645 -353 -645 -810c0 -318 195 -527 491 -527c239 0 430 129 509 345h83
c-84 -258 -307 -416 -587 -419l-77 -120c116 -6 184 -59 184 -150c0 -109 -88 -176 -213 -176c-66 0 -124 15 -168 37l13 60c42 -22 91 -36 153 -36c88 0 148 39 148 109c0 64 -51 98 -145 105l-52 3z" />
    <glyph glyph-name="D" unicode="D" horiz-adv-x="1362" 
d="M387 1443h424c375 0 584 -218 584 -563c0 -512 -332 -880 -837 -880h-477zM453 1371l-275 -1299h377c455 0 759 338 759 799c0 313 -176 500 -515 500h-346z" />
    <glyph glyph-name="Ddotaccent" unicode="&#x1e0a;" horiz-adv-x="1363" 
d="M387 1443h424c375 0 584 -218 584 -563c0 -512 -332 -880 -837 -880h-477zM453 1371l-275 -1299h377c455 0 759 338 759 799c0 313 -176 500 -515 500h-346zM833 1644c-42 0 -78 35 -78 77s36 78 78 78s78 -36 78 -78s-36 -77 -78 -77z" />
    <glyph glyph-name="Dcircumflexbelow" unicode="&#x1e12;" horiz-adv-x="1363" 
d="M387 1443h424c375 0 584 -218 584 -563c0 -512 -332 -880 -837 -880h-477zM453 1371l-275 -1299h377c455 0 759 338 759 799c0 313 -176 500 -515 500h-346zM499 -165l202 -289h-78l-160 232h-3l-259 -232h-90l324 289h64z" />
    <glyph glyph-name="Dcommaaccent" unicode="&#x1e10;" horiz-adv-x="1363" 
d="M387 1443h424c375 0 584 -218 584 -563c0 -512 -332 -880 -837 -880h-477zM453 1371l-275 -1299h377c455 0 759 338 759 799c0 313 -176 500 -515 500h-346zM334 -475h-66l175 341h82z" />
    <glyph glyph-name="Dlinebelow" unicode="&#x1e0e;" horiz-adv-x="1363" 
d="M387 1443h424c375 0 584 -218 584 -563c0 -512 -332 -880 -837 -880h-477zM453 1371l-275 -1299h377c455 0 759 338 759 799c0 313 -176 500 -515 500h-346zM757 -231l-13 -59h-594l13 59h594z" />
    <glyph glyph-name="Dcaron" unicode="&#x10e;" horiz-adv-x="1363" 
d="M387 1443h424c375 0 584 -218 584 -563c0 -512 -332 -880 -837 -880h-477zM453 1371l-275 -1299h377c455 0 759 338 759 799c0 313 -176 500 -515 500h-346zM773 1556l-201 289h78l159 -232h4l258 232h90l-324 -289h-64z" />
    <glyph glyph-name="Ddotbelow" unicode="&#x1e0c;" horiz-adv-x="1363" 
d="M387 1443h424c375 0 584 -218 584 -563c0 -512 -332 -880 -837 -880h-477zM453 1371l-275 -1299h377c455 0 759 338 759 799c0 313 -176 500 -515 500h-346zM456 -309c-42 0 -78 35 -78 77s36 78 78 78s78 -36 78 -78s-36 -77 -78 -77z" />
    <glyph glyph-name="Dcroat" unicode="&#x110;" horiz-adv-x="1363" 
d="M178 72h377c455 0 759 338 759 799c0 313 -176 500 -515 500h-346l-127 -598h419l-15 -72h-419zM387 1443h424c375 0 584 -218 584 -563c0 -512 -332 -880 -837 -880h-477l149 701h-134l16 72h133z" />
    <glyph glyph-name="E" unicode="E" horiz-adv-x="1060" 
d="M937 73l-15 -73h-842l307 1443h842l-16 -73h-761l-126 -594h725l-16 -72h-725l-133 -631h760z" />
    <glyph glyph-name="Egrave" unicode="&#xc8;" horiz-adv-x="1060" 
d="M937 73l-15 -73h-842l307 1443h842l-16 -73h-761l-126 -594h725l-16 -72h-725l-133 -631h760zM785 1556l-184 287h86l171 -287h-73z" />
    <glyph glyph-name="Edblgrave" unicode="&#x204;" horiz-adv-x="1060" 
d="M937 73l-15 -73h-842l307 1443h842l-16 -73h-761l-126 -594h725l-16 -72h-725l-133 -631h760zM664 1556l-184 287h86l171 -287h-73zM934 1556l-184 287h85l172 -287h-73z" />
    <glyph glyph-name="Eacute" unicode="&#xc9;" horiz-adv-x="1060" 
d="M937 73l-15 -73h-842l307 1443h842l-16 -73h-761l-126 -594h725l-16 -72h-725l-133 -631h760zM872 1556h-86l336 287h100z" />
    <glyph glyph-name="Ecircumflex" unicode="&#xca;" horiz-adv-x="1060" 
d="M937 73l-15 -73h-842l307 1443h842l-16 -73h-761l-126 -594h725l-16 -72h-725l-133 -631h760zM919 1845l202 -289h-78l-160 232h-3l-259 -232h-90l324 289h64z" />
    <glyph glyph-name="Ecircumflexhookabove" unicode="&#x1ec2;" horiz-adv-x="1060" 
d="M937 73l-15 -73h-842l307 1443h842l-16 -73h-761l-126 -594h725l-16 -72h-725l-133 -631h760zM838 1768h69l222 -218h-86l-173 168h-3l-244 -168h-98zM977 1907l12 52c19 10 59 20 98 20c88 0 148 -49 148 -120c0 -66 -39 -118 -107 -148l-33 41c48 20 76 54 76 96
c0 49 -36 79 -97 79c-34 0 -73 -9 -97 -20z" />
    <glyph glyph-name="Ecircumflexgrave" unicode="&#x1ec0;" horiz-adv-x="1060" 
d="M937 73l-15 -73h-842l307 1443h842l-16 -73h-761l-126 -594h725l-16 -72h-725l-133 -631h760zM838 1768h69l222 -218h-86l-173 168h-3l-244 -168h-98zM1227 1771h-75l-178 206h85z" />
    <glyph glyph-name="Ecircumflextilde" unicode="&#x1ec4;" horiz-adv-x="1060" 
d="M937 73l-15 -73h-842l307 1443h842l-16 -73h-761l-126 -594h725l-16 -72h-725l-133 -631h760zM1017 1827c-104 0 -147 119 -224 119c-54 0 -95 -41 -107 -106h-61c17 102 85 164 173 164c103 0 147 -119 224 -119c53 0 93 40 106 106h61c-17 -101 -86 -164 -172 -164z
M838 1765h68l223 -215h-86l-174 166h-3l-243 -166h-98z" />
    <glyph glyph-name="Ecircumflexdotbelow" unicode="&#x1ec6;" horiz-adv-x="1060" 
d="M937 73l-15 -73h-842l307 1443h842l-16 -73h-761l-126 -594h725l-16 -72h-725l-133 -631h760zM919 1845l202 -289h-78l-160 232h-3l-259 -232h-90l324 289h64zM469 -309c-42 0 -78 35 -78 77s36 78 78 78s78 -36 78 -78s-36 -77 -78 -77z" />
    <glyph glyph-name="Ecircumflexacute" unicode="&#x1ebe;" horiz-adv-x="1060" 
d="M937 73l-15 -73h-842l307 1443h842l-16 -73h-761l-126 -594h725l-16 -72h-725l-133 -631h760zM838 1768h69l222 -218h-86l-173 168h-3l-244 -168h-98zM1028 1771l243 206h93l-251 -206h-85z" />
    <glyph glyph-name="Edieresis" unicode="&#xcb;" horiz-adv-x="1060" 
d="M937 73l-15 -73h-842l307 1443h842l-16 -73h-761l-126 -594h725l-16 -72h-725l-133 -631h760zM707 1605c-37 0 -67 30 -67 66c0 37 30 66 67 66c36 0 66 -29 66 -66c0 -36 -30 -66 -66 -66zM1005 1605c-36 0 -67 30 -67 66c0 37 31 66 67 66s67 -29 67 -66
c0 -36 -31 -66 -67 -66z" />
    <glyph glyph-name="Edotbelow" unicode="&#x1eb8;" horiz-adv-x="1060" 
d="M937 73l-15 -73h-842l307 1443h842l-16 -73h-761l-126 -594h725l-16 -72h-725l-133 -631h760zM469 -309c-42 0 -78 35 -78 77s36 78 78 78s78 -36 78 -78s-36 -77 -78 -77z" />
    <glyph glyph-name="Einvertedbreve" unicode="&#x206;" horiz-adv-x="1060" 
d="M937 73l-15 -73h-842l307 1443h842l-16 -73h-761l-126 -594h725l-16 -72h-725l-133 -631h760zM1111 1551h-64c2 2 4 14 4 27c0 92 -76 153 -191 153c-119 0 -212 -73 -225 -180h-64c16 141 136 237 297 237c143 0 248 -83 248 -203c0 -15 -2 -29 -5 -34z" />
    <glyph glyph-name="Ehookabove" unicode="&#x1eba;" horiz-adv-x="1060" 
d="M937 73l-15 -73h-842l307 1443h842l-16 -73h-761l-126 -594h725l-16 -72h-725l-133 -631h760zM701 1754l12 55c19 11 61 20 93 20c93 0 155 -52 155 -127c0 -77 -57 -136 -147 -163l-26 44c66 20 107 60 107 111c0 49 -36 80 -98 80c-36 0 -72 -8 -96 -20z" />
    <glyph glyph-name="Ecaron" unicode="&#x11a;" horiz-adv-x="1060" 
d="M937 73l-15 -73h-842l307 1443h842l-16 -73h-761l-126 -594h725l-16 -72h-725l-133 -631h760zM804 1556l-201 289h78l159 -232h4l258 232h90l-324 -289h-64z" />
    <glyph glyph-name="Emacron" unicode="&#x112;" horiz-adv-x="1060" 
d="M937 73l-15 -73h-842l307 1443h842l-16 -73h-761l-126 -594h725l-16 -72h-725l-133 -631h760zM1156 1679l-13 -59h-594l13 59h594z" />
    <glyph glyph-name="Emacrongrave" unicode="&#x1e14;" horiz-adv-x="1060" 
d="M937 73l-15 -73h-842l307 1443h842l-16 -73h-761l-126 -594h725l-16 -72h-725l-133 -631h760zM1139 1608h-593l13 60h593zM924 1771h-75l-178 206h84z" />
    <glyph glyph-name="Emacronacute" unicode="&#x1e16;" horiz-adv-x="1060" 
d="M937 73l-15 -73h-842l307 1443h842l-16 -73h-761l-126 -594h725l-16 -72h-725l-133 -631h760zM1139 1608h-593l13 60h593zM820 1771l243 206h93l-251 -206h-85z" />
    <glyph glyph-name="Etilde" unicode="&#x1ebc;" horiz-adv-x="1060" 
d="M937 73l-15 -73h-842l307 1443h842l-16 -73h-761l-126 -594h725l-16 -72h-725l-133 -631h760zM982 1551c-132 0 -155 165 -258 165c-57 0 -108 -57 -126 -153h-62c23 132 98 212 192 212c135 0 156 -165 258 -165c54 0 102 54 122 153h62c-28 -136 -98 -212 -188 -212z
" />
    <glyph glyph-name="Ecircumflexbelow" unicode="&#x1e18;" horiz-adv-x="1060" 
d="M937 73l-15 -73h-842l307 1443h842l-16 -73h-761l-126 -594h725l-16 -72h-725l-133 -631h760zM512 -165l202 -289h-78l-160 232h-3l-259 -232h-90l324 289h64z" />
    <glyph glyph-name="Ebreve" unicode="&#x114;" horiz-adv-x="1060" 
d="M937 73l-15 -73h-842l307 1443h842l-16 -73h-761l-126 -594h725l-16 -72h-725l-133 -631h760zM590 1788h64c-1 -4 -2 -15 -2 -21c0 -98 75 -159 191 -159c117 0 208 71 224 180h64c-21 -145 -138 -237 -299 -237c-145 0 -245 82 -245 209c0 7 1 22 3 28z" />
    <glyph glyph-name="Etildebelow" unicode="&#x1e1a;" horiz-adv-x="1060" 
d="M937 73l-15 -73h-842l307 1443h842l-16 -73h-761l-126 -594h725l-16 -72h-725l-133 -631h760zM590 -387c-132 0 -155 165 -258 165c-57 0 -108 -57 -126 -153h-62c23 132 98 212 192 212c135 0 156 -165 258 -165c54 0 102 54 122 153h62c-28 -136 -98 -212 -188 -212z
" />
    <glyph glyph-name="Edotaccent" unicode="&#x116;" horiz-adv-x="1060" 
d="M937 73l-15 -73h-842l307 1443h842l-16 -73h-761l-126 -594h725l-16 -72h-725l-133 -631h760zM864 1644c-42 0 -78 35 -78 77s36 78 78 78s78 -36 78 -78s-36 -77 -78 -77z" />
    <glyph glyph-name="Ecedilla" unicode="&#x228;" horiz-adv-x="1060" 
d="M1213 1370h-761l-126 -594h725l-16 -72h-725l-133 -631h760l-15 -73h-366l-90 -141c116 -6 184 -59 184 -150c0 -109 -88 -176 -213 -176c-66 0 -124 15 -168 37l13 60c42 -22 91 -36 153 -36c88 0 148 39 148 109c0 64 -51 98 -145 105l-52 3l10 42l94 147h-410
l307 1443h842z" />
    <glyph glyph-name="Ecedillabreve" unicode="&#x1e1c;" horiz-adv-x="1060" 
d="M1067 1788h64c-21 -145 -138 -237 -299 -237c-145 0 -245 82 -245 209c0 7 1 22 3 28h64c-1 -4 -2 -15 -2 -21c0 -98 75 -159 191 -159c117 0 208 71 224 180zM1213 1370h-761l-126 -594h725l-16 -72h-725l-133 -631h760l-15 -73h-366l-90 -141c116 -6 184 -59 184 -150
c0 -109 -88 -176 -213 -176c-66 0 -124 15 -168 37l13 60c42 -22 91 -36 153 -36c88 0 148 39 148 109c0 64 -51 98 -145 105l-52 3l10 42l94 147h-410l307 1443h842z" />
    <glyph glyph-name="Eogonek" unicode="&#x118;" horiz-adv-x="1060" 
d="M80 0l307 1443h842l-16 -73h-761l-127 -594h726l-16 -72h-725l-134 -631h761l-14 -69l-5 -3c-181 -83 -262 -155 -262 -234c0 -57 48 -98 115 -98c28 0 53 4 69 13l-12 -61c-17 -8 -51 -14 -82 -14c-96 0 -163 59 -163 142c0 94 82 181 237 250v1h-740z" />
    <glyph glyph-name="F" unicode="F" horiz-adv-x="1025" 
d="M160 0h-80l307 1443h830l-15 -73h-750l-128 -603h690l-16 -72h-690z" />
    <glyph glyph-name="Fdotaccent" unicode="&#x1e1e;" horiz-adv-x="1025" 
d="M160 0h-80l307 1443h830l-15 -73h-750l-128 -603h690l-16 -72h-690zM858 1644c-42 0 -78 35 -78 77s36 78 78 78s78 -36 78 -78s-36 -77 -78 -77z" />
    <glyph glyph-name="G" unicode="G" horiz-adv-x="1374" 
d="M1392 701l-41 -188c-75 -341 -301 -534 -616 -534c-342 0 -564 242 -564 595c0 477 287 890 724 890c301 0 507 -180 531 -451v-4h-80c-26 233 -200 381 -454 381c-383 0 -641 -378 -641 -810c0 -315 190 -527 487 -527c270 0 470 174 535 466l24 111h-480l15 71h560z
" />
    <glyph glyph-name="Gacute" unicode="&#x1f4;" horiz-adv-x="1374" 
d="M1392 701l-41 -188c-75 -341 -301 -534 -616 -534c-342 0 -564 242 -564 595c0 477 287 890 724 890c301 0 507 -180 531 -451v-4h-80c-26 233 -200 381 -454 381c-383 0 -641 -378 -641 -810c0 -315 190 -527 487 -527c270 0 470 174 535 466l24 111h-480l15 71h560z
M954 1556h-86l336 287h100z" />
    <glyph glyph-name="Gcaron" unicode="&#x1e6;" horiz-adv-x="1374" 
d="M1392 701l-41 -188c-75 -341 -301 -534 -616 -534c-342 0 -564 242 -564 595c0 477 287 890 724 890c301 0 507 -180 531 -451v-4h-80c-26 233 -200 381 -454 381c-383 0 -641 -378 -641 -810c0 -315 190 -527 487 -527c270 0 470 174 535 466l24 111h-480l15 71h560z
M886 1556l-201 289h78l159 -232h4l258 232h90l-324 -289h-64z" />
    <glyph glyph-name="Gcircumflex" unicode="&#x11c;" horiz-adv-x="1374" 
d="M1392 701l-41 -188c-75 -341 -301 -534 -616 -534c-342 0 -564 242 -564 595c0 477 287 890 724 890c301 0 507 -180 531 -451v-4h-80c-26 233 -200 381 -454 381c-383 0 -641 -378 -641 -810c0 -315 190 -527 487 -527c270 0 470 174 535 466l24 111h-480l15 71h560z
M1001 1845l202 -289h-78l-160 232h-3l-259 -232h-90l324 289h64z" />
    <glyph glyph-name="Gbreve" unicode="&#x11e;" horiz-adv-x="1374" 
d="M1392 701l-41 -188c-75 -341 -301 -534 -616 -534c-342 0 -564 242 -564 595c0 477 287 890 724 890c301 0 507 -180 531 -451v-4h-80c-26 233 -200 381 -454 381c-383 0 -641 -378 -641 -810c0 -315 190 -527 487 -527c270 0 470 174 535 466l24 111h-480l15 71h560z
M672 1788h64c-1 -4 -2 -15 -2 -21c0 -98 75 -159 191 -159c117 0 208 71 224 180h64c-21 -145 -138 -237 -299 -237c-145 0 -245 82 -245 209c0 7 1 22 3 28z" />
    <glyph glyph-name="Gmacron" unicode="&#x1e20;" horiz-adv-x="1374" 
d="M1392 701l-41 -188c-75 -341 -301 -534 -616 -534c-342 0 -564 242 -564 595c0 477 287 890 724 890c301 0 507 -180 531 -451v-4h-80c-26 233 -200 381 -454 381c-383 0 -641 -378 -641 -810c0 -315 190 -527 487 -527c270 0 470 174 535 466l24 111h-480l15 71h560z
M1238 1679l-13 -59h-594l13 59h594z" />
    <glyph glyph-name="Gdotaccent" unicode="&#x120;" horiz-adv-x="1374" 
d="M1392 701l-41 -188c-75 -341 -301 -534 -616 -534c-342 0 -564 242 -564 595c0 477 287 890 724 890c301 0 507 -180 531 -451v-4h-80c-26 233 -200 381 -454 381c-383 0 -641 -378 -641 -810c0 -315 190 -527 487 -527c270 0 470 174 535 466l24 111h-480l15 71h560z
M946 1644c-42 0 -78 35 -78 77s36 78 78 78s78 -36 78 -78s-36 -77 -78 -77z" />
    <glyph glyph-name="Gcommaaccent" unicode="&#x122;" horiz-adv-x="1374" 
d="M1392 701l-41 -188c-75 -341 -301 -534 -616 -534c-342 0 -564 242 -564 595c0 477 287 890 724 890c301 0 507 -180 531 -451v-4h-80c-26 233 -200 381 -454 381c-383 0 -641 -378 -641 -810c0 -315 190 -527 487 -527c270 0 470 174 535 466l24 111h-480l15 71h560z
M559 -475h-66l175 341h82z" />
    <glyph glyph-name="H" unicode="H" horiz-adv-x="1338" 
d="M1152 0h-80l150 705h-912l-150 -705h-80l307 1443h80l-141 -666h912l141 666h80z" />
    <glyph glyph-name="Hdieresis" unicode="&#x1e26;" horiz-adv-x="1338" 
d="M1152 0h-80l150 705h-912l-150 -705h-80l307 1443h80l-141 -666h912l141 666h80zM820 1605c-37 0 -67 30 -67 66c0 37 30 66 67 66c36 0 66 -29 66 -66c0 -36 -30 -66 -66 -66zM1118 1605c-36 0 -67 30 -67 66c0 37 31 66 67 66s67 -29 67 -66c0 -36 -31 -66 -67 -66z
" />
    <glyph glyph-name="Hcaron" unicode="&#x21e;" horiz-adv-x="1338" 
d="M1152 0h-80l150 705h-912l-150 -705h-80l307 1443h80l-141 -666h912l141 666h80zM917 1556l-201 289h78l159 -232h4l258 232h90l-324 -289h-64z" />
    <glyph glyph-name="Hcircumflex" unicode="&#x124;" horiz-adv-x="1338" 
d="M1152 0h-80l150 705h-912l-150 -705h-80l307 1443h80l-141 -666h912l141 666h80zM1032 1845l202 -289h-78l-160 232h-3l-259 -232h-90l324 289h64z" />
    <glyph glyph-name="Hdotbelow" unicode="&#x1e24;" horiz-adv-x="1338" 
d="M1152 0h-80l150 705h-912l-150 -705h-80l307 1443h80l-141 -666h912l141 666h80zM572 -309c-42 0 -78 35 -78 77s36 78 78 78s78 -36 78 -78s-36 -77 -78 -77z" />
    <glyph glyph-name="Hdotaccent" unicode="&#x1e22;" horiz-adv-x="1338" 
d="M1152 0h-80l150 705h-912l-150 -705h-80l307 1443h80l-141 -666h912l141 666h80zM977 1644c-42 0 -78 35 -78 77s36 78 78 78s78 -36 78 -78s-36 -77 -78 -77z" />
    <glyph glyph-name="Hbrevebelow" unicode="&#x1e2a;" horiz-adv-x="1338" 
d="M1152 0h-80l150 705h-912l-150 -705h-80l307 1443h80l-141 -666h912l141 666h80zM300 -155h64c-1 -4 -2 -16 -2 -21c0 -98 75 -159 191 -159c117 0 208 70 224 180h64c-21 -145 -138 -238 -299 -238c-145 0 -245 82 -245 209c0 8 1 23 3 29z" />
    <glyph glyph-name="Hcedilla" unicode="&#x1e28;" horiz-adv-x="1338" 
d="M1379 1443h80l-307 -1443h-80l150 705h-912l-147 -693v0l-3 -12l-90 -141c116 -6 184 -59 184 -150c0 -109 -88 -176 -213 -176c-66 0 -124 15 -168 37l13 60c42 -22 91 -36 153 -36c88 0 148 39 148 109c0 64 -51 98 -145 105l-52 3l10 42l94 147h-14l307 1443h80
l-141 -666h912z" />
    <glyph glyph-name="Hbar" unicode="&#x126;" horiz-adv-x="1338" 
d="M1238 777l69 327h-912l-69 -327h912zM1504 1176l-16 -72h-101l-235 -1104h-80l150 705h-912l-150 -705h-80l235 1104h-99l16 72h98l57 267h80l-57 -267h912l57 267h80l-57 -267h102z" />
    <glyph glyph-name="I" unicode="I" horiz-adv-x="346" 
d="M160 0h-80l307 1443h80z" />
    <glyph glyph-name="Idotaccent" unicode="&#x130;" horiz-adv-x="346" 
d="M160 0h-80l307 1443h80zM483 1644c-42 0 -78 35 -78 77s36 78 78 78s78 -36 78 -78s-36 -77 -78 -77z" />
    <glyph glyph-name="Igrave" unicode="&#xcc;" horiz-adv-x="346" 
d="M160 0h-80l307 1443h80zM404 1556l-184 287h86l171 -287h-73z" />
    <glyph glyph-name="Idblgrave" unicode="&#x208;" horiz-adv-x="346" 
d="M160 0h-80l307 1443h80zM283 1556l-184 287h86l171 -287h-73zM553 1556l-184 287h85l172 -287h-73z" />
    <glyph glyph-name="Iacute" unicode="&#xcd;" horiz-adv-x="346" 
d="M160 0h-80l307 1443h80zM491 1556h-86l336 287h100z" />
    <glyph glyph-name="Icircumflex" unicode="&#xce;" horiz-adv-x="346" 
d="M160 0h-80l307 1443h80zM538 1845l202 -289h-78l-160 232h-3l-259 -232h-90l324 289h64z" />
    <glyph glyph-name="Icaron" unicode="&#x1cf;" horiz-adv-x="346" 
d="M160 0h-80l307 1443h80zM423 1556l-201 289h78l159 -232h4l258 232h90l-324 -289h-64z" />
    <glyph glyph-name="Idieresis" unicode="&#xcf;" horiz-adv-x="346" 
d="M160 0h-80l307 1443h80zM326 1605c-37 0 -67 30 -67 66c0 37 30 66 67 66c36 0 66 -29 66 -66c0 -36 -30 -66 -66 -66zM624 1605c-36 0 -67 30 -67 66c0 37 31 66 67 66s67 -29 67 -66c0 -36 -31 -66 -67 -66z" />
    <glyph glyph-name="Idieresisacute" unicode="&#x1e2e;" horiz-adv-x="346" 
d="M160 0h-80l307 1443h80zM431 1771l243 206h93l-251 -206h-85zM317 1553c-35 0 -65 29 -65 65s30 65 65 65c36 0 65 -29 65 -65s-29 -65 -65 -65zM611 1553c-36 0 -65 29 -65 65s29 65 65 65s65 -29 65 -65s-29 -65 -65 -65z" />
    <glyph glyph-name="Ibreve" unicode="&#x12c;" horiz-adv-x="346" 
d="M160 0h-80l307 1443h80zM209 1788h64c-1 -4 -2 -15 -2 -21c0 -98 75 -159 191 -159c117 0 208 71 224 180h64c-21 -145 -138 -237 -299 -237c-145 0 -245 82 -245 209c0 7 1 22 3 28z" />
    <glyph glyph-name="Idotbelow" unicode="&#x1eca;" horiz-adv-x="346" 
d="M160 0h-80l307 1443h80zM68 -309c-42 0 -78 35 -78 77s36 78 78 78s78 -36 78 -78s-36 -77 -78 -77z" />
    <glyph glyph-name="Iinvertedbreve" unicode="&#x20a;" horiz-adv-x="346" 
d="M160 0h-80l307 1443h80zM730 1551h-64c2 2 4 14 4 27c0 92 -76 153 -191 153c-119 0 -212 -73 -225 -180h-64c16 141 136 237 297 237c143 0 248 -83 248 -203c0 -15 -2 -29 -5 -34z" />
    <glyph glyph-name="Imacron" unicode="&#x12a;" horiz-adv-x="346" 
d="M160 0h-80l307 1443h80zM775 1679l-13 -59h-594l13 59h594z" />
    <glyph glyph-name="Itildebelow" unicode="&#x1e2c;" horiz-adv-x="346" 
d="M160 0h-80l307 1443h80zM189 -387c-132 0 -155 165 -258 165c-57 0 -108 -57 -126 -153h-62c23 132 98 212 192 212c135 0 156 -165 258 -165c54 0 102 54 122 153h62c-28 -136 -98 -212 -188 -212z" />
    <glyph glyph-name="Ihookabove" unicode="&#x1ec8;" horiz-adv-x="346" 
d="M160 0h-80l307 1443h80zM320 1754l12 55c19 11 61 20 93 20c93 0 155 -52 155 -127c0 -77 -57 -136 -147 -163l-26 44c66 20 107 60 107 111c0 49 -36 80 -98 80c-36 0 -72 -8 -96 -20z" />
    <glyph glyph-name="Itilde" unicode="&#x128;" horiz-adv-x="346" 
d="M160 0h-80l307 1443h80zM601 1551c-132 0 -155 165 -258 165c-57 0 -108 -57 -126 -153h-62c23 132 98 212 192 212c135 0 156 -165 258 -165c54 0 102 54 122 153h62c-28 -136 -98 -212 -188 -212z" />
    <glyph glyph-name="Iogonek" unicode="&#x12e;" horiz-adv-x="346" 
d="M50 -393c-96 0 -163 59 -163 142c0 89 62 170 193 255v0l307 1439h80l-306 -1441l-5 -3c-146 -92 -196 -155 -196 -231c0 -58 48 -99 114 -99c32 0 56 4 70 13l-13 -61c-16 -8 -50 -14 -81 -14z" />
    <glyph glyph-name="I.1" horiz-adv-x="836" 
d="M1004 1373h-307l-277 -1303h307l-15 -70h-307h-80h-306l15 70h306l277 1303h-306l15 70h306h80h307z" />
    <glyph glyph-name="Idotaccent.1" horiz-adv-x="836" 
d="M728 1644c-42 0 -78 35 -78 77s36 78 78 78s78 -36 78 -78s-36 -77 -78 -77zM1004 1373h-307l-277 -1303h307l-15 -70h-307h-80h-306l15 70h306l277 1303h-306l15 70h306h80h307z" />
    <glyph glyph-name="Igrave.1" horiz-adv-x="836" 
d="M722 1556h-73l-184 287h86zM1004 1373h-307l-277 -1303h307l-15 -70h-307h-80h-306l15 70h306l277 1303h-306l15 70h306h80h307z" />
    <glyph glyph-name="Idblgrave.1" horiz-adv-x="836" 
d="M871 1556h-73l-184 287h85zM601 1556h-73l-184 287h86zM1004 1373h-307l-277 -1303h307l-15 -70h-307h-80h-306l15 70h306l277 1303h-306l15 70h306h80h307z" />
    <glyph glyph-name="Iacute.1" horiz-adv-x="836" 
d="M1085 1843l-350 -287h-86l336 287h100zM632 1443h80h307l-15 -70h-307l-277 -1303h307l-15 -70h-307h-80h-306l15 70h306l277 1303h-306l15 70h306z" />
    <glyph glyph-name="Icircumflex.1" horiz-adv-x="836" 
d="M744 1788l-259 -232h-90l324 289h64l202 -289h-78l-160 232h-3zM1004 1373h-307l-277 -1303h307l-15 -70h-307h-80h-306l15 70h306l277 1303h-306l15 70h306h80h307z" />
    <glyph glyph-name="Icaron.1" horiz-adv-x="836" 
d="M732 1556h-64l-201 289h78l159 -232h4l258 232h90zM632 1443h80h307l-15 -70h-307l-277 -1303h307l-15 -70h-307h-80h-306l15 70h306l277 1303h-306l15 70h306z" />
    <glyph glyph-name="Idieresis.1" horiz-adv-x="836" 
d="M869 1605c-36 0 -67 30 -67 66c0 37 31 66 67 66s67 -29 67 -66c0 -36 -31 -66 -67 -66zM571 1605c-37 0 -67 30 -67 66c0 37 30 66 67 66c36 0 66 -29 66 -66c0 -36 -30 -66 -66 -66zM1004 1373h-307l-277 -1303h307l-15 -70h-307h-80h-306l15 70h306l277 1303h-306
l15 70h306h80h307z" />
    <glyph glyph-name="Idieresisacute.1" horiz-adv-x="836" 
d="M1012 1977l-251 -206h-85l243 206h93zM791 1618c0 36 29 65 65 65s65 -29 65 -65s-29 -65 -65 -65s-65 29 -65 65zM562 1553c-35 0 -65 29 -65 65s30 65 65 65c36 0 65 -29 65 -65s-29 -65 -65 -65zM1004 1373h-307l-277 -1303h307l-15 -70h-307h-80h-306l15 70h306
l277 1303h-306l15 70h306h80h307z" />
    <glyph glyph-name="Ibreve.1" horiz-adv-x="836" 
d="M931 1788h64c-21 -145 -138 -237 -299 -237c-145 0 -245 82 -245 209c0 7 1 22 3 28h64c-1 -4 -2 -15 -2 -21c0 -98 75 -159 191 -159c117 0 208 71 224 180zM1004 1373h-307l-277 -1303h307l-15 -70h-307h-80h-306l15 70h306l277 1303h-306l15 70h306h80h307z" />
    <glyph glyph-name="Idotbelow.1" horiz-adv-x="836" 
d="M313 -154c42 0 78 -36 78 -78s-36 -77 -78 -77s-78 35 -78 77s36 78 78 78zM1004 1373h-307l-277 -1303h307l-15 -70h-307h-80h-306l15 70h306l277 1303h-306l15 70h306h80h307z" />
    <glyph glyph-name="Iinvertedbreve.1" horiz-adv-x="836" 
d="M975 1551h-64c2 2 4 14 4 27c0 92 -76 153 -191 153c-119 0 -212 -73 -225 -180h-64c16 141 136 237 297 237c143 0 248 -83 248 -203c0 -15 -2 -29 -5 -34zM1004 1373h-307l-277 -1303h307l-15 -70h-307h-80h-306l15 70h306l277 1303h-306l15 70h306h80h307z" />
    <glyph glyph-name="Imacron.1" horiz-adv-x="836" 
d="M1020 1679l-13 -59h-594l13 59h594zM632 1443h80h307l-15 -70h-307l-277 -1303h307l-15 -70h-307h-80h-306l15 70h306l277 1303h-306l15 70h306z" />
    <glyph glyph-name="Itildebelow.1" horiz-adv-x="836" 
d="M50 -375h-62c23 132 98 212 192 212c135 0 156 -165 258 -165c54 0 102 54 122 153h62c-28 -136 -98 -212 -188 -212c-132 0 -155 165 -258 165c-57 0 -108 -57 -126 -153zM1004 1373h-307l-277 -1303h307l-15 -70h-307h-80h-306l15 70h306l277 1303h-306l15 70h306h80
h307z" />
    <glyph glyph-name="Ihookabove.1" horiz-adv-x="836" 
d="M678 1539l-26 44c66 20 107 60 107 111c0 49 -36 80 -98 80c-36 0 -72 -8 -96 -20l12 55c19 11 61 20 93 20c93 0 155 -52 155 -127c0 -77 -57 -136 -147 -163zM1004 1373h-307l-277 -1303h307l-15 -70h-307h-80h-306l15 70h306l277 1303h-306l15 70h306h80h307z" />
    <glyph glyph-name="Itilde.1" horiz-adv-x="836" 
d="M972 1763h62c-28 -136 -98 -212 -188 -212c-132 0 -155 165 -258 165c-57 0 -108 -57 -126 -153h-62c23 132 98 212 192 212c135 0 156 -165 258 -165c54 0 102 54 122 153zM632 1443h80h307l-15 -70h-307l-277 -1303h307l-15 -70h-307h-80h-306l15 70h306l277 1303h-306
l15 70h306z" />
    <glyph glyph-name="Iogonek.1" horiz-adv-x="836" 
d="M311 1373l15 70h693l-15 -70h-306l-277 -1303h306l-14 -65l-14 -6c-150 -58 -248 -135 -261 -215c-12 -68 34 -115 113 -115c30 0 58 4 73 9l-13 -59c-15 -7 -49 -12 -83 -12c-111 0 -178 66 -163 161c13 89 100 175 225 228l1 4h-572l15 70h306l277 1303h-306z" />
    <glyph glyph-name="J" unicode="J" horiz-adv-x="957" 
d="M64 303c0 5 0 13 1 22h80v-14c0 -154 114 -259 286 -259c174 0 296 115 339 317l228 1074h80l-233 -1100c-49 -230 -203 -366 -423 -366c-211 0 -358 137 -358 326z" />
    <glyph glyph-name="Jcircumflex" unicode="&#x134;" horiz-adv-x="957" 
d="M64 303c0 5 0 13 1 22h80v-14c0 -154 114 -259 286 -259c174 0 296 115 339 317l228 1074h80l-233 -1100c-49 -230 -203 -366 -423 -366c-211 0 -358 137 -358 326zM1149 1845l202 -289h-78l-160 232h-3l-259 -232h-90l324 289h64z" />
    <glyph glyph-name="K" unicode="K" horiz-adv-x="1143" 
d="M160 0h-80l307 1443h80l-170 -800h4l913 800h109l-715 -629l474 -814h-92l-443 764l-275 -238z" />
    <glyph glyph-name="Kacute" unicode="&#x1e30;" horiz-adv-x="1143" 
d="M160 0h-80l307 1443h80l-170 -800h4l913 800h109l-715 -629l474 -814h-92l-443 764l-275 -238zM850 1556h-86l336 287h100z" />
    <glyph glyph-name="Kcaron" unicode="&#x1e8;" horiz-adv-x="1143" 
d="M160 0h-80l307 1443h80l-170 -800h4l913 800h109l-715 -629l474 -814h-92l-443 764l-275 -238zM783 1556l-201 289h78l159 -232h4l258 232h90l-324 -289h-64z" />
    <glyph glyph-name="Kdotbelow" unicode="&#x1e32;" horiz-adv-x="1143" 
d="M160 0h-80l307 1443h80l-170 -800h4l913 800h109l-715 -629l474 -814h-92l-443 764l-275 -238zM503 -309c-42 0 -78 35 -78 77s36 78 78 78s78 -36 78 -78s-36 -77 -78 -77z" />
    <glyph glyph-name="Klinebelow" unicode="&#x1e34;" horiz-adv-x="1143" 
d="M160 0h-80l307 1443h80l-170 -800h4l913 800h109l-715 -629l474 -814h-92l-443 764l-275 -238zM804 -231l-13 -59h-594l13 59h594z" />
    <glyph glyph-name="Kcommaaccent" unicode="&#x136;" horiz-adv-x="1143" 
d="M160 0h-80l307 1443h80l-170 -800h4l913 800h109l-715 -629l474 -814h-92l-443 764l-275 -238zM381 -475h-66l175 341h82z" />
    <glyph glyph-name="L" unicode="L" horiz-adv-x="1019" 
d="M932 73l-15 -73h-837l307 1443h80l-291 -1370h756z" />
    <glyph glyph-name="Lacute" unicode="&#x139;" horiz-adv-x="1019" 
d="M932 73l-15 -73h-837l307 1443h80l-291 -1370h756zM491 1556h-86l336 287h100z" />
    <glyph glyph-name="Lcircumflexbelow" unicode="&#x1e3c;" horiz-adv-x="1019" 
d="M932 73l-15 -73h-837l307 1443h80l-291 -1370h756zM490 -165l202 -289h-78l-160 232h-3l-259 -232h-90l324 289h64z" />
    <glyph glyph-name="Ldotbelow" unicode="&#x1e36;" horiz-adv-x="1019" 
d="M932 73l-15 -73h-837l307 1443h80l-291 -1370h756zM447 -309c-42 0 -78 35 -78 77s36 78 78 78s78 -36 78 -78s-36 -77 -78 -77z" />
    <glyph glyph-name="Ldotbelowmacron" unicode="&#x1e38;" horiz-adv-x="1019" 
d="M932 73l-15 -73h-837l307 1443h80l-291 -1370h756zM447 -309c-42 0 -78 35 -78 77s36 78 78 78s78 -36 78 -78s-36 -77 -78 -77zM775 1679l-13 -59h-594l13 59h594z" />
    <glyph glyph-name="Llinebelow" unicode="&#x1e3a;" horiz-adv-x="1019" 
d="M932 73l-15 -73h-837l307 1443h80l-291 -1370h756zM748 -231l-13 -59h-594l13 59h594z" />
    <glyph glyph-name="Lcommaaccent" unicode="&#x13b;" horiz-adv-x="1019" 
d="M932 73l-15 -73h-837l307 1443h80l-291 -1370h756zM325 -475h-66l175 341h82z" />
    <glyph glyph-name="Lcaron" unicode="&#x13d;" horiz-adv-x="1019" 
d="M871 1443h76l-102 -385h-56zM932 73l-15 -73h-837l307 1443h80l-291 -1370h756z" />
    <glyph glyph-name="Lslash" unicode="&#x141;" horiz-adv-x="1019" 
d="M176 73h756l-15 -73h-837l129 608l-147 -69l15 73l148 69l162 762h80l-153 -721l463 216l-15 -73l-464 -216z" />
    <glyph glyph-name="M" unicode="M" horiz-adv-x="1615" 
d="M156 0h-76l307 1443h84l299 -1343h4l866 1343h97l-307 -1443h-77l273 1282h-5l-828 -1279h-75l-285 1279h-4z" />
    <glyph glyph-name="Macute" unicode="&#x1e3e;" horiz-adv-x="1615" 
d="M156 0h-76l307 1443h84l299 -1343h4l866 1343h97l-307 -1443h-77l273 1282h-5l-828 -1279h-75l-285 1279h-4zM1096 1556h-86l336 287h100z" />
    <glyph glyph-name="Mdotaccent" unicode="&#x1e40;" horiz-adv-x="1615" 
d="M156 0h-76l307 1443h84l299 -1343h4l866 1343h97l-307 -1443h-77l273 1282h-5l-828 -1279h-75l-285 1279h-4zM1089 1644c-42 0 -78 35 -78 77s36 78 78 78s78 -36 78 -78s-36 -77 -78 -77z" />
    <glyph glyph-name="Mdotbelow" unicode="&#x1e42;" horiz-adv-x="1615" 
d="M156 0h-76l307 1443h84l299 -1343h4l866 1343h97l-307 -1443h-77l273 1282h-5l-828 -1279h-75l-285 1279h-4zM704 -309c-42 0 -78 35 -78 77s36 78 78 78s78 -36 78 -78s-36 -77 -78 -77z" />
    <glyph glyph-name="N" unicode="N" horiz-adv-x="1355" 
d="M160 0h-80l307 1443h79l646 -1319h4l280 1319h80l-307 -1443h-79l-646 1319h-4z" />
    <glyph glyph-name="Ngrave" unicode="&#x1f8;" horiz-adv-x="1355" 
d="M160 0h-80l307 1443h79l646 -1319h4l280 1319h80l-307 -1443h-79l-646 1319h-4zM907 1556l-184 287h86l171 -287h-73z" />
    <glyph glyph-name="Nacute" unicode="&#x143;" horiz-adv-x="1355" 
d="M160 0h-80l307 1443h79l646 -1319h4l280 1319h80l-307 -1443h-79l-646 1319h-4zM994 1556h-86l336 287h100z" />
    <glyph glyph-name="Ntilde" unicode="&#xd1;" horiz-adv-x="1355" 
d="M160 0h-80l307 1443h79l646 -1319h4l280 1319h80l-307 -1443h-79l-646 1319h-4zM1105 1551c-132 0 -155 165 -258 165c-57 0 -108 -57 -126 -153h-62c23 132 98 212 192 212c135 0 156 -165 258 -165c54 0 102 54 122 153h62c-28 -136 -98 -212 -188 -212z" />
    <glyph glyph-name="Ndotbelow" unicode="&#x1e46;" horiz-adv-x="1355" 
d="M160 0h-80l307 1443h79l646 -1319h4l280 1319h80l-307 -1443h-79l-646 1319h-4zM572 -309c-42 0 -78 35 -78 77s36 78 78 78s78 -36 78 -78s-36 -77 -78 -77z" />
    <glyph glyph-name="Ndotaccent" unicode="&#x1e44;" horiz-adv-x="1355" 
d="M160 0h-80l307 1443h79l646 -1319h4l280 1319h80l-307 -1443h-79l-646 1319h-4zM987 1644c-42 0 -78 35 -78 77s36 78 78 78s78 -36 78 -78s-36 -77 -78 -77z" />
    <glyph glyph-name="Ncaron" unicode="&#x147;" horiz-adv-x="1355" 
d="M160 0h-80l307 1443h79l646 -1319h4l280 1319h80l-307 -1443h-79l-646 1319h-4zM927 1556l-201 289h78l159 -232h4l258 232h90l-324 -289h-64z" />
    <glyph glyph-name="Ncircumflexbelow" unicode="&#x1e4a;" horiz-adv-x="1355" 
d="M160 0h-80l307 1443h79l646 -1319h4l280 1319h80l-307 -1443h-79l-646 1319h-4zM615 -165l202 -289h-78l-160 232h-3l-259 -232h-90l324 289h64z" />
    <glyph glyph-name="Nlinebelow" unicode="&#x1e48;" horiz-adv-x="1355" 
d="M160 0h-80l307 1443h79l646 -1319h4l280 1319h80l-307 -1443h-79l-646 1319h-4zM873 -231l-13 -59h-594l13 59h594z" />
    <glyph glyph-name="Ncommaaccent" unicode="&#x145;" horiz-adv-x="1355" 
d="M160 0h-80l307 1443h79l646 -1319h4l280 1319h80l-307 -1443h-79l-646 1319h-4zM450 -475h-66l175 341h82z" />
    <glyph glyph-name="O" unicode="O" horiz-adv-x="1454" 
d="M906 1390c-371 0 -653 -350 -653 -795c0 -332 199 -542 497 -542c370 0 652 350 652 795c0 332 -199 542 -496 542zM747 -21c-343 0 -574 241 -574 610c0 493 315 875 736 875c342 0 574 -241 574 -610c0 -493 -316 -875 -736 -875z" />
    <glyph glyph-name="Odieresis" unicode="&#xd6;" horiz-adv-x="1455" 
d="M906 1390c-371 0 -653 -350 -653 -795c0 -332 199 -542 497 -542c370 0 652 350 652 795c0 332 -199 542 -496 542zM747 -21c-343 0 -574 241 -574 610c0 493 315 875 736 875c342 0 574 -241 574 -610c0 -493 -316 -875 -736 -875zM813 1605c-37 0 -67 30 -67 66
c0 37 30 66 67 66c36 0 66 -29 66 -66c0 -36 -30 -66 -66 -66zM1111 1605c-36 0 -67 30 -67 66c0 37 31 66 67 66s67 -29 67 -66c0 -36 -31 -66 -67 -66z" />
    <glyph glyph-name="Oslash" unicode="&#xd8;" horiz-adv-x="1455" 
d="M1321 1170l-949 -950c87 -107 218 -167 378 -167c370 0 652 350 652 795c0 127 -29 235 -81 322zM334 273l950 950c-88 107 -219 167 -378 167c-371 0 -653 -350 -653 -795c0 -127 29 -235 81 -322zM1543 1392l-164 -164c67 -99 104 -226 104 -374
c0 -493 -316 -875 -736 -875c-181 0 -331 67 -432 184l-157 -157l-46 45l164 164c-66 99 -103 227 -103 374c0 493 315 875 736 875c180 0 330 -67 431 -185l158 158z" />
    <glyph glyph-name="Otilde" unicode="&#xd5;" horiz-adv-x="1455" 
d="M906 1390c-371 0 -653 -350 -653 -795c0 -332 199 -542 497 -542c370 0 652 350 652 795c0 332 -199 542 -496 542zM747 -21c-343 0 -574 241 -574 610c0 493 315 875 736 875c342 0 574 -241 574 -610c0 -493 -316 -875 -736 -875zM1088 1551c-132 0 -155 165 -258 165
c-57 0 -108 -57 -126 -153h-62c23 132 98 212 192 212c135 0 156 -165 258 -165c54 0 102 54 122 153h62c-28 -136 -98 -212 -188 -212z" />
    <glyph glyph-name="Oacute" unicode="&#xd3;" horiz-adv-x="1455" 
d="M906 1390c-371 0 -653 -350 -653 -795c0 -332 199 -542 497 -542c370 0 652 350 652 795c0 332 -199 542 -496 542zM747 -21c-343 0 -574 241 -574 610c0 493 315 875 736 875c342 0 574 -241 574 -610c0 -493 -316 -875 -736 -875zM977 1556h-86l336 287h100z" />
    <glyph glyph-name="Ocircumflex" unicode="&#xd4;" horiz-adv-x="1455" 
d="M906 1390c-371 0 -653 -350 -653 -795c0 -332 199 -542 497 -542c370 0 652 350 652 795c0 332 -199 542 -496 542zM747 -21c-343 0 -574 241 -574 610c0 493 315 875 736 875c342 0 574 -241 574 -610c0 -493 -316 -875 -736 -875zM1025 1845l202 -289h-78l-160 232h-3
l-259 -232h-90l324 289h64z" />
    <glyph glyph-name="Ograve" unicode="&#xd2;" horiz-adv-x="1455" 
d="M906 1390c-371 0 -653 -350 -653 -795c0 -332 199 -542 497 -542c370 0 652 350 652 795c0 332 -199 542 -496 542zM747 -21c-343 0 -574 241 -574 610c0 493 315 875 736 875c342 0 574 -241 574 -610c0 -493 -316 -875 -736 -875zM890 1556l-184 287h86l171 -287h-73z
" />
    <glyph glyph-name="Ocircumflexhookabove" unicode="&#x1ed4;" horiz-adv-x="1455" 
d="M906 1390c-371 0 -653 -350 -653 -795c0 -332 199 -542 497 -542c370 0 652 350 652 795c0 332 -199 542 -496 542zM747 -21c-343 0 -574 241 -574 610c0 493 315 875 736 875c342 0 574 -241 574 -610c0 -493 -316 -875 -736 -875zM944 1768h69l222 -218h-86l-173 168
h-3l-244 -168h-98zM1083 1907l12 52c19 10 59 20 98 20c88 0 148 -49 148 -120c0 -66 -39 -118 -107 -148l-33 41c48 20 76 54 76 96c0 49 -36 79 -97 79c-34 0 -73 -9 -97 -20z" />
    <glyph glyph-name="Ocircumflexgrave" unicode="&#x1ed2;" horiz-adv-x="1455" 
d="M906 1390c-371 0 -653 -350 -653 -795c0 -332 199 -542 497 -542c370 0 652 350 652 795c0 332 -199 542 -496 542zM747 -21c-343 0 -574 241 -574 610c0 493 315 875 736 875c342 0 574 -241 574 -610c0 -493 -316 -875 -736 -875zM944 1768h69l222 -218h-86l-173 168
h-3l-244 -168h-98zM1333 1771h-75l-178 206h85z" />
    <glyph glyph-name="Odotbelow" unicode="&#x1ecc;" horiz-adv-x="1455" 
d="M906 1390c-371 0 -653 -350 -653 -795c0 -332 199 -542 497 -542c370 0 652 350 652 795c0 332 -199 542 -496 542zM747 -21c-343 0 -574 241 -574 610c0 493 315 875 736 875c342 0 574 -241 574 -610c0 -493 -316 -875 -736 -875zM682 -309c-42 0 -78 35 -78 77
s36 78 78 78s78 -36 78 -78s-36 -77 -78 -77z" />
    <glyph glyph-name="Odblgrave" unicode="&#x20c;" horiz-adv-x="1455" 
d="M906 1390c-371 0 -653 -350 -653 -795c0 -332 199 -542 497 -542c370 0 652 350 652 795c0 332 -199 542 -496 542zM747 -21c-343 0 -574 241 -574 610c0 493 315 875 736 875c342 0 574 -241 574 -610c0 -493 -316 -875 -736 -875zM770 1556l-184 287h86l171 -287h-73z
M1040 1556l-184 287h85l172 -287h-73z" />
    <glyph glyph-name="Otildeacute" unicode="&#x1e4c;" horiz-adv-x="1455" 
d="M906 1390c-371 0 -653 -350 -653 -795c0 -332 199 -542 497 -542c370 0 652 350 652 795c0 332 -199 542 -496 542zM747 -21c-343 0 -574 241 -574 610c0 493 315 875 736 875c342 0 574 -241 574 -610c0 -493 -316 -875 -736 -875zM954 1805l206 172h93l-216 -172h-83z
M1063 1550c-123 0 -123 151 -215 151c-52 0 -104 -56 -120 -132h-59c24 114 99 188 186 188c122 0 122 -151 214 -151c53 0 102 54 120 132h59c-26 -114 -100 -188 -185 -188z" />
    <glyph glyph-name="Omacronacute" unicode="&#x1e52;" horiz-adv-x="1455" 
d="M906 1390c-371 0 -653 -350 -653 -795c0 -332 199 -542 497 -542c370 0 652 350 652 795c0 332 -199 542 -496 542zM747 -21c-343 0 -574 241 -574 610c0 493 315 875 736 875c342 0 574 -241 574 -610c0 -493 -316 -875 -736 -875zM1245 1608h-593l13 60h593zM926 1771
l243 206h93l-251 -206h-85z" />
    <glyph glyph-name="Ocircumflextilde" unicode="&#x1ed6;" horiz-adv-x="1455" 
d="M906 1390c-371 0 -653 -350 -653 -795c0 -332 199 -542 497 -542c370 0 652 350 652 795c0 332 -199 542 -496 542zM747 -21c-343 0 -574 241 -574 610c0 493 315 875 736 875c342 0 574 -241 574 -610c0 -493 -316 -875 -736 -875zM1123 1827c-104 0 -147 119 -224 119
c-54 0 -95 -41 -107 -106h-61c17 102 85 164 173 164c103 0 147 -119 224 -119c53 0 93 40 106 106h61c-17 -101 -86 -164 -172 -164zM944 1765h68l223 -215h-86l-174 166h-3l-243 -166h-98z" />
    <glyph glyph-name="Odotaccentmacron" unicode="&#x230;" horiz-adv-x="1455" 
d="M906 1390c-371 0 -653 -350 -653 -795c0 -332 199 -542 497 -542c370 0 652 350 652 795c0 332 -199 542 -496 542zM747 -21c-343 0 -574 241 -574 610c0 493 315 875 736 875c342 0 574 -241 574 -610c0 -493 -316 -875 -736 -875zM955 1560c-42 0 -77 35 -77 76
c0 42 35 76 77 76c41 0 76 -34 76 -76c0 -41 -35 -76 -76 -76zM1313 1919l-13 -60h-594l13 60h594z" />
    <glyph glyph-name="Omacrongrave" unicode="&#x1e50;" horiz-adv-x="1455" 
d="M906 1390c-371 0 -653 -350 -653 -795c0 -332 199 -542 497 -542c370 0 652 350 652 795c0 332 -199 542 -496 542zM747 -21c-343 0 -574 241 -574 610c0 493 315 875 736 875c342 0 574 -241 574 -610c0 -493 -316 -875 -736 -875zM1245 1608h-593l13 60h593zM1030 1771
h-75l-178 206h84z" />
    <glyph glyph-name="Ocaron" unicode="&#x1d1;" horiz-adv-x="1455" 
d="M906 1390c-371 0 -653 -350 -653 -795c0 -332 199 -542 497 -542c370 0 652 350 652 795c0 332 -199 542 -496 542zM747 -21c-343 0 -574 241 -574 610c0 493 315 875 736 875c342 0 574 -241 574 -610c0 -493 -316 -875 -736 -875zM910 1556l-201 289h78l159 -232h4
l258 232h90l-324 -289h-64z" />
    <glyph glyph-name="Oslashacute" unicode="&#x1fe;" horiz-adv-x="1455" 
d="M1327 1843l-350 -287h-86l336 287h100zM1321 1170l-949 -950c87 -107 218 -167 378 -167c370 0 652 350 652 795c0 127 -29 235 -81 322zM334 273l950 950c-88 107 -219 167 -378 167c-371 0 -653 -350 -653 -795c0 -127 29 -235 81 -322zM1543 1392l-164 -164
c67 -99 104 -226 104 -374c0 -493 -316 -875 -736 -875c-181 0 -331 67 -432 184l-157 -157l-46 45l164 164c-66 99 -103 227 -103 374c0 493 315 875 736 875c180 0 330 -67 431 -185l158 158z" />
    <glyph glyph-name="Ohungarumlaut" unicode="&#x150;" horiz-adv-x="1455" 
d="M906 1390c-371 0 -653 -350 -653 -795c0 -332 199 -542 497 -542c370 0 652 350 652 795c0 332 -199 542 -496 542zM747 -21c-343 0 -574 241 -574 610c0 493 315 875 736 875c342 0 574 -241 574 -610c0 -493 -316 -875 -736 -875zM1114 1556h-83l336 287h98zM845 1556
h-84l337 287h97z" />
    <glyph glyph-name="Obreve" unicode="&#x14e;" horiz-adv-x="1455" 
d="M906 1390c-371 0 -653 -350 -653 -795c0 -332 199 -542 497 -542c370 0 652 350 652 795c0 332 -199 542 -496 542zM747 -21c-343 0 -574 241 -574 610c0 493 315 875 736 875c342 0 574 -241 574 -610c0 -493 -316 -875 -736 -875zM696 1788h64c-1 -4 -2 -15 -2 -21
c0 -98 75 -159 191 -159c117 0 208 71 224 180h64c-21 -145 -138 -237 -299 -237c-145 0 -245 82 -245 209c0 7 1 22 3 28z" />
    <glyph glyph-name="Oinvertedbreve" unicode="&#x20e;" horiz-adv-x="1455" 
d="M906 1390c-371 0 -653 -350 -653 -795c0 -332 199 -542 497 -542c370 0 652 350 652 795c0 332 -199 542 -496 542zM747 -21c-343 0 -574 241 -574 610c0 493 315 875 736 875c342 0 574 -241 574 -610c0 -493 -316 -875 -736 -875zM1217 1551h-64c2 2 4 14 4 27
c0 92 -76 153 -191 153c-119 0 -212 -73 -225 -180h-64c16 141 136 237 297 237c143 0 248 -83 248 -203c0 -15 -2 -29 -5 -34z" />
    <glyph glyph-name="Ohookabove" unicode="&#x1ece;" horiz-adv-x="1455" 
d="M906 1390c-371 0 -653 -350 -653 -795c0 -332 199 -542 497 -542c370 0 652 350 652 795c0 332 -199 542 -496 542zM747 -21c-343 0 -574 241 -574 610c0 493 315 875 736 875c342 0 574 -241 574 -610c0 -493 -316 -875 -736 -875zM807 1754l12 55c19 11 61 20 93 20
c93 0 155 -52 155 -127c0 -77 -57 -136 -147 -163l-26 44c66 20 107 60 107 111c0 49 -36 80 -98 80c-36 0 -72 -8 -96 -20z" />
    <glyph glyph-name="Odieresismacron" unicode="&#x22a;" horiz-adv-x="1455" 
d="M906 1390c-371 0 -653 -350 -653 -795c0 -332 199 -542 497 -542c370 0 652 350 652 795c0 332 -199 542 -496 542zM747 -21c-343 0 -574 241 -574 610c0 493 315 875 736 875c342 0 574 -241 574 -610c0 -493 -316 -875 -736 -875zM804 1683c36 0 65 -29 65 -65
s-29 -65 -65 -65c-35 0 -65 29 -65 65s30 65 65 65zM1313 1919l-13 -60h-594l13 60h594zM1098 1683c36 0 65 -29 65 -65s-29 -65 -65 -65s-65 29 -65 65s29 65 65 65z" />
    <glyph glyph-name="Otildemacron" unicode="&#x22c;" horiz-adv-x="1455" 
d="M906 1390c-371 0 -653 -350 -653 -795c0 -332 199 -542 497 -542c370 0 652 350 652 795c0 332 -199 542 -496 542zM747 -21c-343 0 -574 241 -574 610c0 493 315 875 736 875c342 0 574 -241 574 -610c0 -493 -316 -875 -736 -875zM1313 1919l-13 -60h-594l13 60h594z
M1063 1550c-123 0 -123 151 -215 151c-52 0 -104 -56 -120 -132h-59c24 114 99 188 186 188c122 0 122 -151 214 -151c53 0 102 54 120 132h59c-26 -114 -100 -188 -185 -188z" />
    <glyph glyph-name="Odotaccent" unicode="&#x22e;" horiz-adv-x="1455" 
d="M906 1390c-371 0 -653 -350 -653 -795c0 -332 199 -542 497 -542c370 0 652 350 652 795c0 332 -199 542 -496 542zM747 -21c-343 0 -574 241 -574 610c0 493 315 875 736 875c342 0 574 -241 574 -610c0 -493 -316 -875 -736 -875zM970 1644c-42 0 -78 35 -78 77
s36 78 78 78s78 -36 78 -78s-36 -77 -78 -77z" />
    <glyph glyph-name="Ocircumflexdotbelow" unicode="&#x1ed8;" horiz-adv-x="1455" 
d="M906 1390c-371 0 -653 -350 -653 -795c0 -332 199 -542 497 -542c370 0 652 350 652 795c0 332 -199 542 -496 542zM747 -21c-343 0 -574 241 -574 610c0 493 315 875 736 875c342 0 574 -241 574 -610c0 -493 -316 -875 -736 -875zM1025 1845l202 -289h-78l-160 232h-3
l-259 -232h-90l324 289h64zM682 -309c-42 0 -78 35 -78 77s36 78 78 78s78 -36 78 -78s-36 -77 -78 -77z" />
    <glyph glyph-name="Ocircumflexacute" unicode="&#x1ed0;" horiz-adv-x="1455" 
d="M906 1390c-371 0 -653 -350 -653 -795c0 -332 199 -542 497 -542c370 0 652 350 652 795c0 332 -199 542 -496 542zM747 -21c-343 0 -574 241 -574 610c0 493 315 875 736 875c342 0 574 -241 574 -610c0 -493 -316 -875 -736 -875zM944 1768h69l222 -218h-86l-173 168
h-3l-244 -168h-98zM1134 1771l243 206h93l-251 -206h-85z" />
    <glyph glyph-name="Otildedieresis" unicode="&#x1e4e;" horiz-adv-x="1455" 
d="M906 1390c-371 0 -653 -350 -653 -795c0 -332 199 -542 497 -542c370 0 652 350 652 795c0 332 -199 542 -496 542zM747 -21c-343 0 -574 241 -574 610c0 493 315 875 736 875c342 0 574 -241 574 -610c0 -493 -316 -875 -736 -875zM1063 1550c-123 0 -123 151 -215 151
c-52 0 -104 -56 -120 -132h-59c24 114 99 188 186 188c122 0 122 -151 214 -151c53 0 102 54 120 132h59c-26 -114 -100 -188 -185 -188zM872 1977c35 0 65 -29 65 -65s-30 -65 -65 -65c-36 0 -66 29 -66 65s30 65 66 65zM1165 1977c36 0 65 -29 65 -65s-29 -65 -65 -65
c-35 0 -65 29 -65 65s30 65 65 65z" />
    <glyph glyph-name="Omacron" unicode="&#x14c;" horiz-adv-x="1455" 
d="M906 1390c-371 0 -653 -350 -653 -795c0 -332 199 -542 497 -542c370 0 652 350 652 795c0 332 -199 542 -496 542zM747 -21c-343 0 -574 241 -574 610c0 493 315 875 736 875c342 0 574 -241 574 -610c0 -493 -316 -875 -736 -875zM1262 1679l-13 -59h-594l13 59h594z
" />
    <glyph glyph-name="Oogonek" unicode="&#x1ea;" horiz-adv-x="1455" 
d="M874 -379c-16 -8 -50 -14 -81 -14c-96 0 -163 59 -163 143c0 88 54 153 206 237v4c-32 -7 -70 -12 -98 -12c-342 0 -564 244 -564 623c0 481 319 862 737 862c343 0 565 -244 565 -622c0 -348 -178 -652 -440 -791c-239 -125 -333 -196 -333 -284c0 -57 48 -98 115 -98
c31 0 54 4 69 13zM1396 842c0 334 -190 548 -485 548c-372 0 -656 -348 -656 -787c0 -336 188 -550 484 -550c373 0 657 349 657 789z" />
    <glyph glyph-name="Oogonekmacron" unicode="&#x1ec;" horiz-adv-x="1455" 
d="M874 -379c-16 -8 -50 -14 -81 -14c-96 0 -163 59 -163 143c0 88 54 153 206 237v4c-32 -7 -70 -12 -98 -12c-342 0 -564 244 -564 623c0 481 319 862 737 862c343 0 565 -244 565 -622c0 -348 -178 -652 -440 -791c-239 -125 -333 -196 -333 -284c0 -57 48 -98 115 -98
c31 0 54 4 69 13zM1396 842c0 334 -190 548 -485 548c-372 0 -656 -348 -656 -787c0 -336 188 -550 484 -550c373 0 657 349 657 789zM1262 1679l-13 -59h-594l13 59h594z" />
    <glyph glyph-name="Ohorn" unicode="&#x1a0;" horiz-adv-x="1455" 
d="M1396 841c0 335 -191 551 -485 551c-372 0 -656 -350 -656 -790c0 -337 189 -549 484 -549c372 0 657 348 657 788zM1476 841c0 -482 -321 -862 -738 -862c-342 0 -564 243 -564 622c0 482 320 864 737 864c278 0 340 -136 494 -136c81 0 128 51 146 140l28 135h74
l-32 -158c-24 -117 -96 -183 -202 -183c-27 0 -66 9 -88 22v-4c92 -106 145 -262 145 -440z" />
    <glyph glyph-name="Ohorndotbelow" unicode="&#x1ee2;" horiz-adv-x="1455" 
d="M1396 841c0 335 -191 551 -485 551c-372 0 -656 -350 -656 -790c0 -337 189 -549 484 -549c372 0 657 348 657 788zM1476 841c0 -482 -321 -862 -738 -862c-342 0 -564 243 -564 622c0 482 320 864 737 864c278 0 340 -136 494 -136c81 0 128 51 146 140l28 135h74
l-32 -158c-24 -117 -96 -183 -202 -183c-27 0 -66 9 -88 22v-4c92 -106 145 -262 145 -440zM690 -309c-42 0 -78 35 -78 77s36 78 78 78s78 -36 78 -78s-36 -77 -78 -77z" />
    <glyph glyph-name="Ohornhookabove" unicode="&#x1ede;" horiz-adv-x="1455" 
d="M1396 841c0 335 -191 551 -485 551c-372 0 -656 -350 -656 -790c0 -337 189 -549 484 -549c372 0 657 348 657 788zM1476 841c0 -482 -321 -862 -738 -862c-342 0 -564 243 -564 622c0 482 320 864 737 864c278 0 340 -136 494 -136c81 0 128 51 146 140l28 135h74
l-32 -158c-24 -117 -96 -183 -202 -183c-27 0 -66 9 -88 22v-4c92 -106 145 -262 145 -440zM815 1754l12 55c19 11 61 20 93 20c93 0 155 -52 155 -127c0 -77 -57 -136 -147 -163l-26 44c66 20 107 60 107 111c0 49 -36 80 -98 80c-36 0 -72 -8 -96 -20z" />
    <glyph glyph-name="Ohorntilde" unicode="&#x1ee0;" horiz-adv-x="1455" 
d="M1396 841c0 335 -191 551 -485 551c-372 0 -656 -350 -656 -790c0 -337 189 -549 484 -549c372 0 657 348 657 788zM1476 841c0 -482 -321 -862 -738 -862c-342 0 -564 243 -564 622c0 482 320 864 737 864c278 0 340 -136 494 -136c81 0 128 51 146 140l28 135h74
l-32 -158c-24 -117 -96 -183 -202 -183c-27 0 -66 9 -88 22v-4c92 -106 145 -262 145 -440zM1096 1551c-132 0 -155 165 -258 165c-57 0 -108 -57 -126 -153h-62c23 132 98 212 192 212c135 0 156 -165 258 -165c54 0 102 54 122 153h62c-28 -136 -98 -212 -188 -212z" />
    <glyph glyph-name="Ohorngrave" unicode="&#x1edc;" horiz-adv-x="1455" 
d="M1396 841c0 335 -191 551 -485 551c-372 0 -656 -350 -656 -790c0 -337 189 -549 484 -549c372 0 657 348 657 788zM1476 841c0 -482 -321 -862 -738 -862c-342 0 -564 243 -564 622c0 482 320 864 737 864c278 0 340 -136 494 -136c81 0 128 51 146 140l28 135h74
l-32 -158c-24 -117 -96 -183 -202 -183c-27 0 -66 9 -88 22v-4c92 -106 145 -262 145 -440zM899 1556l-184 287h86l171 -287h-73z" />
    <glyph glyph-name="Ohornacute" unicode="&#x1eda;" horiz-adv-x="1455" 
d="M1396 841c0 335 -191 551 -485 551c-372 0 -656 -350 -656 -790c0 -337 189 -549 484 -549c372 0 657 348 657 788zM1476 841c0 -482 -321 -862 -738 -862c-342 0 -564 243 -564 622c0 482 320 864 737 864c278 0 340 -136 494 -136c81 0 128 51 146 140l28 135h74
l-32 -158c-24 -117 -96 -183 -202 -183c-27 0 -66 9 -88 22v-4c92 -106 145 -262 145 -440zM986 1556h-86l336 287h100z" />
    <glyph glyph-name="P" unicode="P" horiz-adv-x="1158" 
d="M391 1443h434c256 0 418 -157 418 -379c0 -298 -239 -482 -580 -482h-377l-125 -582h-81zM456 1371l-155 -717h363c287 0 498 150 498 404c0 183 -130 313 -356 313h-350z" />
    <glyph glyph-name="Pdotaccent" unicode="&#x1e56;" horiz-adv-x="1158" 
d="M391 1443h434c256 0 418 -157 418 -379c0 -298 -239 -482 -580 -482h-377l-125 -582h-81zM456 1371l-155 -717h363c287 0 498 150 498 404c0 183 -130 313 -356 313h-350zM799 1644c-42 0 -78 35 -78 77s36 78 78 78s78 -36 78 -78s-36 -77 -78 -77z" />
    <glyph glyph-name="Pacute" unicode="&#x1e54;" horiz-adv-x="1158" 
d="M391 1443h434c256 0 418 -157 418 -379c0 -298 -239 -482 -580 -482h-377l-125 -582h-81zM456 1371l-155 -717h363c287 0 498 150 498 404c0 183 -130 313 -356 313h-350zM807 1556h-86l336 287h100z" />
    <glyph glyph-name="Q" unicode="Q" horiz-adv-x="1454" 
d="M1199 -177h-82l-109 211c-80 -35 -168 -55 -261 -55c-343 0 -574 241 -574 610c0 493 315 875 736 875c342 0 574 -241 574 -610c0 -354 -163 -650 -409 -789zM750 53c79 0 155 16 225 47l-141 272h81l124 -240c218 127 363 397 363 716c0 332 -199 542 -496 542
c-371 0 -653 -350 -653 -795c0 -332 199 -542 497 -542z" />
    <glyph glyph-name="R" unicode="R" horiz-adv-x="1171" 
d="M80 0l311 1443h419c279 0 431 -145 431 -367c0 -239 -163 -410 -426 -448l234 -628h-83l-230 619h-30h-412l-133 -619h-81zM456 1371l-147 -680h405c264 0 445 153 445 379c0 182 -124 301 -353 301h-350z" />
    <glyph glyph-name="Rcaron" unicode="&#x158;" horiz-adv-x="1171" 
d="M80 0l311 1443h419c279 0 431 -145 431 -367c0 -239 -163 -410 -426 -448l234 -628h-83l-230 619h-30h-412l-133 -619h-81zM456 1371l-147 -680h405c264 0 445 153 445 379c0 182 -124 301 -353 301h-350zM741 1556l-201 289h78l159 -232h4l258 232h90l-324 -289h-64z
" />
    <glyph glyph-name="Rlinebelow" unicode="&#x1e5e;" horiz-adv-x="1171" 
d="M80 0l311 1443h419c279 0 431 -145 431 -367c0 -239 -163 -410 -426 -448l234 -628h-83l-230 619h-30h-412l-133 -619h-81zM456 1371l-147 -680h405c264 0 445 153 445 379c0 182 -124 301 -353 301h-350zM791 -231l-13 -59h-594l13 59h594z" />
    <glyph glyph-name="Rdotbelowmacron" unicode="&#x1e5c;" horiz-adv-x="1171" 
d="M80 0l311 1443h419c279 0 431 -145 431 -367c0 -239 -163 -410 -426 -448l234 -628h-83l-230 619h-30h-412l-133 -619h-81zM456 1371l-147 -680h405c264 0 445 153 445 379c0 182 -124 301 -353 301h-350zM490 -309c-42 0 -78 35 -78 77s36 78 78 78s78 -36 78 -78
s-36 -77 -78 -77zM1093 1679l-13 -59h-594l13 59h594z" />
    <glyph glyph-name="Rdblgrave" unicode="&#x210;" horiz-adv-x="1171" 
d="M80 0l311 1443h419c279 0 431 -145 431 -367c0 -239 -163 -410 -426 -448l234 -628h-83l-230 619h-30h-412l-133 -619h-81zM456 1371l-147 -680h405c264 0 445 153 445 379c0 182 -124 301 -353 301h-350zM601 1556l-184 287h86l171 -287h-73zM871 1556l-184 287h85
l172 -287h-73z" />
    <glyph glyph-name="Rinvertedbreve" unicode="&#x212;" horiz-adv-x="1171" 
d="M80 0l311 1443h419c279 0 431 -145 431 -367c0 -239 -163 -410 -426 -448l234 -628h-83l-230 619h-30h-412l-133 -619h-81zM456 1371l-147 -680h405c264 0 445 153 445 379c0 182 -124 301 -353 301h-350zM1048 1551h-64c2 2 4 14 4 27c0 92 -76 153 -191 153
c-119 0 -212 -73 -225 -180h-64c16 141 136 237 297 237c143 0 248 -83 248 -203c0 -15 -2 -29 -5 -34z" />
    <glyph glyph-name="Racute" unicode="&#x154;" horiz-adv-x="1171" 
d="M80 0l311 1443h419c279 0 431 -145 431 -367c0 -239 -163 -410 -426 -448l234 -628h-83l-230 619h-30h-412l-133 -619h-81zM456 1371l-147 -680h405c264 0 445 153 445 379c0 182 -124 301 -353 301h-350zM809 1556h-86l336 287h100z" />
    <glyph glyph-name="Rdotbelow" unicode="&#x1e5a;" horiz-adv-x="1171" 
d="M80 0l311 1443h419c279 0 431 -145 431 -367c0 -239 -163 -410 -426 -448l234 -628h-83l-230 619h-30h-412l-133 -619h-81zM456 1371l-147 -680h405c264 0 445 153 445 379c0 182 -124 301 -353 301h-350zM490 -309c-42 0 -78 35 -78 77s36 78 78 78s78 -36 78 -78
s-36 -77 -78 -77z" />
    <glyph glyph-name="Rdotaccent" unicode="&#x1e58;" horiz-adv-x="1171" 
d="M80 0l311 1443h419c279 0 431 -145 431 -367c0 -239 -163 -410 -426 -448l234 -628h-83l-230 619h-30h-412l-133 -619h-81zM456 1371l-147 -680h405c264 0 445 153 445 379c0 182 -124 301 -353 301h-350zM801 1644c-42 0 -78 35 -78 77s36 78 78 78s78 -36 78 -78
s-36 -77 -78 -77z" />
    <glyph glyph-name="Rcommaaccent" unicode="&#x156;" horiz-adv-x="1171" 
d="M80 0l311 1443h419c279 0 431 -145 431 -367c0 -239 -163 -410 -426 -448l234 -628h-83l-230 619h-30h-412l-133 -619h-81zM456 1371l-147 -680h405c264 0 445 153 445 379c0 182 -124 301 -353 301h-350zM368 -475h-66l175 341h82z" />
    <glyph glyph-name="S" unicode="S" horiz-adv-x="1196" 
d="M111 406h79c14 -210 194 -354 455 -354c243 0 411 128 411 328c0 139 -83 223 -279 297l-121 47c-245 92 -349 196 -349 368c0 219 194 372 469 372c274 0 475 -161 487 -401h-79c-14 193 -177 328 -408 328c-234 0 -387 -127 -387 -295c0 -137 86 -219 301 -300l125 -48
c223 -82 324 -191 324 -359c0 -233 -191 -410 -495 -410c-303 0 -524 169 -533 427z" />
    <glyph glyph-name="Scaron" unicode="&#x160;" horiz-adv-x="1196" 
d="M111 406h79c14 -210 194 -354 455 -354c243 0 411 128 411 328c0 139 -83 223 -279 297l-121 47c-245 92 -349 196 -349 368c0 219 194 372 469 372c274 0 475 -161 487 -401h-79c-14 193 -177 328 -408 328c-234 0 -387 -127 -387 -295c0 -137 86 -219 301 -300l125 -48
c223 -82 324 -191 324 -359c0 -233 -191 -410 -495 -410c-303 0 -524 169 -533 427zM782 1556l-201 289h78l159 -232h4l258 232h90l-324 -289h-64z" />
    <glyph glyph-name="Scedilla" unicode="&#x15e;" horiz-adv-x="1196" 
d="M1263 1063h-79c-14 193 -177 328 -408 328c-234 0 -387 -127 -387 -295c0 -137 86 -219 301 -300l125 -48c223 -82 324 -191 324 -359c0 -232 -190 -409 -492 -410l-77 -120c116 -6 184 -59 184 -150c0 -109 -88 -176 -213 -176c-66 0 -124 15 -168 37l13 60
c42 -22 91 -36 153 -36c88 0 148 39 148 109c0 64 -51 98 -145 105l-52 3l10 42l82 128c-271 22 -463 185 -471 425h79c14 -210 194 -354 455 -354c243 0 411 128 411 328c0 139 -83 223 -279 297l-121 47c-245 92 -349 196 -349 368c0 219 194 372 469 372
c274 0 475 -161 487 -401z" />
    <glyph glyph-name="Sdotaccent" unicode="&#x1e60;" horiz-adv-x="1196" 
d="M111 406h79c14 -210 194 -354 455 -354c243 0 411 128 411 328c0 139 -83 223 -279 297l-121 47c-245 92 -349 196 -349 368c0 219 194 372 469 372c274 0 475 -161 487 -401h-79c-14 193 -177 328 -408 328c-234 0 -387 -127 -387 -295c0 -137 86 -219 301 -300l125 -48
c223 -82 324 -191 324 -359c0 -233 -191 -410 -495 -410c-303 0 -524 169 -533 427zM842 1644c-42 0 -78 35 -78 77s36 78 78 78s78 -36 78 -78s-36 -77 -78 -77z" />
    <glyph glyph-name="Sdotbelow" unicode="&#x1e62;" horiz-adv-x="1196" 
d="M111 406h79c14 -210 194 -354 455 -354c243 0 411 128 411 328c0 139 -83 223 -279 297l-121 47c-245 92 -349 196 -349 368c0 219 194 372 469 372c274 0 475 -161 487 -401h-79c-14 193 -177 328 -408 328c-234 0 -387 -127 -387 -295c0 -137 86 -219 301 -300l125 -48
c223 -82 324 -191 324 -359c0 -233 -191 -410 -495 -410c-303 0 -524 169 -533 427zM573 -309c-42 0 -78 35 -78 77s36 78 78 78s78 -36 78 -78s-36 -77 -78 -77z" />
    <glyph glyph-name="Scommaaccent" unicode="&#x218;" horiz-adv-x="1196" 
d="M111 406h79c14 -210 194 -354 455 -354c243 0 411 128 411 328c0 139 -83 223 -279 297l-121 47c-245 92 -349 196 -349 368c0 219 194 372 469 372c274 0 475 -161 487 -401h-79c-14 193 -177 328 -408 328c-234 0 -387 -127 -387 -295c0 -137 86 -219 301 -300l125 -48
c223 -82 324 -191 324 -359c0 -233 -191 -410 -495 -410c-303 0 -524 169 -533 427zM451 -475h-66l175 341h82z" />
    <glyph glyph-name="Sdotbelowdotaccent" unicode="&#x1e68;" horiz-adv-x="1196" 
d="M111 406h79c14 -210 194 -354 455 -354c243 0 411 128 411 328c0 139 -83 223 -279 297l-121 47c-245 92 -349 196 -349 368c0 219 194 372 469 372c274 0 475 -161 487 -401h-79c-14 193 -177 328 -408 328c-234 0 -387 -127 -387 -295c0 -137 86 -219 301 -300l125 -48
c223 -82 324 -191 324 -359c0 -233 -191 -410 -495 -410c-303 0 -524 169 -533 427zM573 -309c-42 0 -78 35 -78 77s36 78 78 78s78 -36 78 -78s-36 -77 -78 -77zM842 1644c-42 0 -78 35 -78 77s36 78 78 78s78 -36 78 -78s-36 -77 -78 -77z" />
    <glyph glyph-name="Scarondotaccent" unicode="&#x1e66;" horiz-adv-x="1196" 
d="M111 406h79c14 -210 194 -354 455 -354c243 0 411 128 411 328c0 139 -83 223 -279 297l-121 47c-245 92 -349 196 -349 368c0 219 194 372 469 372c274 0 475 -161 487 -401h-79c-14 193 -177 328 -408 328c-234 0 -387 -127 -387 -295c0 -137 86 -219 301 -300l125 -48
c223 -82 324 -191 324 -359c0 -233 -191 -410 -495 -410c-303 0 -524 169 -533 427zM776 1550l-222 218h85l173 -168h3l244 168h98l-313 -218h-68zM878 1835c-44 0 -80 35 -80 79c0 43 36 79 80 79c43 0 79 -36 79 -79c0 -44 -36 -79 -79 -79z" />
    <glyph glyph-name="Scircumflex" unicode="&#x15c;" horiz-adv-x="1196" 
d="M111 406h79c14 -210 194 -354 455 -354c243 0 411 128 411 328c0 139 -83 223 -279 297l-121 47c-245 92 -349 196 -349 368c0 219 194 372 469 372c274 0 475 -161 487 -401h-79c-14 193 -177 328 -408 328c-234 0 -387 -127 -387 -295c0 -137 86 -219 301 -300l125 -48
c223 -82 324 -191 324 -359c0 -233 -191 -410 -495 -410c-303 0 -524 169 -533 427zM897 1845l202 -289h-78l-160 232h-3l-259 -232h-90l324 289h64z" />
    <glyph glyph-name="Sacutedotaccent" unicode="&#x1e64;" horiz-adv-x="1196" 
d="M111 406h79c14 -210 194 -354 455 -354c243 0 411 128 411 328c0 139 -83 223 -279 297l-121 47c-245 92 -349 196 -349 368c0 219 194 372 469 372c274 0 475 -161 487 -401h-79c-14 193 -177 328 -408 328c-234 0 -387 -127 -387 -295c0 -137 86 -219 301 -300l125 -48
c223 -82 324 -191 324 -359c0 -233 -191 -410 -495 -410c-303 0 -524 169 -533 427zM919 1556h-86l336 287h100zM700 1645c-42 0 -78 35 -78 77s36 78 78 78s78 -36 78 -78s-36 -77 -78 -77z" />
    <glyph glyph-name="Sacute" unicode="&#x15a;" horiz-adv-x="1196" 
d="M111 406h79c14 -210 194 -354 455 -354c243 0 411 128 411 328c0 139 -83 223 -279 297l-121 47c-245 92 -349 196 -349 368c0 219 194 372 469 372c274 0 475 -161 487 -401h-79c-14 193 -177 328 -408 328c-234 0 -387 -127 -387 -295c0 -137 86 -219 301 -300l125 -48
c223 -82 324 -191 324 -359c0 -233 -191 -410 -495 -410c-303 0 -524 169 -533 427zM850 1556h-86l336 287h100z" />
    <glyph glyph-name="germandbls.uc" unicode="&#x1e9e;" horiz-adv-x="2392" 
d="M111 406h79c14 -210 194 -354 455 -354c243 0 411 128 411 328c0 139 -83 223 -279 297l-121 47c-245 92 -349 196 -349 368c0 219 194 372 469 372c274 0 475 -161 487 -401h-79c-14 193 -177 328 -408 328c-234 0 -387 -127 -387 -295c0 -137 86 -219 301 -300l125 -48
c223 -82 324 -191 324 -359c0 -233 -191 -410 -495 -410c-303 0 -524 169 -533 427zM1307 406h79c14 -210 194 -354 455 -354c243 0 411 128 411 328c0 139 -83 223 -279 297l-121 47c-245 92 -349 196 -349 368c0 219 194 372 469 372c274 0 475 -161 487 -401h-79
c-14 193 -177 328 -408 328c-234 0 -387 -127 -387 -295c0 -137 86 -219 301 -300l125 -48c223 -82 324 -191 324 -359c0 -233 -191 -410 -495 -410c-303 0 -524 169 -533 427z" />
    <glyph glyph-name="T" unicode="T" horiz-adv-x="1159" 
d="M567 0h-81l292 1370h-508l15 73h1096l-15 -73h-508z" />
    <glyph glyph-name="Tcircumflexbelow" unicode="&#x1e70;" horiz-adv-x="1158" 
d="M567 0h-81l292 1370h-508l15 73h1096l-15 -73h-508zM518 -165l202 -289h-78l-160 232h-3l-259 -232h-90l324 289h64z" />
    <glyph glyph-name="Tdotbelow" unicode="&#x1e6c;" horiz-adv-x="1158" 
d="M567 0h-81l292 1370h-508l15 73h1096l-15 -73h-508zM475 -309c-42 0 -78 35 -78 77s36 78 78 78s78 -36 78 -78s-36 -77 -78 -77z" />
    <glyph glyph-name="Tcommaaccent" unicode="&#x21a;" horiz-adv-x="1158" 
d="M567 0h-81l292 1370h-508l15 73h1096l-15 -73h-508zM353 -475h-66l175 341h82z" />
    <glyph glyph-name="Tdotaccent" unicode="&#x1e6a;" horiz-adv-x="1158" 
d="M567 0h-81l292 1370h-508l15 73h1096l-15 -73h-508zM890 1644c-42 0 -78 35 -78 77s36 78 78 78s78 -36 78 -78s-36 -77 -78 -77z" />
    <glyph glyph-name="Tcedilla" unicode="&#x162;" horiz-adv-x="1158" 
d="M285 1443h1096l-15 -73h-508l-288 -1358h1l-3 -12l-90 -141c116 -6 184 -59 184 -150c0 -109 -88 -176 -213 -176c-66 0 -124 15 -168 37l13 60c42 -22 91 -36 153 -36c88 0 148 39 148 109c0 64 -51 98 -145 105l-52 3l10 42l94 147h-16l292 1370h-508z" />
    <glyph glyph-name="Tlinebelow" unicode="&#x1e6e;" horiz-adv-x="1158" 
d="M567 0h-81l292 1370h-508l15 73h1096l-15 -73h-508zM776 -231l-13 -59h-594l13 59h594z" />
    <glyph glyph-name="Tcaron" unicode="&#x164;" horiz-adv-x="1158" 
d="M567 0h-81l292 1370h-508l15 73h1096l-15 -73h-508zM830 1556l-201 289h78l159 -232h4l258 232h90l-324 -289h-64z" />
    <glyph glyph-name="Tbar" unicode="&#x166;" horiz-adv-x="1158" 
d="M1366 1370h-508l-130 -611h406l-15 -72h-406l-146 -687h-81l146 687h-390l16 72h390l130 611h-508l15 73h1096z" />
    <glyph glyph-name="U" unicode="U" horiz-adv-x="1358" 
d="M669 -21c-296 0 -485 178 -485 428c-1 48 4 95 13 140l191 896h81l-191 -895c-9 -38 -14 -91 -13 -136c2 -215 160 -359 415 -359c262 0 455 156 511 417l208 973h80l-210 -985c-65 -303 -279 -479 -600 -479z" />
    <glyph glyph-name="Ugrave" unicode="&#xd9;" horiz-adv-x="1358" 
d="M669 -21c-296 0 -485 178 -485 428c-1 48 4 95 13 140l191 896h81l-191 -895c-9 -38 -14 -91 -13 -136c2 -215 160 -359 415 -359c262 0 455 156 511 417l208 973h80l-210 -985c-65 -303 -279 -479 -600 -479zM906 1556l-184 287h86l171 -287h-73z" />
    <glyph glyph-name="Udblgrave" unicode="&#x214;" horiz-adv-x="1358" 
d="M669 -21c-296 0 -485 178 -485 428c-1 48 4 95 13 140l191 896h81l-191 -895c-9 -38 -14 -91 -13 -136c2 -215 160 -359 415 -359c262 0 455 156 511 417l208 973h80l-210 -985c-65 -303 -279 -479 -600 -479zM785 1556l-184 287h86l171 -287h-73zM1055 1556l-184 287h85
l172 -287h-73z" />
    <glyph glyph-name="Uacute" unicode="&#xda;" horiz-adv-x="1358" 
d="M669 -21c-296 0 -485 178 -485 428c-1 48 4 95 13 140l191 896h81l-191 -895c-9 -38 -14 -91 -13 -136c2 -215 160 -359 415 -359c262 0 455 156 511 417l208 973h80l-210 -985c-65 -303 -279 -479 -600 -479zM993 1556h-86l336 287h100z" />
    <glyph glyph-name="Uhungarumlaut" unicode="&#x170;" horiz-adv-x="1358" 
d="M669 -21c-296 0 -485 178 -485 428c-1 48 4 95 13 140l191 896h81l-191 -895c-9 -38 -14 -91 -13 -136c2 -215 160 -359 415 -359c262 0 455 156 511 417l208 973h80l-210 -985c-65 -303 -279 -479 -600 -479zM1130 1556h-83l336 287h98zM861 1556h-84l337 287h97z" />
    <glyph glyph-name="Ucircumflex" unicode="&#xdb;" horiz-adv-x="1358" 
d="M669 -21c-296 0 -485 178 -485 428c-1 48 4 95 13 140l191 896h81l-191 -895c-9 -38 -14 -91 -13 -136c2 -215 160 -359 415 -359c262 0 455 156 511 417l208 973h80l-210 -985c-65 -303 -279 -479 -600 -479zM1041 1845l202 -289h-78l-160 232h-3l-259 -232h-90l324 289
h64z" />
    <glyph glyph-name="Ucaron" unicode="&#x1d3;" horiz-adv-x="1358" 
d="M669 -21c-296 0 -485 178 -485 428c-1 48 4 95 13 140l191 896h81l-191 -895c-9 -38 -14 -91 -13 -136c2 -215 160 -359 415 -359c262 0 455 156 511 417l208 973h80l-210 -985c-65 -303 -279 -479 -600 -479zM926 1556l-201 289h78l159 -232h4l258 232h90l-324 -289h-64
z" />
    <glyph glyph-name="Ucircumflexbelow" unicode="&#x1e76;" horiz-adv-x="1358" 
d="M669 -21c-296 0 -485 178 -485 428c-1 48 4 95 13 140l191 896h81l-191 -895c-9 -38 -14 -91 -13 -136c2 -215 160 -359 415 -359c262 0 455 156 511 417l208 973h80l-210 -985c-65 -303 -279 -479 -600 -479zM647 -165l202 -289h-78l-160 232h-3l-259 -232h-90l324 289
h64z" />
    <glyph glyph-name="Udieresis" unicode="&#xdc;" horiz-adv-x="1358" 
d="M669 -21c-296 0 -485 178 -485 428c-1 48 4 95 13 140l191 896h81l-191 -895c-9 -38 -14 -91 -13 -136c2 -215 160 -359 415 -359c262 0 455 156 511 417l208 973h80l-210 -985c-65 -303 -279 -479 -600 -479zM829 1605c-37 0 -67 30 -67 66c0 37 30 66 67 66
c36 0 66 -29 66 -66c0 -36 -30 -66 -66 -66zM1127 1605c-36 0 -67 30 -67 66c0 37 31 66 67 66s67 -29 67 -66c0 -36 -31 -66 -67 -66z" />
    <glyph glyph-name="Udieresisgrave" unicode="&#x1db;" horiz-adv-x="1358" 
d="M669 -21c-296 0 -485 178 -485 428c-1 48 4 95 13 140l191 896h81l-191 -895c-9 -38 -14 -91 -13 -136c2 -215 160 -359 415 -359c262 0 455 156 511 417l208 973h80l-210 -985c-65 -303 -279 -479 -600 -479zM1037 1771h-75l-177 206h84zM821 1553c-36 0 -65 29 -65 65
s29 65 65 65c35 0 65 -29 65 -65s-30 -65 -65 -65zM1115 1553c-36 0 -66 29 -66 65s30 65 66 65c35 0 65 -29 65 -65s-30 -65 -65 -65z" />
    <glyph glyph-name="Udieresisacute" unicode="&#x1d7;" horiz-adv-x="1358" 
d="M669 -21c-296 0 -485 178 -485 428c-1 48 4 95 13 140l191 896h81l-191 -895c-9 -38 -14 -91 -13 -136c2 -215 160 -359 415 -359c262 0 455 156 511 417l208 973h80l-210 -985c-65 -303 -279 -479 -600 -479zM934 1771l243 206h93l-251 -206h-85zM820 1553
c-35 0 -65 29 -65 65s30 65 65 65c36 0 65 -29 65 -65s-29 -65 -65 -65zM1114 1553c-36 0 -65 29 -65 65s29 65 65 65s65 -29 65 -65s-29 -65 -65 -65z" />
    <glyph glyph-name="Udieresismacron" unicode="&#x1d5;" horiz-adv-x="1358" 
d="M669 -21c-296 0 -485 178 -485 428c-1 48 4 95 13 140l191 896h81l-191 -895c-9 -38 -14 -91 -13 -136c2 -215 160 -359 415 -359c262 0 455 156 511 417l208 973h80l-210 -985c-65 -303 -279 -479 -600 -479zM820 1683c36 0 65 -29 65 -65s-29 -65 -65 -65
c-35 0 -65 29 -65 65s30 65 65 65zM1329 1919l-13 -60h-594l13 60h594zM1114 1683c36 0 65 -29 65 -65s-29 -65 -65 -65s-65 29 -65 65s29 65 65 65z" />
    <glyph glyph-name="Udieresiscaron" unicode="&#x1d9;" horiz-adv-x="1358" 
d="M669 -21c-296 0 -485 178 -485 428c-1 48 4 95 13 140l191 896h81l-191 -895c-9 -38 -14 -91 -13 -136c2 -215 160 -359 415 -359c262 0 455 156 511 417l208 973h80l-210 -985c-65 -303 -279 -479 -600 -479zM967 1767l-218 210h85l170 -161h3l237 161h98l-306 -210h-69
zM820 1683c36 0 65 -29 65 -65s-29 -65 -65 -65c-35 0 -65 29 -65 65s30 65 65 65zM1114 1683c36 0 65 -29 65 -65s-29 -65 -65 -65s-65 29 -65 65s29 65 65 65z" />
    <glyph glyph-name="Udieresisbelow" unicode="&#x1e72;" horiz-adv-x="1358" 
d="M669 -21c-296 0 -485 178 -485 428c-1 48 4 95 13 140l191 896h81l-191 -895c-9 -38 -14 -91 -13 -136c2 -215 160 -359 415 -359c262 0 455 156 511 417l208 973h80l-210 -985c-65 -303 -279 -479 -600 -479zM449 -340c-36 0 -67 30 -67 66c0 37 31 66 67 66
s67 -29 67 -66c0 -36 -31 -66 -67 -66zM747 -340c-36 0 -66 30 -66 66c0 37 30 66 66 66c37 0 67 -29 67 -66c0 -36 -30 -66 -67 -66z" />
    <glyph glyph-name="Utildebelow" unicode="&#x1e74;" horiz-adv-x="1358" 
d="M669 -21c-296 0 -485 178 -485 428c-1 48 4 95 13 140l191 896h81l-191 -895c-9 -38 -14 -91 -13 -136c2 -215 160 -359 415 -359c262 0 455 156 511 417l208 973h80l-210 -985c-65 -303 -279 -479 -600 -479zM725 -387c-132 0 -155 165 -258 165
c-57 0 -108 -57 -126 -153h-62c23 132 98 212 192 212c135 0 156 -165 258 -165c54 0 102 54 122 153h62c-28 -136 -98 -212 -188 -212z" />
    <glyph glyph-name="Uhookabove" unicode="&#x1ee6;" horiz-adv-x="1358" 
d="M669 -21c-296 0 -485 178 -485 428c-1 48 4 95 13 140l191 896h81l-191 -895c-9 -38 -14 -91 -13 -136c2 -215 160 -359 415 -359c262 0 455 156 511 417l208 973h80l-210 -985c-65 -303 -279 -479 -600 -479zM823 1754l12 55c19 11 61 20 93 20c93 0 155 -52 155 -127
c0 -77 -57 -136 -147 -163l-26 44c66 20 107 60 107 111c0 49 -36 80 -98 80c-36 0 -72 -8 -96 -20z" />
    <glyph glyph-name="Ubreve" unicode="&#x16c;" horiz-adv-x="1358" 
d="M669 -21c-296 0 -485 178 -485 428c-1 48 4 95 13 140l191 896h81l-191 -895c-9 -38 -14 -91 -13 -136c2 -215 160 -359 415 -359c262 0 455 156 511 417l208 973h80l-210 -985c-65 -303 -279 -479 -600 -479zM712 1788h64c-1 -4 -2 -15 -2 -21c0 -98 75 -159 191 -159
c117 0 208 71 224 180h64c-21 -145 -138 -237 -299 -237c-145 0 -245 82 -245 209c0 7 1 22 3 28z" />
    <glyph glyph-name="Uinvertedbreve" unicode="&#x216;" horiz-adv-x="1358" 
d="M669 -21c-296 0 -485 178 -485 428c-1 48 4 95 13 140l191 896h81l-191 -895c-9 -38 -14 -91 -13 -136c2 -215 160 -359 415 -359c262 0 455 156 511 417l208 973h80l-210 -985c-65 -303 -279 -479 -600 -479zM1233 1551h-64c2 2 4 14 4 27c0 92 -76 153 -191 153
c-119 0 -212 -73 -225 -180h-64c16 141 136 237 297 237c143 0 248 -83 248 -203c0 -15 -2 -29 -5 -34z" />
    <glyph glyph-name="Utildeacute" unicode="&#x1e78;" horiz-adv-x="1358" 
d="M669 -21c-296 0 -485 178 -485 428c-1 48 4 95 13 140l191 896h81l-191 -895c-9 -38 -14 -91 -13 -136c2 -215 160 -359 415 -359c262 0 455 156 511 417l208 973h80l-210 -985c-65 -303 -279 -479 -600 -479zM970 1805l206 172h93l-216 -172h-83zM1079 1550
c-123 0 -123 151 -215 151c-52 0 -104 -56 -120 -132h-59c24 114 99 188 186 188c122 0 122 -151 214 -151c53 0 102 54 120 132h59c-26 -114 -100 -188 -185 -188z" />
    <glyph glyph-name="Udotbelow" unicode="&#x1ee4;" horiz-adv-x="1358" 
d="M669 -21c-296 0 -485 178 -485 428c-1 48 4 95 13 140l191 896h81l-191 -895c-9 -38 -14 -91 -13 -136c2 -215 160 -359 415 -359c262 0 455 156 511 417l208 973h80l-210 -985c-65 -303 -279 -479 -600 -479zM604 -309c-42 0 -78 35 -78 77s36 78 78 78s78 -36 78 -78
s-36 -77 -78 -77z" />
    <glyph glyph-name="Utilde" unicode="&#x168;" horiz-adv-x="1358" 
d="M669 -21c-296 0 -485 178 -485 428c-1 48 4 95 13 140l191 896h81l-191 -895c-9 -38 -14 -91 -13 -136c2 -215 160 -359 415 -359c262 0 455 156 511 417l208 973h80l-210 -985c-65 -303 -279 -479 -600 -479zM1104 1551c-132 0 -155 165 -258 165
c-57 0 -108 -57 -126 -153h-62c23 132 98 212 192 212c135 0 156 -165 258 -165c54 0 102 54 122 153h62c-28 -136 -98 -212 -188 -212z" />
    <glyph glyph-name="Umacron" unicode="&#x16a;" horiz-adv-x="1358" 
d="M669 -21c-296 0 -485 178 -485 428c-1 48 4 95 13 140l191 896h81l-191 -895c-9 -38 -14 -91 -13 -136c2 -215 160 -359 415 -359c262 0 455 156 511 417l208 973h80l-210 -985c-65 -303 -279 -479 -600 -479zM1278 1679l-13 -59h-594l13 59h594z" />
    <glyph glyph-name="Umacrondieresis" unicode="&#x1e7a;" horiz-adv-x="1358" 
d="M669 -21c-296 0 -485 178 -485 428c-1 48 4 95 13 140l191 896h81l-191 -895c-9 -38 -14 -91 -13 -136c2 -215 160 -359 415 -359c262 0 455 156 511 417l208 973h80l-210 -985c-65 -303 -279 -479 -600 -479zM1261 1608h-593l13 60h593zM874 1810c-36 0 -65 29 -65 64
c0 36 29 65 65 65c35 0 65 -29 65 -65c0 -35 -30 -64 -65 -64zM1168 1810c-36 0 -66 29 -66 64c0 36 30 65 66 65c35 0 65 -29 65 -65c0 -35 -30 -64 -65 -64z" />
    <glyph glyph-name="Uring" unicode="&#x16e;" horiz-adv-x="1358" 
d="M669 -21c-296 0 -485 178 -485 428c-1 48 4 95 13 140l191 896h81l-191 -895c-9 -38 -14 -91 -13 -136c2 -215 160 -359 415 -359c262 0 455 156 511 417l208 973h80l-210 -985c-65 -303 -279 -479 -600 -479zM989 1564c-93 0 -169 72 -169 168c0 97 76 173 171 173
c93 0 170 -72 170 -168c-1 -97 -77 -173 -172 -173zM989 1613c70 0 121 53 121 123c0 68 -51 120 -119 120c-69 0 -121 -53 -121 -123c0 -68 52 -120 119 -120z" />
    <glyph glyph-name="Uogonek" unicode="&#x172;" horiz-adv-x="1358" 
d="M814 -379c-16 -8 -50 -14 -81 -14c-96 0 -163 59 -163 143c0 87 61 159 205 238v4c-31 -8 -74 -13 -106 -13c-304 0 -485 172 -486 428c0 49 4 91 14 136l191 900h81l-191 -899c-9 -43 -14 -93 -14 -131c2 -223 153 -360 416 -360c256 0 456 163 512 424l207 966h81
l-210 -978c-47 -218 -166 -343 -304 -420c-172 -98 -323 -171 -323 -278c0 -57 47 -98 114 -98c31 0 55 4 70 13z" />
    <glyph glyph-name="Uhorn" unicode="&#x1af;" horiz-adv-x="1502" 
d="M662 -21c-304 0 -486 172 -486 428c-1 47 4 89 13 136l192 900h81l-192 -899c-8 -40 -14 -90 -13 -131c2 -223 153 -360 416 -360c256 0 455 163 511 424l208 966h131c76 0 120 33 136 102l33 157h73l-36 -173c-23 -102 -87 -149 -204 -149h-66l-196 -915
c-66 -302 -285 -486 -601 -486z" />
    <glyph glyph-name="Uhorngrave" unicode="&#x1eea;" horiz-adv-x="1502" 
d="M662 -21c-304 0 -486 172 -486 428c-1 47 4 89 13 136l192 900h81l-192 -899c-8 -40 -14 -90 -13 -131c2 -223 153 -360 416 -360c256 0 455 163 511 424l208 966h131c76 0 120 33 136 102l33 157h73l-36 -173c-23 -102 -87 -149 -204 -149h-66l-196 -915
c-66 -302 -285 -486 -601 -486zM898 1556l-184 287h86l171 -287h-73z" />
    <glyph glyph-name="Uhornacute" unicode="&#x1ee8;" horiz-adv-x="1502" 
d="M662 -21c-304 0 -486 172 -486 428c-1 47 4 89 13 136l192 900h81l-192 -899c-8 -40 -14 -90 -13 -131c2 -223 153 -360 416 -360c256 0 455 163 511 424l208 966h131c76 0 120 33 136 102l33 157h73l-36 -173c-23 -102 -87 -149 -204 -149h-66l-196 -915
c-66 -302 -285 -486 -601 -486zM985 1556h-86l336 287h100z" />
    <glyph glyph-name="Uhorndotbelow" unicode="&#x1ef0;" horiz-adv-x="1502" 
d="M662 -21c-304 0 -486 172 -486 428c-1 47 4 89 13 136l192 900h81l-192 -899c-8 -40 -14 -90 -13 -131c2 -223 153 -360 416 -360c256 0 455 163 511 424l208 966h131c76 0 120 33 136 102l33 157h73l-36 -173c-23 -102 -87 -149 -204 -149h-66l-196 -915
c-66 -302 -285 -486 -601 -486zM562 -309c-42 0 -78 35 -78 77s36 78 78 78s78 -36 78 -78s-36 -77 -78 -77z" />
    <glyph glyph-name="Uhornhookabove" unicode="&#x1eec;" horiz-adv-x="1502" 
d="M662 -21c-304 0 -486 172 -486 428c-1 47 4 89 13 136l192 900h81l-192 -899c-8 -40 -14 -90 -13 -131c2 -223 153 -360 416 -360c256 0 455 163 511 424l208 966h131c76 0 120 33 136 102l33 157h73l-36 -173c-23 -102 -87 -149 -204 -149h-66l-196 -915
c-66 -302 -285 -486 -601 -486zM814 1754l12 55c19 11 61 20 93 20c93 0 155 -52 155 -127c0 -77 -57 -136 -147 -163l-26 44c66 20 107 60 107 111c0 49 -36 80 -98 80c-36 0 -72 -8 -96 -20z" />
    <glyph glyph-name="Uhorntilde" unicode="&#x1eee;" horiz-adv-x="1502" 
d="M662 -21c-304 0 -486 172 -486 428c-1 47 4 89 13 136l192 900h81l-192 -899c-8 -40 -14 -90 -13 -131c2 -223 153 -360 416 -360c256 0 455 163 511 424l208 966h131c76 0 120 33 136 102l33 157h73l-36 -173c-23 -102 -87 -149 -204 -149h-66l-196 -915
c-66 -302 -285 -486 -601 -486zM1095 1551c-132 0 -155 165 -258 165c-57 0 -108 -57 -126 -153h-62c23 132 98 212 192 212c135 0 156 -165 258 -165c54 0 102 54 122 153h62c-28 -136 -98 -212 -188 -212z" />
    <glyph glyph-name="V" unicode="V" horiz-adv-x="1222" 
d="M599 0h-82l-241 1443h77l222 -1333h4l785 1333h90z" />
    <glyph glyph-name="Vtilde" unicode="&#x1e7c;" horiz-adv-x="1222" 
d="M599 0h-82l-241 1443h77l222 -1333h4l785 1333h90zM1035 1551c-132 0 -155 165 -258 165c-57 0 -108 -57 -126 -153h-62c23 132 98 212 192 212c135 0 156 -165 258 -165c54 0 102 54 122 153h62c-28 -136 -98 -212 -188 -212z" />
    <glyph glyph-name="Vdotbelow" unicode="&#x1e7e;" horiz-adv-x="1222" 
d="M599 0h-82l-241 1443h77l222 -1333h4l785 1333h90zM507 -309c-42 0 -78 35 -78 77s36 78 78 78s78 -36 78 -78s-36 -77 -78 -77z" />
    <glyph glyph-name="W" unicode="W" horiz-adv-x="1778" 
d="M1108 1297l-654 -1297h-77l-95 1443h76l82 -1302h4l656 1302h73l109 -1302h4l634 1302h85l-708 -1443h-75l-110 1297h-4z" />
    <glyph glyph-name="Wgrave" unicode="&#x1e80;" horiz-adv-x="1778" 
d="M1108 1297l-654 -1297h-77l-95 1443h76l82 -1302h4l656 1302h73l109 -1302h4l634 1302h85l-708 -1443h-75l-110 1297h-4zM1115 1556l-184 287h86l171 -287h-73z" />
    <glyph glyph-name="Wacute" unicode="&#x1e82;" horiz-adv-x="1778" 
d="M1108 1297l-654 -1297h-77l-95 1443h76l82 -1302h4l656 1302h73l109 -1302h4l634 1302h85l-708 -1443h-75l-110 1297h-4zM1201 1556h-86l336 287h100z" />
    <glyph glyph-name="Wdotaccent" unicode="&#x1e86;" horiz-adv-x="1778" 
d="M1108 1297l-654 -1297h-77l-95 1443h76l82 -1302h4l656 1302h73l109 -1302h4l634 1302h85l-708 -1443h-75l-110 1297h-4zM1194 1644c-42 0 -78 35 -78 77s36 78 78 78s78 -36 78 -78s-36 -77 -78 -77z" />
    <glyph glyph-name="Wdotbelow" unicode="&#x1e88;" horiz-adv-x="1778" 
d="M1108 1297l-654 -1297h-77l-95 1443h76l82 -1302h4l656 1302h73l109 -1302h4l634 1302h85l-708 -1443h-75l-110 1297h-4zM772 -309c-42 0 -78 35 -78 77s36 78 78 78s78 -36 78 -78s-36 -77 -78 -77z" />
    <glyph glyph-name="Wdieresis" unicode="&#x1e84;" horiz-adv-x="1778" 
d="M1108 1297l-654 -1297h-77l-95 1443h76l82 -1302h4l656 1302h73l109 -1302h4l634 1302h85l-708 -1443h-75l-110 1297h-4zM1037 1605c-37 0 -67 30 -67 66c0 37 30 66 67 66c36 0 66 -29 66 -66c0 -36 -30 -66 -66 -66zM1335 1605c-36 0 -67 30 -67 66c0 37 31 66 67 66
s67 -29 67 -66c0 -36 -31 -66 -67 -66z" />
    <glyph glyph-name="Wcircumflex" unicode="&#x174;" horiz-adv-x="1778" 
d="M1108 1297l-654 -1297h-77l-95 1443h76l82 -1302h4l656 1302h73l109 -1302h4l634 1302h85l-708 -1443h-75l-110 1297h-4zM1249 1845l202 -289h-78l-160 232h-3l-259 -232h-90l324 289h64z" />
    <glyph glyph-name="X" unicode="X" horiz-adv-x="1190" 
d="M-27 0l674 728l-360 715h90l329 -657h2l606 657h104l-672 -727l360 -716h-90l-329 658h-3l-607 -658h-104z" />
    <glyph glyph-name="Xdotaccent" unicode="&#x1e8a;" horiz-adv-x="1190" 
d="M-27 0l674 728l-360 715h90l329 -657h2l606 657h104l-672 -727l360 -716h-90l-329 658h-3l-607 -658h-104zM904 1644c-42 0 -78 35 -78 77s36 78 78 78s78 -36 78 -78s-36 -77 -78 -77z" />
    <glyph glyph-name="Xdieresis" unicode="&#x1e8c;" horiz-adv-x="1190" 
d="M-27 0l674 728l-360 715h90l329 -657h2l606 657h104l-672 -727l360 -716h-90l-329 658h-3l-607 -658h-104zM747 1605c-37 0 -67 30 -67 66c0 37 30 66 67 66c36 0 66 -29 66 -66c0 -36 -30 -66 -66 -66zM1045 1605c-36 0 -67 30 -67 66c0 37 31 66 67 66s67 -29 67 -66
c0 -36 -31 -66 -67 -66z" />
    <glyph glyph-name="Y" unicode="Y" horiz-adv-x="1170" 
d="M573 0h-80l133 631l-350 812h85l316 -736h4l625 736h96l-697 -820z" />
    <glyph glyph-name="Ygrave" unicode="&#x1ef2;" horiz-adv-x="1170" 
d="M573 0h-80l133 631l-350 812h85l316 -736h4l625 736h96l-697 -820zM814 1556l-184 287h86l171 -287h-73z" />
    <glyph glyph-name="Yacute" unicode="&#xdd;" horiz-adv-x="1170" 
d="M573 0h-80l133 631l-350 812h85l316 -736h4l625 736h96l-697 -820zM901 1556h-86l336 287h100z" />
    <glyph glyph-name="Ydotaccent" unicode="&#x1e8e;" horiz-adv-x="1170" 
d="M573 0h-80l133 631l-350 812h85l316 -736h4l625 736h96l-697 -820zM894 1644c-42 0 -78 35 -78 77s36 78 78 78s78 -36 78 -78s-36 -77 -78 -77z" />
    <glyph glyph-name="Ydotbelow" unicode="&#x1ef4;" horiz-adv-x="1170" 
d="M573 0h-80l133 631l-350 812h85l316 -736h4l625 736h96l-697 -820zM480 -309c-42 0 -78 35 -78 77s36 78 78 78s78 -36 78 -78s-36 -77 -78 -77z" />
    <glyph glyph-name="Ydieresis" unicode="&#x178;" horiz-adv-x="1170" 
d="M573 0h-80l133 631l-350 812h85l316 -736h4l625 736h96l-697 -820zM737 1605c-37 0 -67 30 -67 66c0 37 30 66 67 66c36 0 66 -29 66 -66c0 -36 -30 -66 -66 -66zM1035 1605c-36 0 -67 30 -67 66c0 37 31 66 67 66s67 -29 67 -66c0 -36 -31 -66 -67 -66z" />
    <glyph glyph-name="Ytilde" unicode="&#x1ef8;" horiz-adv-x="1170" 
d="M573 0h-80l133 631l-350 812h85l316 -736h4l625 736h96l-697 -820zM1012 1551c-132 0 -155 165 -258 165c-57 0 -108 -57 -126 -153h-62c23 132 98 212 192 212c135 0 156 -165 258 -165c54 0 102 54 122 153h62c-28 -136 -98 -212 -188 -212z" />
    <glyph glyph-name="Ycircumflex" unicode="&#x176;" horiz-adv-x="1170" 
d="M573 0h-80l133 631l-350 812h85l316 -736h4l625 736h96l-697 -820zM949 1845l202 -289h-78l-160 232h-3l-259 -232h-90l324 289h64z" />
    <glyph glyph-name="Ymacron" unicode="&#x232;" horiz-adv-x="1170" 
d="M573 0h-80l133 631l-350 812h85l316 -736h4l625 736h96l-697 -820zM1186 1679l-13 -59h-594l13 59h594z" />
    <glyph glyph-name="Yhookabove" unicode="&#x1ef6;" horiz-adv-x="1170" 
d="M573 0h-80l133 631l-350 812h85l316 -736h4l625 736h96l-697 -820zM731 1754l12 55c19 11 61 20 93 20c93 0 155 -52 155 -127c0 -77 -57 -136 -147 -163l-26 44c66 20 107 60 107 111c0 49 -36 80 -98 80c-36 0 -72 -8 -96 -20z" />
    <glyph glyph-name="Z" unicode="Z" horiz-adv-x="1178" 
d="M21 0l13 62l1195 1305v4h-888l15 72h997l-13 -62l-1194 -1305v-4h920l-15 -72h-1030z" />
    <glyph glyph-name="Zacute" unicode="&#x179;" horiz-adv-x="1177" 
d="M21 0l13 62l1195 1305v4h-888l15 72h997l-13 -62l-1194 -1305v-4h920l-15 -72h-1030zM904 1556h-86l336 287h100z" />
    <glyph glyph-name="Zcaron" unicode="&#x17d;" horiz-adv-x="1177" 
d="M21 0l13 62l1195 1305v4h-888l15 72h997l-13 -62l-1194 -1305v-4h920l-15 -72h-1030zM837 1556l-201 289h78l159 -232h4l258 232h90l-324 -289h-64z" />
    <glyph glyph-name="Zcircumflex" unicode="&#x1e90;" horiz-adv-x="1177" 
d="M21 0l13 62l1195 1305v4h-888l15 72h997l-13 -62l-1194 -1305v-4h920l-15 -72h-1030zM952 1845l202 -289h-78l-160 232h-3l-259 -232h-90l324 289h64z" />
    <glyph glyph-name="Zlinebelow" unicode="&#x1e94;" horiz-adv-x="1177" 
d="M21 0l13 62l1195 1305v4h-888l15 72h997l-13 -62l-1194 -1305v-4h920l-15 -72h-1030zM798 -231l-13 -59h-594l13 59h594z" />
    <glyph glyph-name="Zdotbelow" unicode="&#x1e92;" horiz-adv-x="1177" 
d="M21 0l13 62l1195 1305v4h-888l15 72h997l-13 -62l-1194 -1305v-4h920l-15 -72h-1030zM497 -309c-42 0 -78 35 -78 77s36 78 78 78s78 -36 78 -78s-36 -77 -78 -77z" />
    <glyph glyph-name="Zdotaccent" unicode="&#x17b;" horiz-adv-x="1177" 
d="M21 0l13 62l1195 1305v4h-888l15 72h997l-13 -62l-1194 -1305v-4h920l-15 -72h-1030zM897 1644c-42 0 -78 35 -78 77s36 78 78 78s78 -36 78 -78s-36 -77 -78 -77z" />
    <glyph glyph-name="AE" unicode="&#xc6;" horiz-adv-x="1840" 
d="M1203 1373h-180l-625 -881h618zM911 0l90 422h-650l-297 -422h-90l1020 1443h1011l-16 -73h-696l-127 -597h660l-16 -72h-660l-133 -628h696l-15 -73h-777z" />
    <glyph glyph-name="AEmacron" unicode="&#x1e2;" horiz-adv-x="1840" 
d="M1203 1373h-180l-625 -881h618zM911 0l90 422h-650l-297 -422h-90l1020 1443h1011l-16 -73h-696l-127 -597h660l-16 -72h-660l-133 -628h696l-15 -73h-777zM1781 1679l-13 -59h-594l13 59h594z" />
    <glyph glyph-name="AEacute" unicode="&#x1fc;" horiz-adv-x="1840" 
d="M1203 1373h-180l-625 -881h618zM911 0l90 422h-650l-297 -422h-90l1020 1443h1011l-16 -73h-696l-127 -597h660l-16 -72h-660l-133 -628h696l-15 -73h-777zM1496 1556h-86l336 287h100z" />
    <glyph glyph-name="OE" unicode="&#x152;" horiz-adv-x="2226" 
d="M1232 0l65 303h-2c-128 -199 -333 -324 -566 -324c-342 0 -564 244 -564 623c0 481 320 862 738 862c290 0 490 -180 537 -473h4l95 452h842l-16 -73h-761l-127 -594h725l-16 -72h-724l-134 -631h761l-15 -73h-842zM1387 842c0 334 -189 548 -484 548
c-373 0 -657 -348 -657 -787c0 -336 189 -550 484 -550c373 0 657 349 657 789z" />
    <glyph glyph-name="Eth" unicode="&#xd0;" horiz-adv-x="1363" 
d="M178 72h377c455 0 759 338 759 799c0 313 -176 500 -515 500h-346l-127 -598h419l-15 -72h-419zM387 1443h424c375 0 584 -218 584 -563c0 -512 -332 -880 -837 -880h-477l149 701h-134l16 72h133z" />
    <glyph glyph-name="Thorn" unicode="&#xde;" horiz-adv-x="1147" 
d="M73 0l307 1443h80l-61 -285h386c240 0 389 -153 389 -340c0 -274 -205 -465 -540 -465h-406l-75 -353h-80zM384 1085l-140 -660h395c283 0 453 161 453 384c0 150 -111 276 -329 276h-379z" />
    <glyph glyph-name="Alphagreek" unicode="&#x391;" horiz-adv-x="1221" 
d="M846 1341l-463 -789h598l-131 789h-4zM1071 0l-79 482h-648l-285 -482h-90l855 1443h81l242 -1443h-76z" />
    <glyph glyph-name="Betagreek" unicode="&#x392;" horiz-adv-x="1198" 
d="M596 0h-516l307 1443h476c231 0 368 -131 368 -316c0 -191 -154 -350 -352 -382l-1 -4c165 -22 281 -132 281 -307c0 -262 -228 -434 -563 -434zM452 1371l-126 -593h416c224 0 407 145 407 336c0 158 -105 257 -308 257h-389zM176 72h423c285 0 478 149 478 356
c0 187 -145 279 -347 279h-419z" />
    <glyph glyph-name="Gammagreek" unicode="&#x393;" horiz-adv-x="1102" 
d="M202 0h-80l307 1443h810l-15 -73h-730z" />
    <glyph glyph-name="Deltagreek" unicode="&#x394;" horiz-adv-x="1319" 
d="M1187 0h-1161l12 58l834 1385h81l246 -1385zM894 1341l-755 -1264l-1 -4h982l1 3l-223 1265h-4z" />
    <glyph glyph-name="Deltagreek" unicode="&#x2206;" horiz-adv-x="1319" 
d="M1187 0h-1161l12 58l834 1385h81l246 -1385zM894 1341l-755 -1264l-1 -4h982l1 3l-223 1265h-4z" />
    <glyph glyph-name="Epsilongreek" unicode="&#x395;" horiz-adv-x="1060" 
d="M937 73l-15 -73h-842l307 1443h842l-16 -73h-761l-126 -594h725l-16 -72h-725l-133 -631h760z" />
    <glyph glyph-name="Zetagreek" unicode="&#x396;" horiz-adv-x="1177" 
d="M21 0l13 62l1195 1305v4h-888l15 72h997l-13 -62l-1194 -1305v-4h920l-15 -72h-1030z" />
    <glyph glyph-name="Etagreek" unicode="&#x397;" horiz-adv-x="1338" 
d="M1152 0h-80l150 705h-912l-150 -705h-80l307 1443h80l-141 -666h912l141 666h80z" />
    <glyph glyph-name="Thetagreek" unicode="&#x398;" horiz-adv-x="1547" 
d="M1216 691h-686l16 72h685zM797 -21c-342 0 -575 241 -575 610c0 493 317 875 737 875c342 0 575 -241 575 -610c0 -493 -317 -875 -737 -875zM1454 848c0 332 -200 542 -498 542c-371 0 -654 -350 -654 -795c0 -332 200 -542 498 -542c371 0 654 350 654 795z" />
    <glyph glyph-name="Iotagreek" unicode="&#x399;" horiz-adv-x="346" 
d="M160 0h-80l307 1443h80z" />
    <glyph glyph-name="Iotagreek.1" horiz-adv-x="836" 
d="M1004 1373h-307l-277 -1303h307l-15 -70h-307h-80h-306l15 70h306l277 1303h-306l15 70h306h80h307z" />
    <glyph glyph-name="Kappagreek" unicode="&#x39a;" horiz-adv-x="1143" 
d="M160 0h-80l307 1443h80l-170 -800h4l913 800h109l-715 -629l474 -814h-92l-443 764l-275 -238z" />
    <glyph glyph-name="Lambdagreek" unicode="&#x39b;" horiz-adv-x="1216" 
d="M843 1341l-774 -1341h-90l842 1443h81l229 -1443h-76l-208 1341h-4z" />
    <glyph glyph-name="Mugreek" unicode="&#x39c;" horiz-adv-x="1615" 
d="M156 0h-76l307 1443h84l299 -1343h4l866 1343h97l-307 -1443h-77l273 1282h-5l-828 -1279h-75l-285 1279h-4z" />
    <glyph glyph-name="Nugreek" unicode="&#x39d;" horiz-adv-x="1355" 
d="M160 0h-80l307 1443h79l646 -1319h4l280 1319h80l-307 -1443h-79l-646 1319h-4z" />
    <glyph glyph-name="Xigreek" unicode="&#x39e;" horiz-adv-x="1271" 
d="M379 1443h1020l-16 -77h-1020zM1177 703h-890l16 77h891zM89 77h1020l-16 -77h-1020z" />
    <glyph glyph-name="Omicrongreek" unicode="&#x39f;" horiz-adv-x="1455" 
d="M906 1390c-371 0 -653 -350 -653 -795c0 -332 199 -542 497 -542c370 0 652 350 652 795c0 332 -199 542 -496 542zM747 -21c-343 0 -574 241 -574 610c0 493 315 875 736 875c342 0 574 -241 574 -610c0 -493 -316 -875 -736 -875z" />
    <glyph glyph-name="Pigreek" unicode="&#x3a0;" horiz-adv-x="1402" 
d="M1174 0h-80l292 1370h-892l-292 -1370h-80l307 1443h1052z" />
    <glyph glyph-name="Rhogreek" unicode="&#x3a1;" horiz-adv-x="1158" 
d="M391 1443h434c256 0 418 -157 418 -379c0 -298 -239 -482 -580 -482h-377l-125 -582h-81zM456 1371l-155 -717h363c287 0 498 150 498 404c0 183 -130 313 -356 313h-350z" />
    <glyph glyph-name="Sigmagreek" unicode="&#x3a3;" horiz-adv-x="1252" 
d="M188 76l-1 -4h909l-15 -72h-1016l13 62l596 695l-294 621l13 65h975l-16 -72h-879l-1 -4l290 -609l-4 -15z" />
    <glyph glyph-name="Taugreek" unicode="&#x3a4;" horiz-adv-x="1158" 
d="M567 0h-81l292 1370h-508l15 73h1096l-15 -73h-508z" />
    <glyph glyph-name="Upsilongreek" unicode="&#x3a5;" horiz-adv-x="1170" 
d="M573 0h-80l133 631l-350 812h85l316 -736h4l625 736h96l-697 -820z" />
    <glyph glyph-name="Phigreek" unicode="&#x3a6;" horiz-adv-x="1633" 
d="M710 -59l28 130c-378 19 -588 230 -588 544c0 426 318 755 865 758l25 119h81l-25 -119c378 -19 588 -228 588 -544c0 -424 -319 -754 -865 -758l-28 -130h-81zM754 144l246 1157c-490 -8 -769 -299 -769 -679c0 -273 169 -466 523 -478zM834 144c490 7 769 298 769 680
c0 272 -169 464 -523 477z" />
    <glyph glyph-name="Chigreek" unicode="&#x3a7;" horiz-adv-x="1190" 
d="M-27 0l674 728l-360 715h90l329 -657h2l606 657h104l-672 -727l360 -716h-90l-329 658h-3l-607 -658h-104z" />
    <glyph glyph-name="Psigreek" unicode="&#x3a8;" horiz-adv-x="1551" 
d="M764 0h-81l75 353c-296 9 -470 165 -470 422c0 44 5 89 15 137l113 531h80l-112 -530c-10 -49 -16 -94 -16 -135c0 -223 149 -348 405 -351l217 1016h80l-216 -1016c363 7 528 168 603 519l105 497h81l-107 -501c-89 -420 -294 -583 -698 -589z" />
    <glyph glyph-name="Omegagreek" unicode="&#x3a9;" horiz-adv-x="1555" 
d="M860 0l22 102c342 122 568 418 568 782c0 301 -196 507 -492 507c-406 0 -677 -346 -677 -741c0 -259 107 -427 350 -548l-21 -102h-509l14 73h421l1 5c-231 124 -337 302 -337 569c0 438 302 817 766 817c342 0 564 -228 564 -568c0 -370 -212 -682 -564 -818v-5h452
l-14 -73h-544z" />
    <glyph glyph-name="Omegagreek" unicode="&#x2126;" horiz-adv-x="1555" 
d="M860 0l22 102c342 122 568 418 568 782c0 301 -196 507 -492 507c-406 0 -677 -346 -677 -741c0 -259 107 -427 350 -548l-21 -102h-509l14 73h421l1 5c-231 124 -337 302 -337 569c0 438 302 817 766 817c342 0 564 -228 564 -568c0 -370 -212 -682 -564 -818v-5h452
l-14 -73h-544z" />
    <glyph glyph-name="Alphatonosgreek" unicode="&#x386;" horiz-adv-x="1221" 
d="M846 1341l-463 -789h598l-131 789h-4zM1071 0l-79 482h-648l-285 -482h-90l855 1443h81l242 -1443h-76zM411 1148l144 295h101l-177 -295h-68z" />
    <glyph glyph-name="Epsilontonosgreek" unicode="&#x388;" horiz-adv-x="1226" 
d="M191 1148l144 295h101l-177 -295h-68zM1103 73l-15 -73h-842l307 1443h842l-16 -73h-761l-126 -594h725l-16 -72h-725l-133 -631h760z" />
    <glyph glyph-name="Etatonosgreek" unicode="&#x389;" horiz-adv-x="1504" 
d="M191 1148l144 295h101l-177 -295h-68zM1318 0h-80l150 705h-912l-150 -705h-80l307 1443h80l-141 -666h912l141 666h80z" />
    <glyph glyph-name="Iotatonosgreek" unicode="&#x38a;" horiz-adv-x="528" 
d="M191 1148l144 295h101l-177 -295h-68zM326 0h-80l307 1443h80z" />
    <glyph glyph-name="Iotadieresisgreek" unicode="&#x3aa;" horiz-adv-x="346" 
d="M160 0h-80l307 1443h80zM326 1605c-37 0 -67 30 -67 66c0 37 30 66 67 66c36 0 66 -29 66 -66c0 -36 -30 -66 -66 -66zM624 1605c-36 0 -67 30 -67 66c0 37 31 66 67 66s67 -29 67 -66c0 -36 -31 -66 -67 -66z" />
    <glyph glyph-name="Iotatonosgreek.1" horiz-adv-x="1047" 
d="M436 1443l-177 -295h-68l144 295h101zM1214 1373h-307l-277 -1303h307l-15 -70h-307h-80h-306l15 70h306l277 1303h-306l15 70h306h80h307z" />
    <glyph glyph-name="Iotadieresisgreek.1" horiz-adv-x="836" 
d="M869 1605c-36 0 -67 30 -67 66c0 37 31 66 67 66s67 -29 67 -66c0 -36 -31 -66 -67 -66zM571 1605c-37 0 -67 30 -67 66c0 37 30 66 67 66c36 0 66 -29 66 -66c0 -36 -30 -66 -66 -66zM1004 1373h-307l-277 -1303h307l-15 -70h-307h-80h-306l15 70h306l277 1303h-306
l15 70h306h80h307z" />
    <glyph glyph-name="Omicrontonosgreek" unicode="&#x38c;" horiz-adv-x="1534" 
d="M191 1148l144 295h101l-177 -295h-68zM985 1390c-371 0 -653 -350 -653 -795c0 -332 199 -542 497 -542c370 0 652 350 652 795c0 332 -199 542 -496 542zM826 -21c-343 0 -574 241 -574 610c0 493 315 875 736 875c342 0 574 -241 574 -610c0 -493 -316 -875 -736 -875z
" />
    <glyph glyph-name="Upsilontonosgreek" unicode="&#x38e;" horiz-adv-x="1476" 
d="M283 1148l144 295h101l-177 -295h-68zM879 0h-80l133 631l-350 812h85l316 -736h4l625 736h96l-697 -820z" />
    <glyph glyph-name="Upsilondieresisgreek" unicode="&#x3ab;" horiz-adv-x="1170" 
d="M573 0h-80l133 631l-350 812h85l316 -736h4l625 736h96l-697 -820zM737 1605c-37 0 -67 30 -67 66c0 37 30 66 67 66c36 0 66 -29 66 -66c0 -36 -30 -66 -66 -66zM1035 1605c-36 0 -67 30 -67 66c0 37 31 66 67 66s67 -29 67 -66c0 -36 -31 -66 -67 -66z" />
    <glyph glyph-name="Omegatonosgreek" unicode="&#x38f;" horiz-adv-x="1630" 
d="M191 1148l144 295h101l-177 -295h-68zM935 0l22 102c342 122 568 418 568 782c0 301 -196 507 -492 507c-406 0 -677 -346 -677 -741c0 -259 107 -427 350 -548l-21 -102h-509l14 73h421l1 5c-231 124 -337 302 -337 569c0 438 302 817 766 817c342 0 564 -228 564 -568
c0 -370 -212 -682 -564 -818v-5h452l-14 -73h-544z" />
    <glyph glyph-name="Acyrillic" unicode="&#x410;" horiz-adv-x="1231" 
d="M851 1341l-463 -789h598l-131 789h-4zM1076 0l-79 482h-648l-285 -482h-90l855 1443h81l242 -1443h-76z" />
    <glyph glyph-name="uni04D0" unicode="&#x4d0;" horiz-adv-x="1231" 
d="M851 1341l-463 -789h598l-131 789h-4zM1076 0l-79 482h-648l-285 -482h-90l855 1443h81l242 -1443h-76zM660 1793h72c-24 -115 46 -183 167 -183c118 0 221 68 246 183h72c-33 -155 -160 -242 -324 -242c-165 0 -267 87 -233 242z" />
    <glyph glyph-name="uni04D2" unicode="&#x4d2;" horiz-adv-x="1231" 
d="M851 1341l-463 -789h598l-131 789h-4zM1076 0l-79 482h-648l-285 -482h-90l855 1443h81l242 -1443h-76zM767 1605c-37 0 -67 30 -67 66c0 37 30 66 67 66c36 0 66 -29 66 -66c0 -36 -30 -66 -66 -66zM1065 1605c-36 0 -67 30 -67 66c0 37 31 66 67 66s67 -29 67 -66
c0 -36 -31 -66 -67 -66z" />
    <glyph glyph-name="uniF50E" horiz-adv-x="1231" 
d="M851 1341l-463 -789h598l-131 789h-4zM1076 0l-79 482h-648l-285 -482h-90l855 1443h81l242 -1443h-76zM1216 1679l-13 -59h-594l13 59h594z" />
    <glyph glyph-name="uniF460" horiz-adv-x="1231" 
d="M851 1341l-463 -789h598l-131 789h-4zM1076 0l-79 482h-648l-285 -482h-90l855 1443h81l242 -1443h-76zM932 1556h-86l336 287h100z" />
    <glyph glyph-name="Becyrillic" unicode="&#x411;" horiz-adv-x="1146" 
d="M581 0h-496l307 1443h815l-16 -73h-734l-115 -540h352c265 0 427 -147 427 -350c0 -270 -213 -480 -540 -480zM181 72h395c272 0 464 165 464 397c0 174 -132 289 -359 289h-355z" />
    <glyph glyph-name="Vecyrillic" unicode="&#x412;" horiz-adv-x="1208" 
d="M601 0h-516l307 1443h476c231 0 368 -131 368 -316c0 -191 -154 -350 -352 -382l-1 -4c165 -22 281 -132 281 -307c0 -262 -228 -434 -563 -434zM457 1371l-126 -593h416c224 0 407 145 407 336c0 158 -105 257 -308 257h-389zM181 72h423c285 0 478 149 478 356
c0 187 -145 279 -347 279h-419z" />
    <glyph glyph-name="Gecyrillic" unicode="&#x413;" horiz-adv-x="1040" 
d="M165 0h-80l307 1443h828l-16 -73h-747z" />
    <glyph glyph-name="Gjecyrillic" unicode="&#x403;" horiz-adv-x="1040" 
d="M165 0h-80l307 1443h828l-16 -73h-747zM857 1556h-86l336 287h100z" />
    <glyph glyph-name="Geupturncyrillic" unicode="&#x490;" horiz-adv-x="1040" 
d="M457 1370l-291 -1370h-81l307 1443h752l54 258h76l-70 -331h-747z" />
    <glyph glyph-name="uni04F6" unicode="&#x4f6;" horiz-adv-x="1040" 
d="M392 1443h828l-16 -73h-747l-276 -1297h187l-77 -358h-75l61 285h-112h-80z" />
    <glyph glyph-name="uni0492" unicode="&#x492;" horiz-adv-x="1040" 
d="M1204 1370h-747l-129 -606h586l-15 -67h-585l-149 -697h-80l148 697h-153l16 67h152l144 679h828z" />
    <glyph glyph-name="uniF53C" horiz-adv-x="1035" 
d="M165 0h-80l307 1443h830l-15 -73h-750l-128 -603h690l-16 -72h-690z" />
    <glyph glyph-name="uni04FA" unicode="&#x4fa;" horiz-adv-x="1040" 
d="M1204 1370h-747l-129 -606h586l-15 -67h-585l-149 -697l-20 -95c-40 -189 -137 -269 -326 -269h-17l15 70h15c133 0 203 60 234 205l19 89l148 697h-153l16 67h152l144 679h828z" />
    <glyph glyph-name="Decyrillic" unicode="&#x414;" horiz-adv-x="1385" 
d="M406 467c-46 -170 -103 -307 -201 -385l-2 -9h855l276 1297h-681zM51 0l-61 -286h-76l76 359h97c114 51 188 201 242 399l265 971h836l-292 -1370h188l-77 -359h-75l61 286h-1184z" />
    <glyph glyph-name="uni0414.BUL" horiz-adv-x="1476" 
d="M92 0l-61 -286h-76l76 359h114l806 1370h78l224 -1370h116l-76 -359h-76l61 286h-1186zM964 1328l-732 -1255h940l-200 1255h-8z" />
    <glyph glyph-name="Iecyrillic" unicode="&#x415;" horiz-adv-x="1070" 
d="M942 73l-15 -73h-842l307 1443h842l-16 -73h-761l-126 -594h725l-16 -72h-725l-133 -631h760z" />
    <glyph glyph-name="Iocyrillic" unicode="&#x401;" horiz-adv-x="1070" 
d="M942 73l-15 -73h-842l307 1443h842l-16 -73h-761l-126 -594h725l-16 -72h-725l-133 -631h760zM712 1605c-37 0 -67 30 -67 66c0 37 30 66 67 66c36 0 66 -29 66 -66c0 -36 -30 -66 -66 -66zM1010 1605c-36 0 -67 30 -67 66c0 37 31 66 67 66s67 -29 67 -66
c0 -36 -31 -66 -67 -66z" />
    <glyph glyph-name="uni04D6" unicode="&#x4d6;" horiz-adv-x="1070" 
d="M942 73l-15 -73h-842l307 1443h842l-16 -73h-761l-126 -594h725l-16 -72h-725l-133 -631h760zM605 1793h72c-24 -115 46 -183 167 -183c118 0 221 68 246 183h72c-33 -155 -160 -242 -324 -242c-165 0 -267 87 -233 242z" />
    <glyph glyph-name="uniF510" horiz-adv-x="1070" 
d="M942 73l-15 -73h-842l307 1443h842l-16 -73h-761l-126 -594h725l-16 -72h-725l-133 -631h760zM1161 1679l-13 -59h-594l13 59h594z" />
    <glyph glyph-name="uniF512" horiz-adv-x="1070" 
d="M942 73l-15 -73h-842l307 1443h842l-16 -73h-761l-126 -594h725l-16 -72h-725l-133 -631h760zM698 1683c36 0 65 -29 65 -65s-29 -65 -65 -65c-35 0 -65 29 -65 65s30 65 65 65zM1207 1919l-13 -60h-594l13 60h594zM992 1683c36 0 65 -29 65 -65s-29 -65 -65 -65
s-65 29 -65 65s29 65 65 65z" />
    <glyph glyph-name="uni0400" unicode="&#x400;" horiz-adv-x="1070" 
d="M942 73l-15 -73h-842l307 1443h842l-16 -73h-761l-126 -594h725l-16 -72h-725l-133 -631h760zM790 1556l-184 287h86l171 -287h-73z" />
    <glyph glyph-name="uniF461" horiz-adv-x="1070" 
d="M942 73l-15 -73h-842l307 1443h842l-16 -73h-761l-126 -594h725l-16 -72h-725l-133 -631h760zM877 1556h-86l336 287h100z" />
    <glyph glyph-name="uniF469" horiz-adv-x="1070" 
d="M942 73l-15 -73h-842l307 1443h842l-16 -73h-761l-126 -594h725l-16 -72h-725l-133 -631h760zM873 1618h-64l116 316h97zM1085 1621c-37 0 -68 30 -68 67s31 66 68 66c36 0 67 -29 67 -66s-30 -67 -67 -67zM689 1621c-37 0 -67 30 -67 67c-1 37 30 66 67 66
c36 0 67 -29 67 -66s-30 -67 -67 -67z" />
    <glyph glyph-name="uniF514" horiz-adv-x="1070" 
d="M704 2052h66c-2 -11 -3 -21 -3 -31c0 -68 54 -107 141 -107c100 0 180 51 198 138h66c-26 -122 -134 -194 -276 -194c-122 0 -197 55 -197 150c0 13 2 28 5 44zM603 1597c25 118 134 194 279 194c128 0 202 -58 202 -151c0 -14 -1 -28 -4 -43h-67c2 11 3 21 3 30
c0 68 -55 108 -146 108c-104 0 -182 -53 -200 -138h-67zM942 73l-15 -73h-842l307 1443h842l-16 -73h-761l-126 -594h725l-16 -72h-725l-133 -631h760z" />
    <glyph glyph-name="Zhecyrillic" unicode="&#x416;" horiz-adv-x="1792" 
d="M959 719l-883 -719h-114l928 753l-544 690h94l529 -678h7l144 678h79l-145 -679h7l818 679h109l-856 -709l591 -734h-95l-576 718h-7l-153 -718h-79l153 719h-7z" />
    <glyph glyph-name="uni04C1" unicode="&#x4c1;" horiz-adv-x="1792" 
d="M959 719l-883 -719h-114l928 753l-544 690h94l529 -678h7l144 678h79l-145 -679h7l818 679h109l-856 -709l591 -734h-95l-576 718h-7l-153 -718h-79l153 719h-7zM942 1788h64c-1 -4 -2 -15 -2 -21c0 -98 75 -159 191 -159c117 0 208 71 224 180h64
c-21 -145 -138 -237 -299 -237c-145 0 -245 82 -245 209c0 7 1 22 3 28z" />
    <glyph glyph-name="uni04DC" unicode="&#x4dc;" horiz-adv-x="1792" 
d="M959 719l-883 -719h-114l928 753l-544 690h94l529 -678h7l144 678h79l-145 -679h7l818 679h109l-856 -709l591 -734h-95l-576 718h-7l-153 -718h-79l153 719h-7zM1059 1605c-37 0 -67 30 -67 66c0 37 30 66 67 66c36 0 66 -29 66 -66c0 -36 -30 -66 -66 -66zM1357 1605
c-36 0 -67 30 -67 66c0 37 31 66 67 66s67 -29 67 -66c0 -36 -31 -66 -67 -66z" />
    <glyph glyph-name="uni0496" unicode="&#x496;" horiz-adv-x="1914" 
d="M1132 734l532 -661h182l-76 -358h-76l61 285h-32h-95l-576 718h-7l-153 -718h-79l153 719h-7l-883 -719h-114l928 753l-544 690h94l529 -678h7l144 678h79l-145 -679h7l818 679h109z" />
    <glyph glyph-name="uni0416.BUL" horiz-adv-x="1917" 
d="M2112 1443l-704 -629l463 -814h-90l-434 763l-275 -237l-112 -526h-78l114 535l-167 231l-760 -766h-107l826 833l-421 610h93l551 -800h8l170 800h78l-170 -800h8l900 800h107z" />
    <glyph glyph-name="Zecyrillic" unicode="&#x417;" horiz-adv-x="1163" 
d="M467 712l16 72h212c232 0 408 135 408 320c0 184 -136 291 -343 291c-191 0 -346 -121 -400 -297h-79c59 224 250 367 485 367c248 0 416 -136 416 -353c0 -191 -152 -342 -368 -367l-1 -4c173 -31 291 -146 291 -327c0 -245 -211 -436 -522 -436s-486 205 -481 389h78
c-4 -155 154 -318 408 -318c257 0 436 156 436 359c0 189 -147 304 -372 304h-184z" />
    <glyph glyph-name="uni04DE" unicode="&#x4de;" horiz-adv-x="1163" 
d="M467 712l16 72h212c232 0 408 135 408 320c0 184 -136 291 -343 291c-191 0 -346 -121 -400 -297h-79c59 224 250 367 485 367c248 0 416 -136 416 -353c0 -191 -152 -342 -368 -367l-1 -4c173 -31 291 -146 291 -327c0 -245 -211 -436 -522 -436s-486 205 -481 389h78
c-4 -155 154 -318 408 -318c257 0 436 156 436 359c0 189 -147 304 -372 304h-184zM687 1605c-37 0 -67 30 -67 66c0 37 30 66 67 66c36 0 66 -29 66 -66c0 -36 -30 -66 -66 -66zM985 1605c-36 0 -67 30 -67 66c0 37 31 66 67 66s67 -29 67 -66c0 -36 -31 -66 -67 -66z" />
    <glyph glyph-name="uni0498" unicode="&#x498;" horiz-adv-x="1163" 
d="M814 745l-1 -4c173 -31 291 -146 291 -327c0 -230 -186 -413 -467 -434l-56 -265h-73l56 263c-300 8 -468 209 -463 389h78c-4 -155 154 -318 408 -318c257 0 436 156 436 359c0 189 -147 304 -372 304h-184l16 72h212c232 0 408 135 408 320c0 184 -136 291 -343 291
c-191 0 -346 -121 -400 -297h-79c59 224 250 367 485 367c248 0 416 -136 416 -353c0 -191 -152 -342 -368 -367z" />
    <glyph glyph-name="uniF50A" horiz-adv-x="1163" 
d="M814 745l-1 -4c173 -31 291 -146 291 -327c0 -240 -203 -429 -504 -436l-76 -119c116 -6 184 -59 184 -150c0 -109 -88 -176 -213 -176c-66 0 -124 15 -168 37l13 60c42 -22 91 -36 153 -36c88 0 148 39 148 109c0 64 -51 98 -145 105l-52 3l10 42l81 127
c-281 19 -439 212 -434 387h78c-4 -155 154 -318 408 -318c257 0 436 156 436 359c0 189 -147 304 -372 304h-184l16 72h212c232 0 408 135 408 320c0 184 -136 291 -343 291c-191 0 -346 -121 -400 -297h-79c59 224 250 367 485 367c248 0 416 -136 416 -353
c0 -191 -152 -342 -368 -367z" />
    <glyph glyph-name="uniF516" horiz-adv-x="1163" 
d="M467 712l16 72h212c232 0 408 135 408 320c0 184 -136 291 -343 291c-191 0 -346 -121 -400 -297h-79c59 224 250 367 485 367c248 0 416 -136 416 -353c0 -191 -152 -342 -368 -367l-1 -4c173 -31 291 -146 291 -327c0 -245 -211 -436 -522 -436s-486 205 -481 389h78
c-4 -155 154 -318 408 -318c257 0 436 156 436 359c0 189 -147 304 -372 304h-184zM784 1556l-201 289h78l159 -232h4l258 232h90l-324 -289h-64z" />
    <glyph glyph-name="Iicyrillic" unicode="&#x418;" horiz-adv-x="1361" 
d="M1091 0l278 1304h-8l-1196 -1304h-80l307 1443h80l-278 -1302h8l1196 1302h80l-307 -1443h-80z" />
    <glyph glyph-name="Iishortcyrillic" unicode="&#x419;" horiz-adv-x="1361" 
d="M1091 0l278 1304h-8l-1196 -1304h-80l307 1443h80l-278 -1302h8l1196 1302h80l-307 -1443h-80zM728 1793h72c-24 -115 46 -183 167 -183c118 0 221 68 246 183h72c-33 -155 -160 -242 -324 -242c-165 0 -267 87 -233 242z" />
    <glyph glyph-name="uni040D" unicode="&#x40d;" horiz-adv-x="1361" 
d="M1091 0l278 1304h-8l-1196 -1304h-80l307 1443h80l-278 -1302h8l1196 1302h80l-307 -1443h-80zM913 1556l-184 287h86l171 -287h-73z" />
    <glyph glyph-name="uni04E2" unicode="&#x4e2;" horiz-adv-x="1361" 
d="M1091 0l278 1304h-8l-1196 -1304h-80l307 1443h80l-278 -1302h8l1196 1302h80l-307 -1443h-80zM1284 1679l-13 -59h-594l13 59h594z" />
    <glyph glyph-name="uni04E4" unicode="&#x4e4;" horiz-adv-x="1361" 
d="M1091 0l278 1304h-8l-1196 -1304h-80l307 1443h80l-278 -1302h8l1196 1302h80l-307 -1443h-80zM835 1605c-37 0 -67 30 -67 66c0 37 30 66 67 66c36 0 66 -29 66 -66c0 -36 -30 -66 -66 -66zM1133 1605c-36 0 -67 30 -67 66c0 37 31 66 67 66s67 -29 67 -66
c0 -36 -31 -66 -67 -66z" />
    <glyph glyph-name="uni048A" unicode="&#x48a;" horiz-adv-x="1424" 
d="M1213 1793h72c-33 -155 -160 -242 -324 -242c-165 0 -267 87 -233 242h72c-24 -115 46 -183 167 -183c118 0 221 68 246 183zM1478 1443l-291 -1370h179l-4 -21l-176 -337h-78l151 285h-88h-80l15 73h1l262 1231h-8l-1196 -1304h-80l307 1443h80l-278 -1302h8l1196 1302
h80z" />
    <glyph glyph-name="uniF462" horiz-adv-x="1361" 
d="M1091 0l278 1304h-8l-1196 -1304h-80l307 1443h80l-278 -1302h8l1196 1302h80l-307 -1443h-80zM999 1556h-86l336 287h100z" />
    <glyph glyph-name="uniF532" horiz-adv-x="1361" 
d="M1213 1793h72c-33 -155 -160 -242 -324 -242c-165 0 -267 87 -233 242h72c-24 -115 46 -183 167 -183c118 0 221 68 246 183zM1398 1443h80l-307 -1443l-21 -95c-40 -189 -137 -269 -325 -269h-18l16 70h15c132 0 203 60 234 205l19 89l278 1304h-8l-1196 -1304h-80
l307 1443h80l-278 -1302h8z" />
    <glyph glyph-name="Kacyrillic" unicode="&#x41a;" horiz-adv-x="1158" 
d="M1340 1443l-931 -709l683 -734h-102l-666 714h-7l-152 -714h-80l307 1443h80l-144 -679h7l891 679h114z" />
    <glyph glyph-name="Kjecyrillic" unicode="&#x40c;" horiz-adv-x="1158" 
d="M1214 1843l-350 -287h-86l336 287h100zM1340 1443l-931 -709l683 -734h-102l-666 714h-7l-152 -714h-80l307 1443h80l-144 -679h7l891 679h114z" />
    <glyph glyph-name="uni049A" unicode="&#x49a;" horiz-adv-x="1277" 
d="M409 734l615 -661h185l-76 -358h-76l61 285h-26h-102l-666 714h-7l-152 -714h-80l307 1443h80l-144 -679h7l891 679h114z" />
    <glyph glyph-name="uni049C" unicode="&#x49c;" horiz-adv-x="1203" 
d="M1364 1443l-657 -711l401 -732h-91l-386 707h-95l-77 -360h-69l76 360h-151l-151 -707h-79l307 1443h79l-142 -669h151l72 340h70l-72 -340h94l615 669h105z" />
    <glyph glyph-name="uni049E" unicode="&#x49e;" horiz-adv-x="1158" 
d="M1340 1443l-931 -709l683 -734h-102l-666 714h-7l-152 -714h-80l255 1197h-140l14 68h140l38 178h80l-38 -178h265l-14 -68h-265l-92 -433h7l891 679h114z" />
    <glyph glyph-name="uni04A0" unicode="&#x4a0;" horiz-adv-x="1790" 
d="M1971 1443l-931 -709l683 -734h-102l-666 714h-7l-152 -714h-80l291 1370h-737l15 73h738h80h1l-16 -73v0l-129 -606h7l891 679h114z" />
    <glyph glyph-name="uni04C3" unicode="&#x4c3;" horiz-adv-x="1152" 
d="M438 -384c-23 0 -42 1 -57 4l15 72c17 -3 35 -4 54 -4c267 0 499 253 499 554c0 290 -223 459 -600 459h-35l-148 -701h-80l307 1443h80l-143 -671h30l864 671h116l-877 -677c347 -26 567 -214 567 -525c0 -351 -276 -625 -592 -625z" />
    <glyph glyph-name="uni041A.BUL" horiz-adv-x="1143" 
d="M160 0h-80l307 1443h80l-170 -800h4l913 800h109l-715 -629l474 -814h-92l-443 764l-275 -238z" />
    <glyph glyph-name="Elcyrillic" unicode="&#x41b;" horiz-adv-x="1291" 
d="M1100 0h-80l291 1370h-645l-246 -900c-74 -268 -177 -479 -392 -479c-31 0 -52 8 -56 9l15 73c3 -1 25 -8 52 -8c153 0 240 180 304 412l263 966h801z" />
    <glyph glyph-name="uni04C5" unicode="&#x4c5;" horiz-adv-x="1353" 
d="M1407 1443l-291 -1370h179l-4 -21l-176 -337h-78l150 285h-87h-80l15 73h1l275 1297h-645l-246 -900c-74 -268 -177 -479 -392 -479c-31 0 -52 8 -56 9l15 73c3 -1 25 -8 52 -8c153 0 240 180 304 412l263 966h801z" />
    <glyph glyph-name="uniF530" horiz-adv-x="1377" 
d="M1407 1443l-291 -1370h186l-76 -358h-76l61 285h-111h-80l291 1370h-645l-246 -900c-74 -268 -177 -479 -392 -479c-31 0 -52 8 -56 9l15 73c3 -1 25 -8 52 -8c153 0 240 180 304 412l263 966h801z" />
    <glyph glyph-name="uni052E" unicode="&#x52e;" horiz-adv-x="1377" 
d="M1407 1443l-291 -1370h186l-76 -358h-76l61 285h-111h-80l291 1370h-645l-246 -900c-74 -268 -177 -479 -392 -479c-31 0 -52 8 -56 9l15 73c3 -1 25 -8 52 -8c153 0 240 180 304 412l263 966h801z" />
    <glyph glyph-name="uni0512" unicode="&#x512;" horiz-adv-x="1290" 
d="M606 1443h801l-307 -1443l-21 -95c-40 -189 -137 -269 -325 -269h-18l16 70h15c132 0 203 60 233 205l20 89l291 1370h-645l-246 -900c-74 -268 -177 -479 -392 -479c-31 0 -52 8 -56 9l15 73c3 -1 25 -8 52 -8c153 0 240 180 304 412z" />
    <glyph glyph-name="uni041B.BUL" horiz-adv-x="1201" 
d="M-21 0l835 1443h81l222 -1443h-81l-199 1332h-4l-763 -1332h-91z" />
    <glyph glyph-name="Emcyrillic" unicode="&#x41c;" horiz-adv-x="1625" 
d="M161 0h-76l307 1443h84l299 -1343h4l866 1343h97l-307 -1443h-77l273 1282h-5l-828 -1279h-75l-285 1279h-4z" />
    <glyph glyph-name="uni04CD" unicode="&#x4cd;" horiz-adv-x="1693" 
d="M1742 1443l-291 -1370h185l-4 -21l-176 -337h-78l150 285h-93h-75h-2l273 1282h-5l-828 -1279h-75l-285 1279h-4l-273 -1282h-76l307 1443h84l299 -1343h4l866 1343h97z" />
    <glyph glyph-name="Encyrillic" unicode="&#x41d;" horiz-adv-x="1348" 
d="M1157 0h-80l150 705h-912l-150 -705h-80l307 1443h80l-141 -666h912l141 666h80z" />
    <glyph glyph-name="uni04C7" unicode="&#x4c7;" horiz-adv-x="1348" 
d="M1464 1443l-307 -1443h2l-21 -95c-40 -189 -137 -269 -325 -269h-18l15 70h16c132 0 202 60 233 205l19 89h-1l150 705h-912l-150 -705h-80l307 1443h80l-141 -666h912l141 666h80z" />
    <glyph glyph-name="uni04A2" unicode="&#x4a2;" horiz-adv-x="1437" 
d="M1464 1443l-291 -1370h189l-76 -358h-76l61 285h-114h-78h-2l150 705h-912l-150 -705h-80l307 1443h80l-141 -666h912l141 666h80z" />
    <glyph glyph-name="uni04C9" unicode="&#x4c9;" horiz-adv-x="1412" 
d="M1464 1443l-291 -1370h182l-4 -21l-177 -337h-77l150 285h-90h-78h-2l150 705h-912l-150 -705h-80l307 1443h80l-141 -666h912l141 666h80z" />
    <glyph glyph-name="uni04A4" unicode="&#x4a4;" horiz-adv-x="1964" 
d="M2144 1443l-16 -73h-680l-291 -1370h-80l150 705h-912l-150 -705h-80l307 1443h80l-141 -666h912l141 666h80h680z" />
    <glyph glyph-name="Ocyrillic" unicode="&#x41e;" horiz-adv-x="1465" 
d="M911 1390c-371 0 -653 -350 -653 -795c0 -332 199 -542 497 -542c370 0 652 350 652 795c0 332 -199 542 -496 542zM752 -21c-343 0 -574 241 -574 610c0 493 315 875 736 875c342 0 574 -241 574 -610c0 -493 -316 -875 -736 -875z" />
    <glyph glyph-name="uni04E6" unicode="&#x4e6;" horiz-adv-x="1465" 
d="M911 1390c-371 0 -653 -350 -653 -795c0 -332 199 -542 497 -542c370 0 652 350 652 795c0 332 -199 542 -496 542zM752 -21c-343 0 -574 241 -574 610c0 493 315 875 736 875c342 0 574 -241 574 -610c0 -493 -316 -875 -736 -875zM818 1605c-37 0 -67 30 -67 66
c0 37 30 66 67 66c36 0 66 -29 66 -66c0 -36 -30 -66 -66 -66zM1116 1605c-36 0 -67 30 -67 66c0 37 31 66 67 66s67 -29 67 -66c0 -36 -31 -66 -67 -66z" />
    <glyph glyph-name="uniF518" horiz-adv-x="1465" 
d="M911 1390c-371 0 -653 -350 -653 -795c0 -332 199 -542 497 -542c370 0 652 350 652 795c0 332 -199 542 -496 542zM752 -21c-343 0 -574 241 -574 610c0 493 315 875 736 875c342 0 574 -241 574 -610c0 -493 -316 -875 -736 -875zM1267 1679l-13 -59h-594l13 59h594z
" />
    <glyph glyph-name="uniF463" horiz-adv-x="1465" 
d="M911 1390c-371 0 -653 -350 -653 -795c0 -332 199 -542 497 -542c370 0 652 350 652 795c0 332 -199 542 -496 542zM752 -21c-343 0 -574 241 -574 610c0 493 315 875 736 875c342 0 574 -241 574 -610c0 -493 -316 -875 -736 -875zM982 1556h-86l336 287h100z" />
    <glyph glyph-name="uniF4D2" horiz-adv-x="1465" 
d="M911 1390c-371 0 -653 -350 -653 -795c0 -332 199 -542 497 -542c370 0 652 350 652 795c0 332 -199 542 -496 542zM752 -21c-343 0 -574 241 -574 610c0 493 315 875 736 875c342 0 574 -241 574 -610c0 -493 -316 -875 -736 -875zM895 1556l-184 287h86l171 -287h-73z
" />
    <glyph glyph-name="uniF51A" horiz-adv-x="1465" 
d="M911 1390c-371 0 -653 -350 -653 -795c0 -332 199 -542 497 -542c370 0 652 350 652 795c0 332 -199 542 -496 542zM752 -21c-343 0 -574 241 -574 610c0 493 315 875 736 875c342 0 574 -241 574 -610c0 -493 -316 -875 -736 -875zM711 1793h72
c-24 -115 46 -183 167 -183c118 0 221 68 246 183h72c-33 -155 -160 -242 -324 -242c-165 0 -267 87 -233 242z" />
    <glyph glyph-name="uni04E8" unicode="&#x4e8;" horiz-adv-x="1465" 
d="M1397 707h-1133c-4 -37 -6 -74 -6 -112c0 -332 199 -542 497 -542c330 0 590 278 642 654zM274 775h1130c2 24 3 48 3 73c0 332 -199 542 -496 542c-319 0 -573 -259 -637 -615zM914 1464c342 0 574 -241 574 -610c0 -493 -316 -875 -736 -875c-343 0 -574 241 -574 610
c0 493 315 875 736 875z" />
    <glyph glyph-name="uniF49A" horiz-adv-x="1465" 
d="M1321 1679l-13 -59h-594l13 59h594zM1397 707h-1133c-4 -37 -6 -74 -6 -112c0 -332 199 -542 497 -542c330 0 590 278 642 654zM274 775h1130c2 24 3 48 3 73c0 332 -199 542 -496 542c-319 0 -573 -259 -637 -615zM914 1464c342 0 574 -241 574 -610
c0 -493 -316 -875 -736 -875c-343 0 -574 241 -574 610c0 493 315 875 736 875z" />
    <glyph glyph-name="uniF51C" horiz-adv-x="1465" 
d="M1250 1793h72c-33 -155 -160 -242 -324 -242c-165 0 -267 87 -233 242h72c-24 -115 46 -183 167 -183c118 0 221 68 246 183zM1397 707h-1133c-4 -37 -6 -74 -6 -112c0 -332 199 -542 497 -542c330 0 590 278 642 654zM274 775h1130c2 24 3 48 3 73
c0 332 -199 542 -496 542c-319 0 -573 -259 -637 -615zM914 1464c342 0 574 -241 574 -610c0 -493 -316 -875 -736 -875c-343 0 -574 241 -574 610c0 493 315 875 736 875z" />
    <glyph glyph-name="uniF51E" horiz-adv-x="1465" 
d="M1270 2052h67c-26 -122 -135 -194 -276 -194c-123 0 -198 55 -198 150c0 13 2 28 6 44h66c-2 -11 -3 -21 -3 -31c0 -68 54 -107 141 -107c100 0 179 51 197 138zM1244 1597h-67c2 11 4 21 4 30c0 68 -55 108 -147 108c-103 0 -181 -53 -199 -138h-67
c25 118 133 194 279 194c127 0 202 -58 202 -151c0 -14 -2 -28 -5 -43zM1397 707h-1133c-4 -37 -6 -74 -6 -112c0 -332 199 -542 497 -542c330 0 590 278 642 654zM274 775h1130c2 24 3 48 3 73c0 332 -199 542 -496 542c-319 0 -573 -259 -637 -615zM914 1464
c342 0 574 -241 574 -610c0 -493 -316 -875 -736 -875c-343 0 -574 241 -574 610c0 493 315 875 736 875z" />
    <glyph glyph-name="uni04EA" unicode="&#x4ea;" horiz-adv-x="1465" 
d="M1170 1605c-36 0 -67 30 -67 66c0 37 31 66 67 66s67 -29 67 -66c0 -36 -31 -66 -67 -66zM872 1605c-37 0 -67 30 -67 66c0 37 30 66 67 66c36 0 66 -29 66 -66c0 -36 -30 -66 -66 -66zM1397 707h-1133c-4 -37 -6 -74 -6 -112c0 -332 199 -542 497 -542
c330 0 590 278 642 654zM274 775h1130c2 24 3 48 3 73c0 332 -199 542 -496 542c-319 0 -573 -259 -637 -615zM914 1464c342 0 574 -241 574 -610c0 -493 -316 -875 -736 -875c-343 0 -574 241 -574 610c0 493 315 875 736 875z" />
    <glyph glyph-name="uni0472" unicode="&#x472;" horiz-adv-x="1465" 
d="M755 53c337 0 601 291 645 679c-81 -70 -194 -117 -310 -117c-229 1 -342 157 -539 157c-109 0 -210 -44 -291 -111c-1 -22 -2 -44 -2 -66c0 -332 199 -542 497 -542zM911 1390c-333 0 -594 -282 -644 -662c85 71 187 113 302 113c217 0 339 -157 537 -157
c114 0 230 49 300 116c1 16 1 32 1 48c0 332 -199 542 -496 542zM914 1464c342 0 574 -241 574 -610c0 -493 -316 -875 -736 -875c-343 0 -574 241 -574 610c0 493 315 875 736 875z" />
    <glyph glyph-name="Pecyrillic" unicode="&#x41f;" horiz-adv-x="1334" 
d="M1143 0h-79l292 1370h-900l-291 -1370h-80l307 1443h1058z" />
    <glyph glyph-name="uni0524" unicode="&#x524;" horiz-adv-x="1421" 
d="M1450 1443l-291 -1370h188l-77 -358h-75l61 285h-113h-79l292 1370h-900l-291 -1370h-80l307 1443h1058z" />
    <glyph glyph-name="Dzhecyrillic" unicode="&#x40f;" horiz-adv-x="1334" 
d="M1143 0h-464l-61 -285h-72l61 285h-522l307 1443h79l-291 -1370h899l291 1370h80z" />
    <glyph glyph-name="Ercyrillic" unicode="&#x420;" horiz-adv-x="1168" 
d="M396 1443h434c256 0 418 -157 418 -379c0 -298 -239 -482 -580 -482h-377l-125 -582h-81zM461 1371l-155 -717h363c287 0 498 150 498 404c0 183 -130 313 -356 313h-350z" />
    <glyph glyph-name="uni048E" unicode="&#x48e;" horiz-adv-x="1168" 
d="M758 969l119 -285c175 56 290 187 290 374c0 183 -130 313 -356 313h-350l-155 -717h363c46 0 90 4 132 11l-113 275zM396 1443h434c256 0 418 -157 418 -379s-132 -380 -341 -447l113 -268l-79 -36l-114 283c-50 -9 -103 -14 -159 -14h-377l-125 -582h-81z" />
    <glyph glyph-name="uniF4D4" horiz-adv-x="1168" 
d="M396 1443h434c256 0 418 -157 418 -379c0 -298 -239 -482 -580 -482h-377l-125 -582h-81zM461 1371l-155 -717h363c287 0 498 150 498 404c0 183 -130 313 -356 313h-350zM744 1556l-201 289h78l159 -232h4l258 232h90l-324 -289h-64z" />
    <glyph glyph-name="Escyrillic" unicode="&#x421;" horiz-adv-x="1366" 
d="M1361 974v7c-8 240 -187 409 -460 409c-366 0 -645 -353 -645 -810c0 -318 195 -527 491 -527c239 0 430 129 509 345h83c-85 -260 -311 -419 -595 -419c-341 0 -568 238 -568 595c0 505 313 890 728 890c317 0 530 -199 537 -482v-8h-80z" />
    <glyph glyph-name="uni04AA" unicode="&#x4aa;" horiz-adv-x="1366" 
d="M605 -147l82 128c-309 25 -511 256 -511 593c0 505 313 890 728 890c317 0 530 -199 537 -482v-8h-80v7c-8 240 -187 409 -460 409c-366 0 -645 -353 -645 -810c0 -318 195 -527 491 -527c239 0 430 129 509 345h83c-84 -258 -307 -416 -587 -419l-77 -120
c116 -6 184 -59 184 -150c0 -109 -88 -176 -213 -176c-66 0 -124 15 -168 37l13 60c42 -22 91 -36 153 -36c88 0 148 39 148 109c0 64 -51 98 -145 105l-52 3z" />
    <glyph glyph-name="uniF53E" horiz-adv-x="1366" 
d="M633 -285l57 266c-311 24 -514 255 -514 593c0 505 313 890 728 890c317 0 530 -199 537 -482v-8h-80v7c-8 240 -187 409 -460 409c-366 0 -645 -353 -645 -810c0 -318 195 -527 491 -527c239 0 430 129 509 345h83c-83 -255 -302 -412 -577 -419l-56 -264h-73z" />
    <glyph glyph-name="Tecyrillic" unicode="&#x422;" horiz-adv-x="1168" 
d="M572 0h-81l292 1370h-508l15 73h1096l-15 -73h-508z" />
    <glyph glyph-name="uni04AC" unicode="&#x4ac;" horiz-adv-x="1168" 
d="M290 1443h1096l-15 -73h-508l-275 -1297h187l-76 -358h-75l61 285h-113h-79h-2l292 1370h-508z" />
    <glyph glyph-name="Ucyrillic" unicode="&#x423;" horiz-adv-x="1146" 
d="M208 -9c-30 0 -55 5 -69 10l15 73c13 -5 38 -9 67 -9c118 0 194 63 343 283l-277 1095h82l251 -1004h7l649 1004h91l-701 -1074c-190 -291 -285 -378 -458 -378z" />
    <glyph glyph-name="Ushortcyrillic" unicode="&#x40e;" horiz-adv-x="1145" 
d="M208 -9c-30 0 -55 5 -69 10l15 73c13 -5 38 -9 67 -9c118 0 194 63 343 283l-277 1095h82l251 -1004h7l649 1004h91l-701 -1074c-190 -291 -285 -378 -458 -378zM609 1793h72c-24 -115 46 -183 167 -183c118 0 221 68 246 183h72c-33 -155 -160 -242 -324 -242
c-165 0 -267 87 -233 242z" />
    <glyph glyph-name="uni04EE" unicode="&#x4ee;" horiz-adv-x="1145" 
d="M208 -9c-30 0 -55 5 -69 10l15 73c13 -5 38 -9 67 -9c118 0 194 63 343 283l-277 1095h82l251 -1004h7l649 1004h91l-701 -1074c-190 -291 -285 -378 -458 -378zM1165 1679l-13 -59h-594l13 59h594z" />
    <glyph glyph-name="uni04F0" unicode="&#x4f0;" horiz-adv-x="1145" 
d="M208 -9c-30 0 -55 5 -69 10l15 73c13 -5 38 -9 67 -9c118 0 194 63 343 283l-277 1095h82l251 -1004h7l649 1004h91l-701 -1074c-190 -291 -285 -378 -458 -378zM716 1605c-37 0 -67 30 -67 66c0 37 30 66 67 66c36 0 66 -29 66 -66c0 -36 -30 -66 -66 -66zM1014 1605
c-36 0 -67 30 -67 66c0 37 31 66 67 66s67 -29 67 -66c0 -36 -31 -66 -67 -66z" />
    <glyph glyph-name="uni04F2" unicode="&#x4f2;" horiz-adv-x="1145" 
d="M208 -9c-30 0 -55 5 -69 10l15 73c13 -5 38 -9 67 -9c118 0 194 63 343 283l-277 1095h82l251 -1004h7l649 1004h91l-701 -1074c-190 -291 -285 -378 -458 -378zM1018 1556h-83l336 287h98zM749 1556h-84l337 287h97z" />
    <glyph glyph-name="uniF4CC" horiz-adv-x="1145" 
d="M208 -9c-30 0 -55 5 -69 10l15 73c13 -5 38 -9 67 -9c118 0 194 63 343 283l-277 1095h82l251 -1004h7l649 1004h91l-701 -1074c-190 -291 -285 -378 -458 -378zM881 1556h-86l336 287h100z" />
    <glyph glyph-name="uniF464" horiz-adv-x="1145" 
d="M208 -9c-30 0 -55 5 -69 10l15 73c13 -5 38 -9 67 -9c118 0 194 63 343 283l-277 1095h82l251 -1004h7l649 1004h91l-701 -1074c-190 -291 -285 -378 -458 -378zM881 1556h-86l336 287h100z" />
    <glyph glyph-name="Efcyrillic" unicode="&#x424;" horiz-adv-x="1532" 
d="M750 -13h-79l34 158c-346 4 -548 179 -548 476c0 395 328 676 794 680l32 155h79l-33 -155c346 -4 548 -179 548 -476c0 -395 -328 -677 -794 -680zM238 623c0 -257 179 -404 482 -406l215 1012c-407 -4 -697 -257 -697 -606zM1496 823c0 257 -179 404 -482 406
l-215 -1012c407 4 697 256 697 606z" />
    <glyph glyph-name="Xacyrillic" unicode="&#x425;" horiz-adv-x="1200" 
d="M-22 0l674 728l-360 715h90l329 -657h2l606 657h104l-672 -727l360 -716h-90l-329 658h-3l-607 -658h-104z" />
    <glyph glyph-name="uni04B2" unicode="&#x4b2;" horiz-adv-x="1319" 
d="M751 716l323 -643h178l-77 -358h-75l61 285h-50h-78h-12l-329 658h-3l-607 -658h-104l674 728l-360 715h90l329 -657h2l606 657h104z" />
    <glyph glyph-name="uni04FE" unicode="&#x4fe;" horiz-adv-x="1200" 
d="M1423 1443l-637 -689h372l-14 -66h-379l346 -688h-90l-329 658h-3l-607 -658h-104l637 688h-382l14 66h392l-347 689h90l329 -657h2l606 657h104z" />
    <glyph glyph-name="uni04FC" unicode="&#x4fc;" horiz-adv-x="1198" 
d="M292 1443h90l329 -657h2l606 657h104l-672 -727l231 -457c44 -87 72 -150 93 -211c18 -48 25 -89 25 -136c0 -169 -116 -279 -292 -279c-31 0 -59 4 -80 9l15 72c17 -4 41 -8 68 -8c126 0 207 79 207 200c0 36 -6 70 -18 109c-17 54 -44 116 -90 207l-218 436h-3
l-607 -658h-104l674 727z" />
    <glyph glyph-name="Tsecyrillic" unicode="&#x426;" horiz-adv-x="1406" 
d="M1261 -285h-76l61 285h-1163l307 1443h81l-292 -1370h890l291 1370h81l-291 -1370h187z" />
    <glyph glyph-name="uni04B4" unicode="&#x4b4;" horiz-adv-x="1768" 
d="M1803 1443l-291 -1370h187l-76 -358h-76l61 285h-1163l291 1370h-461l15 73h462h81h462l-15 -73h-463l-276 -1297h890l291 1370h81z" />
    <glyph glyph-name="Checyrillic" unicode="&#x427;" horiz-adv-x="1214" 
d="M1023 0h-80l152 712h-6c-72 -58 -219 -136 -435 -136c-285 0 -446 193 -383 489l80 378h81l-81 -380c-55 -256 78 -413 314 -413c214 0 370 84 449 156l136 637h80z" />
    <glyph glyph-name="uni04F4" unicode="&#x4f4;" horiz-adv-x="1214" 
d="M1023 0h-80l152 712h-6c-72 -58 -219 -136 -435 -136c-285 0 -446 193 -383 489l80 378h81l-81 -380c-55 -256 78 -413 314 -413c214 0 370 84 449 156l136 637h80zM747 1605c-37 0 -67 30 -67 66c0 37 30 66 67 66c36 0 66 -29 66 -66c0 -36 -30 -66 -66 -66zM1045 1605
c-36 0 -67 30 -67 66c0 37 31 66 67 66s67 -29 67 -66c0 -36 -31 -66 -67 -66z" />
    <glyph glyph-name="uni04B6" unicode="&#x4b6;" horiz-adv-x="1303" 
d="M1330 1443l-291 -1370h189l-77 -358h-75l61 285h-114h-78h-2l152 712h-6c-72 -58 -219 -136 -435 -136c-285 0 -446 193 -383 489l80 378h81l-81 -380c-55 -256 78 -413 314 -413c214 0 370 84 449 156l136 637h80z" />
    <glyph glyph-name="uni04CB" unicode="&#x4cb;" horiz-adv-x="1214" 
d="M1330 1443l-291 -1370h3l-16 -73h-3h-80h-109l-66 -285h-76l83 358h184l136 639h-6c-72 -58 -219 -136 -435 -136c-285 0 -446 193 -383 489l80 378h81l-81 -380c-55 -256 78 -413 314 -413c214 0 370 84 449 156l136 637h80z" />
    <glyph glyph-name="uniF4C6" horiz-adv-x="1214" 
d="M1330 1443l-307 -1443h3l-21 -95c-40 -189 -137 -269 -325 -269h-18l15 70h16c132 0 202 60 233 205l19 89h-2l152 712h-6c-72 -58 -219 -136 -435 -136c-285 0 -446 193 -383 489l80 378h81l-81 -380c-55 -256 78 -413 314 -413c214 0 370 84 449 156l136 637h80z" />
    <glyph glyph-name="uni04B8" unicode="&#x4b8;" horiz-adv-x="1216" 
d="M1250 1443h80l-307 -1443h-80l152 712h-6c-66 -53 -196 -124 -384 -135l-70 -327h-69l70 326c-274 8 -427 199 -365 489l80 378h81l-81 -380c-54 -251 73 -407 300 -413l83 388h69l-82 -386c185 13 321 87 393 154z" />
    <glyph glyph-name="uni04BA" unicode="&#x4ba;" horiz-adv-x="1231" 
d="M392 1443h80l-148 -697h6c77 60 232 151 439 151c295 0 444 -195 384 -478l-89 -419h-80l87 414c56 258 -80 409 -318 409c-231 0 -397 -123 -448 -169l-140 -654h-80z" />
    <glyph glyph-name="uniF49E" horiz-adv-x="1231" 
d="M324 746h6c77 60 232 151 439 151c295 0 444 -195 384 -478l-89 -419h-80l87 414c56 258 -80 409 -318 409c-231 0 -397 -123 -448 -169l-140 -654h-80l254 1195h-141l16 72h141l37 176h80l-37 -176h464l-15 -72h-465z" />
    <glyph glyph-name="uni0526" unicode="&#x526;" horiz-adv-x="1341" 
d="M1080 73h186l-76 -358h-76l61 285h-111h-80l87 414c56 258 -80 409 -318 409c-231 0 -397 -123 -448 -169l-140 -654h-80l307 1443h80l-148 -697h6c77 60 232 151 439 151c295 0 444 -195 384 -478z" />
    <glyph glyph-name="Tshecyrillic" unicode="&#x40b;" horiz-adv-x="1627" 
d="M1125 795c-209 0 -367 -120 -424 -184l-130 -611h-80l291 1370h-507l16 73h1095l-15 -73h-509l-139 -654h10c88 76 229 151 403 151c270 0 415 -182 351 -481l-82 -386h-80l82 389c57 265 -69 406 -282 406z" />
    <glyph glyph-name="Shacyrillic" unicode="&#x428;" horiz-adv-x="1771" 
d="M85 0l307 1443h80l-291 -1370h627l292 1370h80l-292 -1370h628l292 1370h80l-307 -1443h-1496z" />
    <glyph glyph-name="Shchacyrillic" unicode="&#x429;" horiz-adv-x="1843" 
d="M1707 -285h-76l61 285h-1607l307 1443h80l-291 -1370h627l292 1370h80l-292 -1370h628l292 1370h80l-292 -1370h187z" />
    <glyph glyph-name="Hardsigncyrillic" unicode="&#x42a;" horiz-adv-x="1453" 
d="M847 0h-496l292 1370h-352l16 73h432l-125 -588h345c265 0 428 -152 428 -364c0 -289 -220 -491 -540 -491zM946 783h-347l-152 -711h395c272 0 463 168 463 413c0 180 -132 298 -359 298z" />
    <glyph glyph-name="Yericyrillic" unicode="&#x42b;" horiz-adv-x="1501" 
d="M680 783h-347l-152 -711h395c271 0 463 168 463 413c0 187 -141 298 -359 298zM85 0l307 1443h80l-124 -588h345c254 0 427 -143 427 -364c0 -293 -223 -491 -539 -491h-496zM1315 0h-80l307 1443h80z" />
    <glyph glyph-name="uni04F8" unicode="&#x4f8;" horiz-adv-x="1501" 
d="M680 783h-347l-152 -711h395c271 0 463 168 463 413c0 187 -141 298 -359 298zM85 0l307 1443h80l-124 -588h345c254 0 427 -143 427 -364c0 -293 -223 -491 -539 -491h-496zM1315 0h-80l307 1443h80zM829 1605c-37 0 -67 30 -67 66c0 37 30 66 67 66c36 0 66 -29 66 -66
c0 -36 -30 -66 -66 -66zM1127 1605c-36 0 -67 30 -67 66c0 37 31 66 67 66s67 -29 67 -66c0 -36 -31 -66 -67 -66z" />
    <glyph glyph-name="uniF520" horiz-adv-x="1501" 
d="M680 783h-347l-152 -711h395c271 0 463 168 463 413c0 187 -141 298 -359 298zM85 0l307 1443h80l-124 -588h345c254 0 427 -143 427 -364c0 -293 -223 -491 -539 -491h-496zM1315 0h-80l307 1443h80zM1278 1679l-13 -59h-594l13 59h594z" />
    <glyph glyph-name="uniF536" horiz-adv-x="1501" 
d="M680 783h-347l-152 -711h395c271 0 463 168 463 413c0 187 -141 298 -359 298zM85 0l307 1443h80l-124 -588h345c254 0 427 -143 427 -364c0 -293 -223 -491 -539 -491h-496zM1315 0h-80l307 1443h80zM723 1793h72c-24 -115 46 -183 167 -183c118 0 221 68 246 183h72
c-33 -155 -160 -242 -324 -242c-165 0 -267 87 -233 242z" />
    <glyph glyph-name="uniF465" horiz-adv-x="1501" 
d="M680 783h-347l-152 -711h395c271 0 463 168 463 413c0 187 -141 298 -359 298zM85 0l307 1443h80l-124 -588h345c254 0 427 -143 427 -364c0 -293 -223 -491 -539 -491h-496zM1315 0h-80l307 1443h80zM994 1556h-86l336 287h100z" />
    <glyph glyph-name="uni048C" unicode="&#x48c;" horiz-adv-x="1362" 
d="M388 72h395c272 0 463 168 463 413c0 187 -141 298 -359 298h-347zM555 855h345c255 0 428 -143 428 -364c0 -293 -224 -491 -540 -491h-496l257 1208h-330l15 70h330l48 228h80l-48 -228h468l-15 -70h-468z" />
    <glyph glyph-name="uni0462" unicode="&#x462;" horiz-adv-x="1362" 
d="M388 72h395c272 0 463 168 463 413c0 187 -141 298 -359 298h-347zM555 855h345c255 0 428 -143 428 -364c0 -293 -224 -491 -540 -491h-496l257 1208h-330l15 70h330l48 228h80l-48 -228h468l-15 -70h-468z" />
    <glyph glyph-name="Softsigncyrillic" unicode="&#x42c;" horiz-adv-x="1155" 
d="M680 783h-347l-152 -711h395c271 0 463 168 463 413c0 187 -141 298 -359 298zM85 0l307 1443h80l-124 -588h345c254 0 427 -143 427 -364c0 -293 -223 -491 -539 -491h-496z" />
    <glyph glyph-name="Ljecyrillic" unicode="&#x409;" horiz-adv-x="2074" 
d="M420 470c-87 -316 -201 -479 -392 -479c-21 0 -43 4 -56 9l15 73c12 -5 34 -8 52 -8c138 0 231 147 304 412l263 966h784l-123 -582h345c255 0 428 -145 428 -366c0 -282 -218 -495 -541 -495h-496l292 1370h-629zM1599 789h-347l-153 -717h395c272 0 464 171 464 413
c0 192 -141 304 -359 304z" />
    <glyph glyph-name="Njecyrillic" unicode="&#x40a;" horiz-adv-x="2075" 
d="M1038 0l150 705h-875l-150 -705h-80l307 1443h80l-142 -666h876l141 666h80l-141 -666h345c246 0 412 -134 412 -337c0 -250 -209 -440 -525 -440h-478zM1134 72h377c270 0 449 148 449 359c0 172 -136 274 -344 274h-347z" />
    <glyph glyph-name="Ereversedcyrillic" unicode="&#x42d;" horiz-adv-x="1374" 
d="M643 -21c-281 0 -499 189 -513 445h81c18 -217 200 -371 438 -371c326 0 591 265 655 652h-731l15 72h726c41 361 -149 612 -465 612c-257 0 -451 -142 -539 -396h-82c88 296 321 471 627 471c348 0 565 -261 537 -646c-24 -484 -338 -839 -749 -839z" />
    <glyph glyph-name="uni04EC" unicode="&#x4ec;" horiz-adv-x="1374" 
d="M643 -21c-281 0 -499 189 -513 445h81c18 -217 200 -371 438 -371c326 0 591 265 655 652h-731l15 72h726c41 361 -149 612 -465 612c-257 0 -451 -142 -539 -396h-82c88 296 321 471 627 471c348 0 565 -261 537 -646c-24 -484 -338 -839 -749 -839zM782 1605
c-37 0 -67 30 -67 66c0 37 30 66 67 66c36 0 66 -29 66 -66c0 -36 -30 -66 -66 -66zM1080 1605c-36 0 -67 30 -67 66c0 37 31 66 67 66s67 -29 67 -66c0 -36 -31 -66 -67 -66z" />
    <glyph glyph-name="uniF522" horiz-adv-x="1374" 
d="M643 -21c-281 0 -499 189 -513 445h81c18 -217 200 -371 438 -371c326 0 591 265 655 652h-731l15 72h726c41 361 -149 612 -465 612c-257 0 -451 -142 -539 -396h-82c88 296 321 471 627 471c348 0 565 -261 537 -646c-24 -484 -338 -839 -749 -839zM1231 1679l-13 -59
h-594l13 59h594z" />
    <glyph glyph-name="uniF466" horiz-adv-x="1374" 
d="M643 -21c-281 0 -499 189 -513 445h81c18 -217 200 -371 438 -371c326 0 591 265 655 652h-731l15 72h726c41 361 -149 612 -465 612c-257 0 -451 -142 -539 -396h-82c88 296 321 471 627 471c348 0 565 -261 537 -646c-24 -484 -338 -839 -749 -839zM947 1556h-86
l336 287h100z" />
    <glyph glyph-name="uniF524" horiz-adv-x="1374" 
d="M643 -21c-281 0 -499 189 -513 445h81c18 -217 200 -371 438 -371c326 0 591 265 655 652h-731l15 72h726c41 361 -149 612 -465 612c-257 0 -451 -142 -539 -396h-82c88 296 321 471 627 471c348 0 565 -261 537 -646c-24 -484 -338 -839 -749 -839zM676 1793h72
c-24 -115 46 -183 167 -183c118 0 221 68 246 183h72c-33 -155 -160 -242 -324 -242c-165 0 -267 87 -233 242z" />
    <glyph glyph-name="uniF4D6" horiz-adv-x="1374" 
d="M643 -21c-281 0 -499 189 -513 445h81c18 -217 200 -371 438 -371c326 0 591 265 655 652h-731l15 72h726c41 361 -149 612 -465 612c-257 0 -451 -142 -539 -396h-82c88 296 321 471 627 471c348 0 565 -261 537 -646c-24 -484 -338 -839 -749 -839zM939 1644
c-42 0 -78 35 -78 77s36 78 78 78s78 -36 78 -78s-36 -77 -78 -77z" />
    <glyph glyph-name="IUcyrillic" unicode="&#x42e;" horiz-adv-x="1905" 
d="M1189 53c367 0 658 347 658 808c0 320 -185 529 -475 529c-379 0 -658 -366 -658 -808c0 -320 186 -529 475 -529zM331 777h321c72 391 353 687 721 687c340 0 555 -246 555 -600c0 -503 -326 -885 -740 -885c-340 0 -554 244 -554 599c0 43 2 85 7 127h-326l-150 -705
h-80l307 1443h80z" />
    <glyph glyph-name="uniF52C" horiz-adv-x="1905" 
d="M1246 1679l-13 -59h-594l13 59h594zM1189 53c367 0 658 347 658 808c0 320 -185 529 -475 529c-379 0 -658 -366 -658 -808c0 -320 186 -529 475 -529zM331 777h321c72 391 353 687 721 687c340 0 555 -246 555 -600c0 -503 -326 -885 -740 -885
c-340 0 -554 244 -554 599c0 43 2 85 7 127h-326l-150 -705h-80l307 1443h80z" />
    <glyph glyph-name="uniF467" horiz-adv-x="1905" 
d="M1311 1843l-350 -287h-86l336 287h100zM1189 53c367 0 658 347 658 808c0 320 -185 529 -475 529c-379 0 -658 -366 -658 -808c0 -320 186 -529 475 -529zM331 777h321c72 391 353 687 721 687c340 0 555 -246 555 -600c0 -503 -326 -885 -740 -885
c-340 0 -554 244 -554 599c0 43 2 85 7 127h-326l-150 -705h-80l307 1443h80z" />
    <glyph glyph-name="uniF52E" horiz-adv-x="1905" 
d="M1175 1793h72c-33 -155 -160 -242 -324 -242c-165 0 -267 87 -233 242h72c-24 -115 46 -183 167 -183c118 0 221 68 246 183zM1189 53c367 0 658 347 658 808c0 320 -185 529 -475 529c-379 0 -658 -366 -658 -808c0 -320 186 -529 475 -529zM331 777h321
c72 391 353 687 721 687c340 0 555 -246 555 -600c0 -503 -326 -885 -740 -885c-340 0 -554 244 -554 599c0 43 2 85 7 127h-326l-150 -705h-80l307 1443h80z" />
    <glyph glyph-name="uniF498" horiz-adv-x="1905" 
d="M1095 1605c-36 0 -67 30 -67 66c0 37 31 66 67 66s67 -29 67 -66c0 -36 -31 -66 -67 -66zM797 1605c-37 0 -67 30 -67 66c0 37 30 66 67 66c36 0 66 -29 66 -66c0 -36 -30 -66 -66 -66zM1189 53c367 0 658 347 658 808c0 320 -185 529 -475 529
c-379 0 -658 -366 -658 -808c0 -320 186 -529 475 -529zM331 777h321c72 391 353 687 721 687c340 0 555 -246 555 -600c0 -503 -326 -885 -740 -885c-340 0 -554 244 -554 599c0 43 2 85 7 127h-326l-150 -705h-80l307 1443h80z" />
    <glyph glyph-name="IAcyrillic" unicode="&#x42f;" horiz-adv-x="1222" 
d="M742 677h353l148 694h-395c-273 0 -465 -164 -465 -396c0 -180 132 -298 359 -298zM701 606l-541 -606h-103l551 618c-193 38 -306 173 -306 347c0 268 213 478 540 478h496l-307 -1443h-80l128 605h-345c-11 0 -22 1 -33 1z" />
    <glyph glyph-name="uniF528" horiz-adv-x="1222" 
d="M742 677h353l148 694h-395c-273 0 -465 -164 -465 -396c0 -180 132 -298 359 -298zM701 606l-541 -606h-103l551 618c-193 38 -306 173 -306 347c0 268 213 478 540 478h496l-307 -1443h-80l128 605h-345c-11 0 -22 1 -33 1zM1266 1679l-13 -59h-594l13 59h594z" />
    <glyph glyph-name="uniF468" horiz-adv-x="1222" 
d="M742 677h353l148 694h-395c-273 0 -465 -164 -465 -396c0 -180 132 -298 359 -298zM701 606l-541 -606h-103l551 618c-193 38 -306 173 -306 347c0 268 213 478 540 478h496l-307 -1443h-80l128 605h-345c-11 0 -22 1 -33 1zM982 1556h-86l336 287h100z" />
    <glyph glyph-name="uniF4D9" horiz-adv-x="1222" 
d="M742 677h353l148 694h-395c-273 0 -465 -164 -465 -396c0 -180 132 -298 359 -298zM701 606l-541 -606h-103l551 618c-193 38 -306 173 -306 347c0 268 213 478 540 478h496l-307 -1443h-80l128 605h-345c-11 0 -22 1 -33 1zM817 1605c-37 0 -67 30 -67 66
c0 37 30 66 67 66c36 0 66 -29 66 -66c0 -36 -30 -66 -66 -66zM1115 1605c-36 0 -67 30 -67 66c0 37 31 66 67 66s67 -29 67 -66c0 -36 -31 -66 -67 -66z" />
    <glyph glyph-name="uniF52A" horiz-adv-x="1222" 
d="M742 677h353l148 694h-395c-273 0 -465 -164 -465 -396c0 -180 132 -298 359 -298zM701 606l-541 -606h-103l551 618c-193 38 -306 173 -306 347c0 268 213 478 540 478h496l-307 -1443h-80l128 605h-345c-11 0 -22 1 -33 1zM711 1793h72c-24 -115 46 -183 167 -183
c118 0 221 68 246 183h72c-33 -155 -160 -242 -324 -242c-165 0 -267 87 -233 242z" />
    <glyph glyph-name="uni0494" unicode="&#x494;" horiz-adv-x="1178" 
d="M1126 1443l-16 -73h-654l-140 -654h10c73 63 215 151 407 151c246 0 376 -136 376 -357c0 -302 -217 -522 -489 -522c-71 0 -108 10 -114 13l16 72c6 -3 42 -10 104 -10c225 0 402 195 402 442c0 186 -111 290 -307 290c-208 0 -371 -119 -427 -184l-130 -611h-79
l307 1443h734z" />
    <glyph glyph-name="uni04A6" unicode="&#x4a6;" horiz-adv-x="2058" 
d="M392 1443h984l-155 -727h10c73 63 215 151 407 151c246 0 375 -136 375 -357c0 -302 -216 -522 -489 -522c-70 0 -107 10 -113 13l15 72c7 -3 43 -10 104 -10c225 0 402 195 402 442c0 186 -110 290 -306 290c-209 0 -371 -119 -427 -184l-130 -611h-79l292 1370h-826
l-292 -1370h-79z" />
    <glyph glyph-name="Ecyrillic" unicode="&#x404;" horiz-adv-x="1379" 
d="M1344 422c-85 -280 -316 -446 -620 -446c-348 0 -572 251 -540 650c23 477 338 841 756 841c272 0 497 -184 513 -439c1 -14 1 -25 1 -33h-80c-3 230 -192 398 -440 398c-316 0 -580 -252 -654 -616h745l-15 -72h-744c-58 -388 131 -655 464 -655c259 0 453 142 532 372
h82z" />
    <glyph glyph-name="uniF526" horiz-adv-x="1379" 
d="M1344 422c-85 -280 -316 -446 -620 -446c-348 0 -572 251 -540 650c23 477 338 841 756 841c272 0 497 -184 513 -439c1 -14 1 -25 1 -33h-80c-3 230 -192 398 -440 398c-316 0 -580 -252 -654 -616h745l-15 -72h-744c-58 -388 131 -655 464 -655c259 0 453 142 532 372
h82zM828 1605c-37 0 -67 30 -67 66c0 37 30 66 67 66c36 0 66 -29 66 -66c0 -36 -30 -66 -66 -66zM1126 1605c-36 0 -67 30 -67 66c0 37 31 66 67 66s67 -29 67 -66c0 -36 -31 -66 -67 -66z" />
    <glyph glyph-name="uni04C0" unicode="&#x4c0;" horiz-adv-x="356" 
d="M165 0h-80l307 1443h80z" />
    <glyph glyph-name="Icyrillic" unicode="&#x406;" horiz-adv-x="356" 
d="M165 0h-80l307 1443h80z" />
    <glyph glyph-name="Yicyrillic" unicode="&#x407;" horiz-adv-x="356" 
d="M165 0h-80l307 1443h80zM331 1605c-37 0 -67 30 -67 66c0 37 30 66 67 66c36 0 66 -29 66 -66c0 -36 -30 -66 -66 -66zM629 1605c-36 0 -67 30 -67 66c0 37 31 66 67 66s67 -29 67 -66c0 -36 -31 -66 -67 -66z" />
    <glyph glyph-name="uni04C0.1" horiz-adv-x="856" 
d="M1014 1373h-307l-277 -1303h307l-15 -70h-307h-80h-306l15 70h306l277 1303h-306l15 70h306h80h307z" />
    <glyph glyph-name="Icyrillic.1" horiz-adv-x="856" 
d="M1014 1373h-307l-277 -1303h307l-15 -70h-307h-80h-306l15 70h306l277 1303h-306l15 70h306h80h307z" />
    <glyph glyph-name="Yicyrillic.1" horiz-adv-x="856" 
d="M879 1605c-36 0 -67 30 -67 66c0 37 31 66 67 66s67 -29 67 -66c0 -36 -31 -66 -67 -66zM581 1605c-37 0 -67 30 -67 66c0 37 30 66 67 66c36 0 66 -29 66 -66c0 -36 -30 -66 -66 -66zM1014 1373h-307l-277 -1303h307l-15 -70h-307h-80h-306l15 70h306l277 1303h-306
l15 70h306h80h307z" />
    <glyph glyph-name="uni04A8" unicode="&#x4a8;" horiz-adv-x="1906" 
d="M994 629c0 -203 92 -383 241 -490c313 137 544 455 544 751c0 210 -114 338 -302 338c-292 0 -483 -283 -483 -599zM971 1470l-16 -77c-414 -59 -697 -383 -697 -796c0 -329 212 -544 571 -544c109 0 221 18 326 55c-144 117 -244 299 -244 521c0 355 229 672 564 672
c246 0 386 -152 386 -405c0 -314 -238 -646 -563 -797c67 -34 142 -50 246 -50c118 0 211 24 292 69l17 -67c-93 -47 -191 -73 -311 -73c-138 0 -237 28 -324 83c-119 -54 -258 -82 -395 -82c-408 0 -649 241 -649 620c0 444 329 820 797 871z" />
    <glyph glyph-name="uni04AE" unicode="&#x4ae;" horiz-adv-x="1180" 
d="M578 0h-80l133 631l-350 812h85l316 -736h4l625 736h96l-697 -820z" />
    <glyph glyph-name="uniF43A" horiz-adv-x="1180" 
d="M578 0h-80l133 631l-350 812h85l316 -736h4l625 736h96l-697 -820zM1191 1679l-13 -59h-594l13 59h594z" />
    <glyph glyph-name="uni04B0" unicode="&#x4b0;" horiz-adv-x="1170" 
d="M1402 1443l-687 -808h431l-15 -70h-438l-120 -565h-80l119 565h-439l15 70h436l-348 808h85l316 -736h4l625 736h96z" />
    <glyph glyph-name="uni04BC" unicode="&#x4bc;" horiz-adv-x="1654" 
d="M525 814h1065c10 47 15 90 15 139c0 269 -162 436 -435 436c-298 0 -563 -223 -645 -575zM430 813h16c90 392 379 651 732 651c357 0 556 -252 495 -646c0 -18 -7 -57 -10 -75h-1152c-1 -6 -6 -48 -6 -61c-46 -380 96 -627 445 -627c212 0 406 105 515 275h84
c-112 -212 -347 -351 -605 -351c-391 0 -569 270 -520 701c2 21 5 42 8 63h-15c-149 0 -232 60 -232 199c0 80 40 173 90 231h71c-48 -61 -88 -148 -88 -222c0 -97 55 -138 172 -138z" />
    <glyph glyph-name="uni04BE" unicode="&#x4be;" horiz-adv-x="1654" 
d="M525 814h1065c10 47 15 90 15 139c0 269 -162 436 -435 436c-298 0 -563 -223 -645 -575zM430 813h16c90 392 379 651 732 651c357 0 556 -252 495 -646c0 -18 -7 -57 -10 -75h-1152c-1 -6 -6 -48 -6 -61c-46 -380 96 -627 445 -627c212 0 406 105 515 275h84
c-109 -207 -335 -344 -585 -351l-57 -264h-72l56 266c-354 23 -514 288 -467 699c2 21 5 42 8 63h-15c-149 0 -232 60 -232 199c0 80 40 173 90 231h71c-48 -61 -88 -148 -88 -222c0 -97 55 -138 172 -138z" />
    <glyph glyph-name="uni04D4" unicode="&#x4d4;" horiz-adv-x="1850" 
d="M1208 1373h-180l-625 -881h618zM916 0l90 422h-650l-297 -422h-90l1020 1443h1011l-16 -73h-696l-127 -597h660l-16 -72h-660l-133 -628h696l-15 -73h-777z" />
    <glyph glyph-name="uni04D8" unicode="&#x18f;" horiz-adv-x="1395" 
d="M648 -21c-363 0 -555 251 -489 668c0 17 7 57 11 74h1152c1 12 3 32 3 40c41 381 -99 627 -452 627c-207 0 -402 -104 -511 -283h-84c112 217 348 359 600 359c401 0 575 -278 528 -701c-50 -472 -372 -784 -758 -784zM652 54c304 0 583 237 655 597h-1065
c-11 -53 -16 -100 -16 -153c0 -279 147 -444 426 -444z" />
    <glyph glyph-name="uni04D8" unicode="&#x4d8;" horiz-adv-x="1395" 
d="M648 -21c-363 0 -555 251 -489 668c0 17 7 57 11 74h1152c1 12 3 32 3 40c41 381 -99 627 -452 627c-207 0 -402 -104 -511 -283h-84c112 217 348 359 600 359c401 0 575 -278 528 -701c-50 -472 -372 -784 -758 -784zM652 54c304 0 583 237 655 597h-1065
c-11 -53 -16 -100 -16 -153c0 -279 147 -444 426 -444z" />
    <glyph glyph-name="uni04DA" unicode="&#x4da;" horiz-adv-x="1395" 
d="M648 -21c-363 0 -555 251 -489 668c0 17 7 57 11 74h1152c1 12 3 32 3 40c41 381 -99 627 -452 627c-207 0 -402 -104 -511 -283h-84c112 217 348 359 600 359c401 0 575 -278 528 -701c-50 -472 -372 -784 -758 -784zM652 54c304 0 583 237 655 597h-1065
c-11 -53 -16 -100 -16 -153c0 -279 147 -444 426 -444zM787 1605c-37 0 -67 30 -67 66c0 37 30 66 67 66c36 0 66 -29 66 -66c0 -36 -30 -66 -66 -66zM1085 1605c-36 0 -67 30 -67 66c0 37 31 66 67 66s67 -29 67 -66c0 -36 -31 -66 -67 -66z" />
    <glyph glyph-name="uniF49C" horiz-adv-x="1395" 
d="M648 -21c-363 0 -555 251 -489 668c0 17 7 57 11 74h1152c1 12 3 32 3 40c41 381 -99 627 -452 627c-207 0 -402 -104 -511 -283h-84c112 217 348 359 600 359c401 0 575 -278 528 -701c-50 -472 -372 -784 -758 -784zM652 54c304 0 583 237 655 597h-1065
c-11 -53 -16 -100 -16 -153c0 -279 147 -444 426 -444zM1236 1679l-13 -59h-594l13 59h594z" />
    <glyph glyph-name="uni04E0" unicode="&#x4e0;" horiz-adv-x="1101" 
d="M520 -21c-266 0 -441 149 -437 346c0 14 2 28 5 42h77c-26 -175 125 -317 360 -317c272 0 468 188 468 420c0 198 -146 302 -428 302h-81l13 66l599 525l1 7h-728l16 73h850l-14 -62l-621 -542v-3c317 -3 475 -133 475 -360c0 -287 -240 -497 -555 -497z" />
    <glyph glyph-name="uni0510" unicode="&#x510;" horiz-adv-x="1145" 
d="M865 713h-166c-343 0 -505 -169 -505 -379c0 -167 137 -284 361 -284c217 0 418 138 455 312h80c-44 -219 -277 -383 -539 -383s-438 139 -438 352c0 222 161 402 441 424l1 4c-146 31 -241 119 -241 274c0 233 199 431 495 431c259 0 421 -156 387 -368h-75
c22 173 -105 297 -316 297c-243 0 -412 -161 -412 -356c0 -161 132 -251 337 -251h150z" />
    <glyph glyph-name="uniF538" horiz-adv-x="1145" 
d="M865 713h-166c-343 0 -505 -169 -505 -379c0 -167 137 -284 361 -284c217 0 418 138 455 312h80c-44 -219 -277 -383 -539 -383s-438 139 -438 352c0 222 161 402 441 424l1 4c-146 31 -241 119 -241 274c0 233 199 431 495 431c259 0 421 -156 387 -368h-75
c22 173 -105 297 -316 297c-243 0 -412 -161 -412 -356c0 -161 132 -251 337 -251h150zM722 1606c-37 0 -67 30 -67 66c0 37 30 66 67 66c36 0 66 -29 66 -66c0 -36 -30 -66 -66 -66zM1020 1606c-36 0 -67 30 -67 66c0 37 31 66 67 66s67 -29 67 -66c0 -36 -31 -66 -67 -66z
" />
    <glyph glyph-name="uni0474" unicode="&#x474;" horiz-adv-x="1397" 
d="M604 0h-82l-241 1443h77l222 -1333h4l664 1127c59 101 102 149 148 179c37 25 78 36 127 36c54 0 101 -13 136 -35l-37 -67c-39 18 -65 25 -98 25c-40 0 -70 -12 -102 -35c-31 -24 -60 -61 -106 -139z" />
    <glyph glyph-name="uni051C" unicode="&#x51c;" horiz-adv-x="1788" 
d="M1113 1297l-654 -1297h-77l-95 1443h76l82 -1302h4l656 1302h73l109 -1302h4l634 1302h85l-708 -1443h-75l-110 1297h-4z" />
    <glyph glyph-name="Djecyrillic" unicode="&#x402;" horiz-adv-x="1615" 
d="M532 0l291 1371h-507l16 73h1095l-15 -73h-509l-139 -655h9c104 93 241 151 382 151c256 0 401 -147 401 -389c0 -284 -203 -490 -485 -490c-47 0 -99 5 -118 13l16 72c18 -6 65 -10 107 -10c226 0 399 177 399 408c0 205 -113 324 -327 324c-144 0 -307 -79 -406 -184
l-130 -611h-80z" />
    <glyph glyph-name="Dzecyrillic" unicode="&#x405;" horiz-adv-x="1206" 
d="M116 406h79c14 -210 194 -354 455 -354c243 0 411 128 411 328c0 139 -83 223 -279 297l-121 47c-245 92 -349 196 -349 368c0 219 194 372 469 372c274 0 475 -161 487 -401h-79c-14 193 -177 328 -408 328c-234 0 -387 -127 -387 -295c0 -137 86 -219 301 -300l125 -48
c223 -82 324 -191 324 -359c0 -233 -191 -410 -495 -410c-303 0 -524 169 -533 427z" />
    <glyph glyph-name="Jecyrillic" unicode="&#x408;" horiz-adv-x="967" 
d="M69 303c0 5 0 13 1 22h80v-14c0 -154 114 -259 286 -259c174 0 296 115 339 317l228 1074h80l-233 -1100c-49 -230 -203 -366 -423 -366c-211 0 -358 137 -358 326z" />
    <glyph glyph-name="a" unicode="a" horiz-adv-x="978" 
d="M420 52c191 0 359 131 398 310l38 174l-344 -20c-225 -12 -353 -103 -353 -254c0 -125 106 -210 261 -210zM405 -16c-188 0 -324 112 -324 272c0 194 157 310 431 325l357 20l19 87c6 28 9 54 9 78c0 137 -101 220 -271 220c-180 0 -307 -92 -339 -240h-80
c36 187 201 311 425 311c207 0 343 -113 343 -283c0 -27 -3 -58 -10 -89l-145 -685h-76l40 187h-4c-74 -123 -219 -203 -375 -203z" />
    <glyph glyph-name="agrave" unicode="&#xe0;" horiz-adv-x="978" 
d="M420 52c191 0 359 131 398 310l38 174l-344 -20c-225 -12 -353 -103 -353 -254c0 -125 106 -210 261 -210zM405 -16c-188 0 -324 112 -324 272c0 194 157 310 431 325l357 20l19 87c6 28 9 54 9 78c0 137 -101 220 -271 220c-180 0 -307 -92 -339 -240h-80
c36 187 201 311 425 311c207 0 343 -113 343 -283c0 -27 -3 -58 -10 -89l-145 -685h-76l40 187h-4c-74 -123 -219 -203 -375 -203zM719 1241h-70l-184 303h83z" />
    <glyph glyph-name="aacute" unicode="&#xe1;" horiz-adv-x="978" 
d="M420 52c191 0 359 131 398 310l38 174l-344 -20c-225 -12 -353 -103 -353 -254c0 -125 106 -210 261 -210zM405 -16c-188 0 -324 112 -324 272c0 194 157 310 431 325l357 20l19 87c6 28 9 54 9 78c0 137 -101 220 -271 220c-180 0 -307 -92 -339 -240h-80
c36 187 201 311 425 311c207 0 343 -113 343 -283c0 -27 -3 -58 -10 -89l-145 -685h-76l40 187h-4c-74 -123 -219 -203 -375 -203zM718 1241h-82l301 303h93z" />
    <glyph glyph-name="adieresis" unicode="&#xe4;" horiz-adv-x="978" 
d="M420 52c191 0 359 131 398 310l38 174l-344 -20c-225 -12 -353 -103 -353 -254c0 -125 106 -210 261 -210zM405 -16c-188 0 -324 112 -324 272c0 194 157 310 431 325l357 20l19 87c6 28 9 54 9 78c0 137 -101 220 -271 220c-180 0 -307 -92 -339 -240h-80
c36 187 201 311 425 311c207 0 343 -113 343 -283c0 -27 -3 -58 -10 -89l-145 -685h-76l40 187h-4c-74 -123 -219 -203 -375 -203zM543 1243c-37 0 -67 30 -67 66c0 37 30 66 67 66c36 0 66 -29 66 -66c0 -36 -30 -66 -66 -66zM841 1243c-36 0 -67 30 -67 66
c0 37 31 66 67 66s67 -29 67 -66c0 -36 -31 -66 -67 -66z" />
    <glyph glyph-name="adieresismacron" unicode="&#x1df;" horiz-adv-x="978" 
d="M420 52c191 0 359 131 398 310l38 174l-344 -20c-225 -12 -353 -103 -353 -254c0 -125 106 -210 261 -210zM405 -16c-188 0 -324 112 -324 272c0 194 157 310 431 325l357 20l19 87c6 28 9 54 9 78c0 137 -101 220 -271 220c-180 0 -307 -92 -339 -240h-80
c36 187 201 311 425 311c207 0 343 -113 343 -283c0 -27 -3 -58 -10 -89l-145 -685h-76l40 187h-4c-74 -123 -219 -203 -375 -203zM537 1214c-36 0 -66 30 -66 66c0 37 30 66 66 66c37 0 67 -29 67 -66c0 -36 -30 -66 -67 -66zM836 1214c-36 0 -67 30 -67 66
c0 37 31 66 67 66s67 -29 67 -66c0 -36 -31 -66 -67 -66zM1017 1617l-13 -60h-519l12 60h520z" />
    <glyph glyph-name="aring" unicode="&#xe5;" horiz-adv-x="978" 
d="M420 52c191 0 359 131 398 310l38 174l-344 -20c-225 -12 -353 -103 -353 -254c0 -125 106 -210 261 -210zM405 -16c-188 0 -324 112 -324 272c0 194 157 310 431 325l357 20l19 87c6 28 9 54 9 78c0 137 -101 220 -271 220c-180 0 -307 -92 -339 -240h-80
c36 187 201 311 425 311c207 0 343 -113 343 -283c0 -27 -3 -58 -10 -89l-145 -685h-76l40 187h-4c-74 -123 -219 -203 -375 -203zM695 1161c-93 0 -169 72 -169 168c0 97 76 173 171 173c93 0 170 -72 170 -168c-1 -97 -77 -173 -172 -173zM695 1210c70 0 121 53 121 123
c0 68 -51 120 -119 120c-69 0 -121 -53 -121 -123c0 -68 52 -120 119 -120z" />
    <glyph glyph-name="aringacute" unicode="&#x1fb;" horiz-adv-x="978" 
d="M420 52c191 0 359 131 398 310l38 174l-344 -20c-225 -12 -353 -103 -353 -254c0 -125 106 -210 261 -210zM405 -16c-188 0 -324 112 -324 272c0 194 157 310 431 325l357 20l19 87c6 28 9 54 9 78c0 137 -101 220 -271 220c-180 0 -307 -92 -339 -240h-80
c36 187 201 311 425 311c207 0 343 -113 343 -283c0 -27 -3 -58 -10 -89l-145 -685h-76l40 187h-4c-74 -123 -219 -203 -375 -203zM700 1610l186 171h90l-197 -171h-79zM703 1191c-92 0 -169 72 -169 168c0 97 77 173 172 173c93 0 169 -72 169 -168
c0 -97 -76 -173 -172 -173zM585 1360c0 -68 51 -120 118 -120c70 0 122 53 122 123c-1 68 -51 120 -119 120c-70 0 -121 -53 -121 -123z" />
    <glyph glyph-name="atilde" unicode="&#xe3;" horiz-adv-x="978" 
d="M420 52c191 0 359 131 398 310l38 174l-344 -20c-225 -12 -353 -103 -353 -254c0 -125 106 -210 261 -210zM405 -16c-188 0 -324 112 -324 272c0 194 157 310 431 325l357 20l19 87c6 28 9 54 9 78c0 137 -101 220 -271 220c-180 0 -307 -92 -339 -240h-80
c36 187 201 311 425 311c207 0 343 -113 343 -283c0 -27 -3 -58 -10 -89l-145 -685h-76l40 187h-4c-74 -123 -219 -203 -375 -203zM830 1243c-132 0 -155 165 -258 165c-57 0 -108 -57 -126 -153h-62c23 132 98 212 192 212c135 0 156 -165 258 -165c54 0 102 54 122 153h62
c-28 -136 -98 -212 -188 -212z" />
    <glyph glyph-name="abrevegrave" unicode="&#x1eb1;" horiz-adv-x="978" 
d="M420 52c191 0 359 131 398 310l38 174l-344 -20c-225 -12 -353 -103 -353 -254c0 -125 106 -210 261 -210zM405 -16c-188 0 -324 112 -324 272c0 194 157 310 431 325l357 20l19 87c6 28 9 54 9 78c0 137 -101 220 -271 220c-180 0 -307 -92 -339 -240h-80
c36 187 201 311 425 311c207 0 343 -113 343 -283c0 -27 -3 -58 -10 -89l-145 -685h-76l40 187h-4c-74 -123 -219 -203 -375 -203zM765 1487h-67l-186 301h76zM970 1465c-16 -152 -133 -253 -296 -253c-147 0 -248 84 -248 210c0 15 2 30 5 43h64c-2 -11 -4 -22 -4 -35
c0 -99 73 -160 191 -160c121 0 212 77 224 195h64z" />
    <glyph glyph-name="adotmacron" unicode="&#x1e1;" horiz-adv-x="978" 
d="M420 52c191 0 359 131 398 310l38 174l-344 -20c-225 -12 -353 -103 -353 -254c0 -125 106 -210 261 -210zM405 -16c-188 0 -324 112 -324 272c0 194 157 310 431 325l357 20l19 87c6 28 9 54 9 78c0 137 -101 220 -271 220c-180 0 -307 -92 -339 -240h-80
c36 187 201 311 425 311c207 0 343 -113 343 -283c0 -27 -3 -58 -10 -89l-145 -685h-76l40 187h-4c-74 -123 -219 -203 -375 -203zM689 1211c-42 0 -77 34 -77 76s35 76 77 76s76 -34 76 -76s-34 -76 -76 -76zM1017 1617l-13 -60h-519l12 60h520z" />
    <glyph glyph-name="aringbelow" unicode="&#x1e01;" horiz-adv-x="978" 
d="M420 52c191 0 359 131 398 310l38 174l-344 -20c-225 -12 -353 -103 -353 -254c0 -125 106 -210 261 -210zM405 -16c-188 0 -324 112 -324 272c0 194 157 310 431 325l357 20l19 87c6 28 9 54 9 78c0 137 -101 220 -271 220c-180 0 -307 -92 -339 -240h-80
c36 187 201 311 425 311c207 0 343 -113 343 -283c0 -27 -3 -58 -10 -89l-145 -685h-76l40 187h-4c-74 -123 -219 -203 -375 -203zM406 -444c-93 0 -169 72 -169 168c0 97 76 173 171 173c93 0 170 -72 170 -168c-1 -97 -77 -173 -172 -173zM406 -395c70 0 121 53 121 123
c0 68 -51 120 -119 120c-69 0 -121 -53 -121 -123c0 -68 52 -120 119 -120z" />
    <glyph glyph-name="acircumflex" unicode="&#xe2;" horiz-adv-x="978" 
d="M420 52c191 0 359 131 398 310l38 174l-344 -20c-225 -12 -353 -103 -353 -254c0 -125 106 -210 261 -210zM405 -16c-188 0 -324 112 -324 272c0 194 157 310 431 325l357 20l19 87c6 28 9 54 9 78c0 137 -101 220 -271 220c-180 0 -307 -92 -339 -240h-80
c36 187 201 311 425 311c207 0 343 -113 343 -283c0 -27 -3 -58 -10 -89l-145 -685h-76l40 187h-4c-74 -123 -219 -203 -375 -203zM776 1544l192 -303h-80l-154 248h-3l-261 -248h-88l323 303h71z" />
    <glyph glyph-name="acircumflexdotbelow" unicode="&#x1ead;" horiz-adv-x="978" 
d="M420 52c191 0 359 131 398 310l38 174l-344 -20c-225 -12 -353 -103 -353 -254c0 -125 106 -210 261 -210zM405 -16c-188 0 -324 112 -324 272c0 194 157 310 431 325l357 20l19 87c6 28 9 54 9 78c0 137 -101 220 -271 220c-180 0 -307 -92 -339 -240h-80
c36 187 201 311 425 311c207 0 343 -113 343 -283c0 -27 -3 -58 -10 -89l-145 -685h-76l40 187h-4c-74 -123 -219 -203 -375 -203zM776 1544l192 -303h-80l-154 248h-3l-261 -248h-88l323 303h71zM415 -309c-42 0 -78 35 -78 77s36 78 78 78s78 -36 78 -78s-36 -77 -78 -77z
" />
    <glyph glyph-name="acircumflexacute" unicode="&#x1ea5;" horiz-adv-x="978" 
d="M420 52c191 0 359 131 398 310l38 174l-344 -20c-225 -12 -353 -103 -353 -254c0 -125 106 -210 261 -210zM405 -16c-188 0 -324 112 -324 272c0 194 157 310 431 325l357 20l19 87c6 28 9 54 9 78c0 137 -101 220 -271 220c-180 0 -307 -92 -339 -240h-80
c36 187 201 311 425 311c207 0 343 -113 343 -283c0 -27 -3 -58 -10 -89l-145 -685h-76l40 187h-4c-74 -123 -219 -203 -375 -203zM764 1505l215 -290h-78l-176 236h-3l-277 -236h-91l339 290h71zM942 1482l305 306h89l-314 -306h-80z" />
    <glyph glyph-name="acircumflextilde" unicode="&#x1eab;" horiz-adv-x="978" 
d="M420 52c191 0 359 131 398 310l38 174l-344 -20c-225 -12 -353 -103 -353 -254c0 -125 106 -210 261 -210zM405 -16c-188 0 -324 112 -324 272c0 194 157 310 431 325l357 20l19 87c6 28 9 54 9 78c0 137 -101 220 -271 220c-180 0 -307 -92 -339 -240h-80
c36 187 201 311 425 311c207 0 343 -113 343 -283c0 -27 -3 -58 -10 -89l-145 -685h-76l40 187h-4c-74 -123 -219 -203 -375 -203zM764 1505l215 -290h-78l-176 236h-3l-277 -236h-91l339 290h71zM888 1577c-123 0 -147 149 -240 149c-55 0 -102 -55 -109 -130h-61
c12 112 84 189 175 189c122 0 146 -149 240 -149c51 0 96 53 105 130h61c-16 -116 -84 -189 -171 -189z" />
    <glyph glyph-name="acircumflexgrave" unicode="&#x1ea7;" horiz-adv-x="978" 
d="M420 52c191 0 359 131 398 310l38 174l-344 -20c-225 -12 -353 -103 -353 -254c0 -125 106 -210 261 -210zM405 -16c-188 0 -324 112 -324 272c0 194 157 310 431 325l357 20l19 87c6 28 9 54 9 78c0 137 -101 220 -271 220c-180 0 -307 -92 -339 -240h-80
c36 187 201 311 425 311c207 0 343 -113 343 -283c0 -27 -3 -58 -10 -89l-145 -685h-76l40 187h-4c-74 -123 -219 -203 -375 -203zM1067 1487h-68l-186 301h76zM764 1505l215 -290h-78l-176 236h-3l-277 -236h-91l339 290h71z" />
    <glyph glyph-name="acircumflexhookabove" unicode="&#x1ea9;" horiz-adv-x="978" 
d="M420 52c191 0 359 131 398 310l38 174l-344 -20c-225 -12 -353 -103 -353 -254c0 -125 106 -210 261 -210zM405 -16c-188 0 -324 112 -324 272c0 194 157 310 431 325l357 20l19 87c6 28 9 54 9 78c0 137 -101 220 -271 220c-180 0 -307 -92 -339 -240h-80
c36 187 201 311 425 311c207 0 343 -113 343 -283c0 -27 -3 -58 -10 -89l-145 -685h-76l40 187h-4c-74 -123 -219 -203 -375 -203zM824 1682l11 55c21 13 65 23 101 23c86 0 144 -48 144 -120c0 -75 -58 -143 -140 -169l-29 41c64 20 106 67 106 116c0 47 -35 77 -92 77
c-37 0 -74 -9 -101 -23zM764 1505l215 -290h-78l-176 236h-3l-277 -236h-91l339 290h71z" />
    <glyph glyph-name="abreve" unicode="&#x103;" horiz-adv-x="978" 
d="M420 52c191 0 359 131 398 310l38 174l-344 -20c-225 -12 -353 -103 -353 -254c0 -125 106 -210 261 -210zM405 -16c-188 0 -324 112 -324 272c0 194 157 310 431 325l357 20l19 87c6 28 9 54 9 78c0 137 -101 220 -271 220c-180 0 -307 -92 -339 -240h-80
c36 187 201 311 425 311c207 0 343 -113 343 -283c0 -27 -3 -58 -10 -89l-145 -685h-76l40 187h-4c-74 -123 -219 -203 -375 -203zM437 1491h64c-2 -11 -4 -22 -4 -35c0 -99 73 -160 192 -160c120 0 210 77 223 195h64c-17 -152 -133 -253 -296 -253
c-147 0 -248 84 -248 210c0 15 2 30 5 43z" />
    <glyph glyph-name="abreveacute" unicode="&#x1eaf;" horiz-adv-x="978" 
d="M420 52c191 0 359 131 398 310l38 174l-344 -20c-225 -12 -353 -103 -353 -254c0 -125 106 -210 261 -210zM405 -16c-188 0 -324 112 -324 272c0 194 157 310 431 325l357 20l19 87c6 28 9 54 9 78c0 137 -101 220 -271 220c-180 0 -307 -92 -339 -240h-80
c36 187 201 311 425 311c207 0 343 -113 343 -283c0 -27 -3 -58 -10 -89l-145 -685h-76l40 187h-4c-74 -123 -219 -203 -375 -203zM644 1482l305 306h89l-315 -306h-79zM970 1465c-16 -152 -133 -253 -296 -253c-147 0 -248 84 -248 210c0 15 2 30 5 43h64
c-2 -11 -4 -22 -4 -35c0 -99 73 -160 191 -160c121 0 212 77 224 195h64z" />
    <glyph glyph-name="abrevetilde" unicode="&#x1eb5;" horiz-adv-x="978" 
d="M420 52c191 0 359 131 398 310l38 174l-344 -20c-225 -12 -353 -103 -353 -254c0 -125 106 -210 261 -210zM405 -16c-188 0 -324 112 -324 272c0 194 157 310 431 325l357 20l19 87c6 28 9 54 9 78c0 137 -101 220 -271 220c-180 0 -307 -92 -339 -240h-80
c36 187 201 311 425 311c207 0 343 -113 343 -283c0 -27 -3 -58 -10 -89l-145 -685h-76l40 187h-4c-74 -123 -219 -203 -375 -203zM970 1465c-16 -152 -133 -253 -296 -253c-147 0 -248 84 -248 210c0 15 2 30 5 43h64c-2 -11 -4 -22 -4 -35c0 -99 73 -160 191 -160
c121 0 212 77 224 195h64zM872 1577c-122 0 -146 149 -240 149c-54 0 -101 -55 -109 -130h-60c12 112 84 189 175 189c122 0 145 -149 240 -149c51 0 95 53 105 130h60c-16 -116 -83 -189 -171 -189z" />
    <glyph glyph-name="abrevehookabove" unicode="&#x1eb3;" horiz-adv-x="978" 
d="M420 52c191 0 359 131 398 310l38 174l-344 -20c-225 -12 -353 -103 -353 -254c0 -125 106 -210 261 -210zM405 -16c-188 0 -324 112 -324 272c0 194 157 310 431 325l357 20l19 87c6 28 9 54 9 78c0 137 -101 220 -271 220c-180 0 -307 -92 -339 -240h-80
c36 187 201 311 425 311c207 0 343 -113 343 -283c0 -27 -3 -58 -10 -89l-145 -685h-76l40 187h-4c-74 -123 -219 -203 -375 -203zM585 1656l12 53c21 13 65 24 100 24c87 0 145 -49 145 -120c0 -76 -59 -143 -140 -169l-30 41c64 21 106 67 106 117c0 46 -35 77 -92 77
c-37 0 -74 -9 -101 -23zM970 1465c-16 -152 -133 -253 -296 -253c-147 0 -248 84 -248 210c0 15 2 30 5 43h64c-2 -11 -4 -22 -4 -35c0 -99 73 -160 191 -160c121 0 212 77 224 195h64z" />
    <glyph glyph-name="abrevedotbelow" unicode="&#x1eb7;" horiz-adv-x="978" 
d="M420 52c191 0 359 131 398 310l38 174l-344 -20c-225 -12 -353 -103 -353 -254c0 -125 106 -210 261 -210zM405 -16c-188 0 -324 112 -324 272c0 194 157 310 431 325l357 20l19 87c6 28 9 54 9 78c0 137 -101 220 -271 220c-180 0 -307 -92 -339 -240h-80
c36 187 201 311 425 311c207 0 343 -113 343 -283c0 -27 -3 -58 -10 -89l-145 -685h-76l40 187h-4c-74 -123 -219 -203 -375 -203zM437 1491h64c-2 -11 -4 -22 -4 -35c0 -99 73 -160 192 -160c120 0 210 77 223 195h64c-17 -152 -133 -253 -296 -253
c-147 0 -248 84 -248 210c0 15 2 30 5 43zM415 -309c-42 0 -78 35 -78 77s36 78 78 78s78 -36 78 -78s-36 -77 -78 -77z" />
    <glyph glyph-name="ainvertedbreve" unicode="&#x203;" horiz-adv-x="978" 
d="M420 52c191 0 359 131 398 310l38 174l-344 -20c-225 -12 -353 -103 -353 -254c0 -125 106 -210 261 -210zM405 -16c-188 0 -324 112 -324 272c0 194 157 310 431 325l357 20l19 87c6 28 9 54 9 78c0 137 -101 220 -271 220c-180 0 -307 -92 -339 -240h-80
c36 187 201 311 425 311c207 0 343 -113 343 -283c0 -27 -3 -58 -10 -89l-145 -685h-76l40 187h-4c-74 -123 -219 -203 -375 -203zM949 1212h-64c2 4 4 16 4 29c0 97 -73 167 -191 167c-121 0 -209 -81 -224 -196h-64c19 149 133 253 296 253c147 0 248 -92 248 -217
c0 -15 -2 -29 -5 -36z" />
    <glyph glyph-name="acaron" unicode="&#x1ce;" horiz-adv-x="978" 
d="M420 52c191 0 359 131 398 310l38 174l-344 -20c-225 -12 -353 -103 -353 -254c0 -125 106 -210 261 -210zM405 -16c-188 0 -324 112 -324 272c0 194 157 310 431 325l357 20l19 87c6 28 9 54 9 78c0 137 -101 220 -271 220c-180 0 -307 -92 -339 -240h-80
c36 187 201 311 425 311c207 0 343 -113 343 -283c0 -27 -3 -58 -10 -89l-145 -685h-76l40 187h-4c-74 -123 -219 -203 -375 -203zM719 1241h-71l-192 303h78l154 -249h3l262 249h89z" />
    <glyph glyph-name="adotaccent" unicode="&#x227;" horiz-adv-x="978" 
d="M420 52c191 0 359 131 398 310l38 174l-344 -20c-225 -12 -353 -103 -353 -254c0 -125 106 -210 261 -210zM405 -16c-188 0 -324 112 -324 272c0 194 157 310 431 325l357 20l19 87c6 28 9 54 9 78c0 137 -101 220 -271 220c-180 0 -307 -92 -339 -240h-80
c36 187 201 311 425 311c207 0 343 -113 343 -283c0 -27 -3 -58 -10 -89l-145 -685h-76l40 187h-4c-74 -123 -219 -203 -375 -203zM692 1241c-42 0 -77 35 -77 77s35 78 77 78c43 0 78 -36 78 -78s-35 -77 -78 -77z" />
    <glyph glyph-name="adotbelow" unicode="&#x1ea1;" horiz-adv-x="978" 
d="M420 52c191 0 359 131 398 310l38 174l-344 -20c-225 -12 -353 -103 -353 -254c0 -125 106 -210 261 -210zM405 -16c-188 0 -324 112 -324 272c0 194 157 310 431 325l357 20l19 87c6 28 9 54 9 78c0 137 -101 220 -271 220c-180 0 -307 -92 -339 -240h-80
c36 187 201 311 425 311c207 0 343 -113 343 -283c0 -27 -3 -58 -10 -89l-145 -685h-76l40 187h-4c-74 -123 -219 -203 -375 -203zM415 -309c-42 0 -78 35 -78 77s36 78 78 78s78 -36 78 -78s-36 -77 -78 -77z" />
    <glyph glyph-name="ahookabove" unicode="&#x1ea3;" horiz-adv-x="978" 
d="M420 52c191 0 359 131 398 310l38 174l-344 -20c-225 -12 -353 -103 -353 -254c0 -125 106 -210 261 -210zM405 -16c-188 0 -324 112 -324 272c0 194 157 310 431 325l357 20l19 87c6 28 9 54 9 78c0 137 -101 220 -271 220c-180 0 -307 -92 -339 -240h-80
c36 187 201 311 425 311c207 0 343 -113 343 -283c0 -27 -3 -58 -10 -89l-145 -685h-76l40 187h-4c-74 -123 -219 -203 -375 -203zM569 1417l12 57c21 13 64 23 103 23c85 0 147 -52 147 -124c0 -79 -59 -145 -148 -173l-27 45c70 22 109 66 109 118c0 47 -36 78 -94 78
c-37 0 -76 -9 -102 -24z" />
    <glyph glyph-name="adblgrave" unicode="&#x201;" horiz-adv-x="978" 
d="M420 52c191 0 359 131 398 310l38 174l-344 -20c-225 -12 -353 -103 -353 -254c0 -125 106 -210 261 -210zM405 -16c-188 0 -324 112 -324 272c0 194 157 310 431 325l357 20l19 87c6 28 9 54 9 78c0 137 -101 220 -271 220c-180 0 -307 -92 -339 -240h-80
c36 187 201 311 425 311c207 0 343 -113 343 -283c0 -27 -3 -58 -10 -89l-145 -685h-76l40 187h-4c-74 -123 -219 -203 -375 -203zM602 1241h-67l-182 303h82zM845 1241h-68l-181 303h81z" />
    <glyph glyph-name="amacron" unicode="&#x101;" horiz-adv-x="978" 
d="M420 52c191 0 359 131 398 310l38 174l-344 -20c-225 -12 -353 -103 -353 -254c0 -125 106 -210 261 -210zM405 -16c-188 0 -324 112 -324 272c0 194 157 310 431 325l357 20l19 87c6 28 9 54 9 78c0 137 -101 220 -271 220c-180 0 -307 -92 -339 -240h-80
c36 187 201 311 425 311c207 0 343 -113 343 -283c0 -27 -3 -58 -10 -89l-145 -685h-76l40 187h-4c-74 -123 -219 -203 -375 -203zM963 1358l-13 -60h-519l12 60h520z" />
    <glyph glyph-name="aogonek" unicode="&#x105;" horiz-adv-x="978" 
d="M419 55c196 0 361 132 399 307l38 174l-345 -20c-224 -12 -352 -104 -352 -254c0 -123 105 -207 260 -207zM728 -376c-17 -8 -51 -14 -83 -14c-95 0 -162 58 -162 140c0 101 86 188 265 265l36 172h-4c-73 -120 -215 -200 -376 -200c-189 0 -323 112 -323 269
c0 193 156 310 432 325l356 20l19 87c6 27 9 52 9 78c0 136 -102 218 -272 218c-179 0 -306 -92 -338 -238h-80c36 187 201 308 423 308c208 0 345 -111 345 -280c0 -32 -4 -62 -10 -89l-147 -690l-2 -1c-173 -73 -259 -148 -259 -227c0 -56 46 -95 113 -95c29 0 54 4 70 12
z" />
    <glyph glyph-name="a.1" horiz-adv-x="1101" 
d="M507 54c276 0 466 266 466 573c0 217 -131 359 -327 359c-254 0 -457 -274 -457 -577c0 -217 125 -355 318 -355zM933 0h-76l50 236h-4c-85 -153 -247 -252 -411 -252c-227 0 -381 168 -381 420c0 349 236 652 535 652c196 0 342 -128 363 -318h6l64 302h75z" />
    <glyph glyph-name="agrave.1" horiz-adv-x="1101" 
d="M507 54c276 0 466 266 466 573c0 217 -131 359 -327 359c-254 0 -457 -274 -457 -577c0 -217 125 -355 318 -355zM933 0h-76l50 236h-4c-85 -153 -247 -252 -411 -252c-227 0 -381 168 -381 420c0 349 236 652 535 652c196 0 342 -128 363 -318h6l64 302h75zM788 1241
h-70l-184 303h83z" />
    <glyph glyph-name="aacute.1" horiz-adv-x="1101" 
d="M507 54c276 0 466 266 466 573c0 217 -131 359 -327 359c-254 0 -457 -274 -457 -577c0 -217 125 -355 318 -355zM933 0h-76l50 236h-4c-85 -153 -247 -252 -411 -252c-227 0 -381 168 -381 420c0 349 236 652 535 652c196 0 342 -128 363 -318h6l64 302h75zM787 1241
h-82l301 303h93z" />
    <glyph glyph-name="adieresis.1" horiz-adv-x="1101" 
d="M507 54c276 0 466 266 466 573c0 217 -131 359 -327 359c-254 0 -457 -274 -457 -577c0 -217 125 -355 318 -355zM933 0h-76l50 236h-4c-85 -153 -247 -252 -411 -252c-227 0 -381 168 -381 420c0 349 236 652 535 652c196 0 342 -128 363 -318h6l64 302h75zM612 1243
c-37 0 -67 30 -67 66c0 37 30 66 67 66c36 0 66 -29 66 -66c0 -36 -30 -66 -66 -66zM910 1243c-36 0 -67 30 -67 66c0 37 31 66 67 66s67 -29 67 -66c0 -36 -31 -66 -67 -66z" />
    <glyph glyph-name="adieresismacron.1" horiz-adv-x="1101" 
d="M507 54c276 0 466 266 466 573c0 217 -131 359 -327 359c-254 0 -457 -274 -457 -577c0 -217 125 -355 318 -355zM933 0h-76l50 236h-4c-85 -153 -247 -252 -411 -252c-227 0 -381 168 -381 420c0 349 236 652 535 652c196 0 342 -128 363 -318h6l64 302h75zM606 1214
c-36 0 -66 30 -66 66c0 37 30 66 66 66c37 0 67 -29 67 -66c0 -36 -30 -66 -67 -66zM905 1214c-36 0 -67 30 -67 66c0 37 31 66 67 66s67 -29 67 -66c0 -36 -31 -66 -67 -66zM1086 1617l-13 -60h-519l12 60h520z" />
    <glyph glyph-name="aring.1" horiz-adv-x="1101" 
d="M507 54c276 0 466 266 466 573c0 217 -131 359 -327 359c-254 0 -457 -274 -457 -577c0 -217 125 -355 318 -355zM933 0h-76l50 236h-4c-85 -153 -247 -252 -411 -252c-227 0 -381 168 -381 420c0 349 236 652 535 652c196 0 342 -128 363 -318h6l64 302h75zM764 1161
c-93 0 -169 72 -169 168c0 97 76 173 171 173c93 0 170 -72 170 -168c-1 -97 -77 -173 -172 -173zM764 1210c70 0 121 53 121 123c0 68 -51 120 -119 120c-69 0 -121 -53 -121 -123c0 -68 52 -120 119 -120z" />
    <glyph glyph-name="aringacute.1" horiz-adv-x="1101" 
d="M507 54c276 0 466 266 466 573c0 217 -131 359 -327 359c-254 0 -457 -274 -457 -577c0 -217 125 -355 318 -355zM933 0h-76l50 236h-4c-85 -153 -247 -252 -411 -252c-227 0 -381 168 -381 420c0 349 236 652 535 652c196 0 342 -128 363 -318h6l64 302h75zM769 1610
l186 171h90l-197 -171h-79zM772 1191c-92 0 -169 72 -169 168c0 97 77 173 172 173c93 0 169 -72 169 -168c0 -97 -76 -173 -172 -173zM654 1360c0 -68 51 -120 118 -120c70 0 122 53 122 123c-1 68 -51 120 -119 120c-70 0 -121 -53 -121 -123z" />
    <glyph glyph-name="atilde.1" horiz-adv-x="1101" 
d="M507 54c276 0 466 266 466 573c0 217 -131 359 -327 359c-254 0 -457 -274 -457 -577c0 -217 125 -355 318 -355zM933 0h-76l50 236h-4c-85 -153 -247 -252 -411 -252c-227 0 -381 168 -381 420c0 349 236 652 535 652c196 0 342 -128 363 -318h6l64 302h75zM899 1243
c-132 0 -155 165 -258 165c-57 0 -108 -57 -126 -153h-62c23 132 98 212 192 212c135 0 156 -165 258 -165c54 0 102 54 122 153h62c-28 -136 -98 -212 -188 -212z" />
    <glyph glyph-name="abrevegrave.1" horiz-adv-x="1101" 
d="M507 54c276 0 466 266 466 573c0 217 -131 359 -327 359c-254 0 -457 -274 -457 -577c0 -217 125 -355 318 -355zM933 0h-76l50 236h-4c-85 -153 -247 -252 -411 -252c-227 0 -381 168 -381 420c0 349 236 652 535 652c196 0 342 -128 363 -318h6l64 302h75zM834 1487
h-67l-186 301h76zM1039 1465c-16 -152 -133 -253 -296 -253c-147 0 -248 84 -248 210c0 15 2 30 5 43h64c-2 -11 -4 -22 -4 -35c0 -99 73 -160 191 -160c121 0 212 77 224 195h64z" />
    <glyph glyph-name="adotmacron.1" horiz-adv-x="1101" 
d="M507 54c276 0 466 266 466 573c0 217 -131 359 -327 359c-254 0 -457 -274 -457 -577c0 -217 125 -355 318 -355zM933 0h-76l50 236h-4c-85 -153 -247 -252 -411 -252c-227 0 -381 168 -381 420c0 349 236 652 535 652c196 0 342 -128 363 -318h6l64 302h75zM758 1211
c-42 0 -77 34 -77 76s35 76 77 76s76 -34 76 -76s-34 -76 -76 -76zM1086 1617l-13 -60h-519l12 60h520z" />
    <glyph glyph-name="aringbelow.1" horiz-adv-x="1101" 
d="M507 54c276 0 466 266 466 573c0 217 -131 359 -327 359c-254 0 -457 -274 -457 -577c0 -217 125 -355 318 -355zM933 0h-76l50 236h-4c-85 -153 -247 -252 -411 -252c-227 0 -381 168 -381 420c0 349 236 652 535 652c196 0 342 -128 363 -318h6l64 302h75zM438 -444
c-93 0 -169 72 -169 168c0 97 76 173 171 173c93 0 170 -72 170 -168c-1 -97 -77 -173 -172 -173zM438 -395c70 0 121 53 121 123c0 68 -51 120 -119 120c-69 0 -121 -53 -121 -123c0 -68 52 -120 119 -120z" />
    <glyph glyph-name="acircumflex.1" horiz-adv-x="1101" 
d="M507 54c276 0 466 266 466 573c0 217 -131 359 -327 359c-254 0 -457 -274 -457 -577c0 -217 125 -355 318 -355zM933 0h-76l50 236h-4c-85 -153 -247 -252 -411 -252c-227 0 -381 168 -381 420c0 349 236 652 535 652c196 0 342 -128 363 -318h6l64 302h75zM845 1544
l192 -303h-80l-154 248h-3l-261 -248h-88l323 303h71z" />
    <glyph glyph-name="acircumflexdotbelow.1" horiz-adv-x="1101" 
d="M507 54c276 0 466 266 466 573c0 217 -131 359 -327 359c-254 0 -457 -274 -457 -577c0 -217 125 -355 318 -355zM933 0h-76l50 236h-4c-85 -153 -247 -252 -411 -252c-227 0 -381 168 -381 420c0 349 236 652 535 652c196 0 342 -128 363 -318h6l64 302h75zM845 1544
l192 -303h-80l-154 248h-3l-261 -248h-88l323 303h71zM447 -309c-42 0 -78 35 -78 77s36 78 78 78s78 -36 78 -78s-36 -77 -78 -77z" />
    <glyph glyph-name="acircumflexacute.1" horiz-adv-x="1101" 
d="M507 54c276 0 466 266 466 573c0 217 -131 359 -327 359c-254 0 -457 -274 -457 -577c0 -217 125 -355 318 -355zM933 0h-76l50 236h-4c-85 -153 -247 -252 -411 -252c-227 0 -381 168 -381 420c0 349 236 652 535 652c196 0 342 -128 363 -318h6l64 302h75zM833 1505
l215 -290h-78l-176 236h-3l-277 -236h-91l339 290h71zM1011 1482l305 306h89l-314 -306h-80z" />
    <glyph glyph-name="acircumflextilde.1" horiz-adv-x="1101" 
d="M507 54c276 0 466 266 466 573c0 217 -131 359 -327 359c-254 0 -457 -274 -457 -577c0 -217 125 -355 318 -355zM933 0h-76l50 236h-4c-85 -153 -247 -252 -411 -252c-227 0 -381 168 -381 420c0 349 236 652 535 652c196 0 342 -128 363 -318h6l64 302h75zM833 1505
l215 -290h-78l-176 236h-3l-277 -236h-91l339 290h71zM957 1577c-123 0 -147 149 -240 149c-55 0 -102 -55 -109 -130h-61c12 112 84 189 175 189c122 0 146 -149 240 -149c51 0 96 53 105 130h61c-16 -116 -84 -189 -171 -189z" />
    <glyph glyph-name="acircumflexgrave.1" horiz-adv-x="1101" 
d="M507 54c276 0 466 266 466 573c0 217 -131 359 -327 359c-254 0 -457 -274 -457 -577c0 -217 125 -355 318 -355zM933 0h-76l50 236h-4c-85 -153 -247 -252 -411 -252c-227 0 -381 168 -381 420c0 349 236 652 535 652c196 0 342 -128 363 -318h6l64 302h75zM1136 1487
h-68l-186 301h76zM833 1505l215 -290h-78l-176 236h-3l-277 -236h-91l339 290h71z" />
    <glyph glyph-name="acircumflexhookabove.1" horiz-adv-x="1101" 
d="M507 54c276 0 466 266 466 573c0 217 -131 359 -327 359c-254 0 -457 -274 -457 -577c0 -217 125 -355 318 -355zM933 0h-76l50 236h-4c-85 -153 -247 -252 -411 -252c-227 0 -381 168 -381 420c0 349 236 652 535 652c196 0 342 -128 363 -318h6l64 302h75zM893 1682
l11 55c21 13 65 23 101 23c86 0 144 -48 144 -120c0 -75 -58 -143 -140 -169l-29 41c64 20 106 67 106 116c0 47 -35 77 -92 77c-37 0 -74 -9 -101 -23zM833 1505l215 -290h-78l-176 236h-3l-277 -236h-91l339 290h71z" />
    <glyph glyph-name="abreve.1" horiz-adv-x="1101" 
d="M507 54c276 0 466 266 466 573c0 217 -131 359 -327 359c-254 0 -457 -274 -457 -577c0 -217 125 -355 318 -355zM933 0h-76l50 236h-4c-85 -153 -247 -252 -411 -252c-227 0 -381 168 -381 420c0 349 236 652 535 652c196 0 342 -128 363 -318h6l64 302h75zM506 1491h64
c-2 -11 -4 -22 -4 -35c0 -99 73 -160 192 -160c120 0 210 77 223 195h64c-17 -152 -133 -253 -296 -253c-147 0 -248 84 -248 210c0 15 2 30 5 43z" />
    <glyph glyph-name="abreveacute.1" horiz-adv-x="1101" 
d="M507 54c276 0 466 266 466 573c0 217 -131 359 -327 359c-254 0 -457 -274 -457 -577c0 -217 125 -355 318 -355zM933 0h-76l50 236h-4c-85 -153 -247 -252 -411 -252c-227 0 -381 168 -381 420c0 349 236 652 535 652c196 0 342 -128 363 -318h6l64 302h75zM713 1482
l305 306h89l-315 -306h-79zM1039 1465c-16 -152 -133 -253 -296 -253c-147 0 -248 84 -248 210c0 15 2 30 5 43h64c-2 -11 -4 -22 -4 -35c0 -99 73 -160 191 -160c121 0 212 77 224 195h64z" />
    <glyph glyph-name="abrevetilde.1" horiz-adv-x="1101" 
d="M507 54c276 0 466 266 466 573c0 217 -131 359 -327 359c-254 0 -457 -274 -457 -577c0 -217 125 -355 318 -355zM933 0h-76l50 236h-4c-85 -153 -247 -252 -411 -252c-227 0 -381 168 -381 420c0 349 236 652 535 652c196 0 342 -128 363 -318h6l64 302h75zM1039 1465
c-16 -152 -133 -253 -296 -253c-147 0 -248 84 -248 210c0 15 2 30 5 43h64c-2 -11 -4 -22 -4 -35c0 -99 73 -160 191 -160c121 0 212 77 224 195h64zM941 1577c-122 0 -146 149 -240 149c-54 0 -101 -55 -109 -130h-60c12 112 84 189 175 189c122 0 145 -149 240 -149
c51 0 95 53 105 130h60c-16 -116 -83 -189 -171 -189z" />
    <glyph glyph-name="abrevehookabove.1" horiz-adv-x="1101" 
d="M507 54c276 0 466 266 466 573c0 217 -131 359 -327 359c-254 0 -457 -274 -457 -577c0 -217 125 -355 318 -355zM933 0h-76l50 236h-4c-85 -153 -247 -252 -411 -252c-227 0 -381 168 -381 420c0 349 236 652 535 652c196 0 342 -128 363 -318h6l64 302h75zM654 1656
l12 53c21 13 65 24 100 24c87 0 145 -49 145 -120c0 -76 -59 -143 -140 -169l-30 41c64 21 106 67 106 117c0 46 -35 77 -92 77c-37 0 -74 -9 -101 -23zM1039 1465c-16 -152 -133 -253 -296 -253c-147 0 -248 84 -248 210c0 15 2 30 5 43h64c-2 -11 -4 -22 -4 -35
c0 -99 73 -160 191 -160c121 0 212 77 224 195h64z" />
    <glyph glyph-name="abrevedotbelow.1" horiz-adv-x="1101" 
d="M507 54c276 0 466 266 466 573c0 217 -131 359 -327 359c-254 0 -457 -274 -457 -577c0 -217 125 -355 318 -355zM933 0h-76l50 236h-4c-85 -153 -247 -252 -411 -252c-227 0 -381 168 -381 420c0 349 236 652 535 652c196 0 342 -128 363 -318h6l64 302h75zM506 1491h64
c-2 -11 -4 -22 -4 -35c0 -99 73 -160 192 -160c120 0 210 77 223 195h64c-17 -152 -133 -253 -296 -253c-147 0 -248 84 -248 210c0 15 2 30 5 43zM447 -309c-42 0 -78 35 -78 77s36 78 78 78s78 -36 78 -78s-36 -77 -78 -77z" />
    <glyph glyph-name="ainvertedbreve.1" horiz-adv-x="1101" 
d="M507 54c276 0 466 266 466 573c0 217 -131 359 -327 359c-254 0 -457 -274 -457 -577c0 -217 125 -355 318 -355zM933 0h-76l50 236h-4c-85 -153 -247 -252 -411 -252c-227 0 -381 168 -381 420c0 349 236 652 535 652c196 0 342 -128 363 -318h6l64 302h75zM1018 1212
h-64c2 4 4 16 4 29c0 97 -73 167 -191 167c-121 0 -209 -81 -224 -196h-64c19 149 133 253 296 253c147 0 248 -92 248 -217c0 -15 -2 -29 -5 -36z" />
    <glyph glyph-name="acaron.1" horiz-adv-x="1101" 
d="M507 54c276 0 466 266 466 573c0 217 -131 359 -327 359c-254 0 -457 -274 -457 -577c0 -217 125 -355 318 -355zM933 0h-76l50 236h-4c-85 -153 -247 -252 -411 -252c-227 0 -381 168 -381 420c0 349 236 652 535 652c196 0 342 -128 363 -318h6l64 302h75zM788 1241
h-71l-192 303h78l154 -249h3l262 249h89z" />
    <glyph glyph-name="adotaccent.1" horiz-adv-x="1101" 
d="M507 54c276 0 466 266 466 573c0 217 -131 359 -327 359c-254 0 -457 -274 -457 -577c0 -217 125 -355 318 -355zM933 0h-76l50 236h-4c-85 -153 -247 -252 -411 -252c-227 0 -381 168 -381 420c0 349 236 652 535 652c196 0 342 -128 363 -318h6l64 302h75zM761 1241
c-42 0 -77 35 -77 77s35 78 77 78c43 0 78 -36 78 -78s-35 -77 -78 -77z" />
    <glyph glyph-name="adotbelow.1" horiz-adv-x="1101" 
d="M507 54c276 0 466 266 466 573c0 217 -131 359 -327 359c-254 0 -457 -274 -457 -577c0 -217 125 -355 318 -355zM933 0h-76l50 236h-4c-85 -153 -247 -252 -411 -252c-227 0 -381 168 -381 420c0 349 236 652 535 652c196 0 342 -128 363 -318h6l64 302h75zM447 -309
c-42 0 -78 35 -78 77s36 78 78 78s78 -36 78 -78s-36 -77 -78 -77z" />
    <glyph glyph-name="ahookabove.1" horiz-adv-x="1101" 
d="M507 54c276 0 466 266 466 573c0 217 -131 359 -327 359c-254 0 -457 -274 -457 -577c0 -217 125 -355 318 -355zM933 0h-76l50 236h-4c-85 -153 -247 -252 -411 -252c-227 0 -381 168 -381 420c0 349 236 652 535 652c196 0 342 -128 363 -318h6l64 302h75zM638 1417
l12 57c21 13 64 23 103 23c85 0 147 -52 147 -124c0 -79 -59 -145 -148 -173l-27 45c70 22 109 66 109 118c0 47 -36 78 -94 78c-37 0 -76 -9 -102 -24z" />
    <glyph glyph-name="adblgrave.1" horiz-adv-x="1101" 
d="M507 54c276 0 466 266 466 573c0 217 -131 359 -327 359c-254 0 -457 -274 -457 -577c0 -217 125 -355 318 -355zM933 0h-76l50 236h-4c-85 -153 -247 -252 -411 -252c-227 0 -381 168 -381 420c0 349 236 652 535 652c196 0 342 -128 363 -318h6l64 302h75zM671 1241
h-67l-182 303h82zM914 1241h-68l-181 303h81z" />
    <glyph glyph-name="amacron.1" horiz-adv-x="1101" 
d="M507 54c276 0 466 266 466 573c0 217 -131 359 -327 359c-254 0 -457 -274 -457 -577c0 -217 125 -355 318 -355zM933 0h-76l50 236h-4c-85 -153 -247 -252 -411 -252c-227 0 -381 168 -381 420c0 349 236 652 535 652c196 0 342 -128 363 -318h6l64 302h75zM1032 1358
l-13 -60h-519l12 60h520z" />
    <glyph glyph-name="aogonek.1" horiz-adv-x="1101" 
d="M507 54c276 0 466 266 466 573c0 217 -131 359 -327 359c-254 0 -457 -274 -457 -577c0 -217 125 -355 318 -355zM851 -368c-17 -7 -51 -12 -81 -12c-97 0 -163 58 -163 140c0 101 80 182 253 255l47 221h-4c-85 -153 -247 -252 -411 -252c-227 0 -381 168 -381 420
c0 349 236 652 535 652c196 0 342 -128 363 -318h6l64 302h75l-221 -1042l-8 -3c-165 -65 -245 -139 -245 -218c0 -57 45 -95 113 -95c27 0 55 4 70 9z" />
    <glyph glyph-name="b" unicode="b" horiz-adv-x="1101" 
d="M573 -16c-195 0 -349 132 -369 316h-4l-64 -300h-74l307 1443h77l-134 -636h3c83 153 234 249 397 249c233 0 384 -172 384 -444c0 -344 -218 -628 -523 -628zM574 54c253 0 445 248 445 557c0 232 -122 375 -322 375c-252 0 -455 -263 -455 -573
c0 -214 133 -359 332 -359z" />
    <glyph glyph-name="blinebelow" unicode="&#x1e07;" horiz-adv-x="1101" 
d="M573 -16c-195 0 -349 132 -369 316h-4l-64 -300h-74l307 1443h77l-134 -636h3c83 153 234 249 397 249c233 0 384 -172 384 -444c0 -344 -218 -628 -523 -628zM574 54c253 0 445 248 445 557c0 232 -122 375 -322 375c-252 0 -455 -263 -455 -573
c0 -214 133 -359 332 -359zM754 -231l-13 -59h-594l13 59h594z" />
    <glyph glyph-name="bdotbelow" unicode="&#x1e05;" horiz-adv-x="1101" 
d="M573 -16c-195 0 -349 132 -369 316h-4l-64 -300h-74l307 1443h77l-134 -636h3c83 153 234 249 397 249c233 0 384 -172 384 -444c0 -344 -218 -628 -523 -628zM574 54c253 0 445 248 445 557c0 232 -122 375 -322 375c-252 0 -455 -263 -455 -573
c0 -214 133 -359 332 -359zM453 -309c-42 0 -78 35 -78 77s36 78 78 78s78 -36 78 -78s-36 -77 -78 -77z" />
    <glyph glyph-name="bdotaccent" unicode="&#x1e03;" horiz-adv-x="1101" 
d="M573 -16c-195 0 -349 132 -369 316h-4l-64 -300h-74l307 1443h77l-134 -636h3c83 153 234 249 397 249c233 0 384 -172 384 -444c0 -344 -218 -628 -523 -628zM574 54c253 0 445 248 445 557c0 232 -122 375 -322 375c-252 0 -455 -263 -455 -573
c0 -214 133 -359 332 -359zM463 1644c-42 0 -78 35 -78 77s36 78 78 78s78 -36 78 -78s-36 -77 -78 -77z" />
    <glyph glyph-name="c" unicode="c" horiz-adv-x="1007" 
d="M648 1057c226 0 376 -144 393 -338v-2h-76c-18 158 -141 269 -318 269c-254 0 -449 -242 -449 -560c0 -225 136 -372 337 -372c162 0 295 90 353 230h78c-66 -183 -230 -301 -432 -301c-255 0 -414 180 -414 441c0 358 225 633 528 633z" />
    <glyph glyph-name="cacute" unicode="&#x107;" horiz-adv-x="1007" 
d="M648 1057c226 0 376 -144 393 -338v-2h-76c-18 158 -141 269 -318 269c-254 0 -449 -242 -449 -560c0 -225 136 -372 337 -372c162 0 295 90 353 230h78c-66 -183 -230 -301 -432 -301c-255 0 -414 180 -414 441c0 358 225 633 528 633zM771 1241h-82l301 303h93z" />
    <glyph glyph-name="ccaron" unicode="&#x10d;" horiz-adv-x="1007" 
d="M648 1057c226 0 376 -144 393 -338v-2h-76c-18 158 -141 269 -318 269c-254 0 -449 -242 -449 -560c0 -225 136 -372 337 -372c162 0 295 90 353 230h78c-66 -183 -230 -301 -432 -301c-255 0 -414 180 -414 441c0 358 225 633 528 633zM772 1241h-71l-192 303h78
l154 -249h3l262 249h89z" />
    <glyph glyph-name="ccircumflex" unicode="&#x109;" horiz-adv-x="1007" 
d="M648 1057c226 0 376 -144 393 -338v-2h-76c-18 158 -141 269 -318 269c-254 0 -449 -242 -449 -560c0 -225 136 -372 337 -372c162 0 295 90 353 230h78c-66 -183 -230 -301 -432 -301c-255 0 -414 180 -414 441c0 358 225 633 528 633zM829 1544l192 -303h-80l-154 248
h-3l-261 -248h-88l323 303h71z" />
    <glyph glyph-name="cdotaccent" unicode="&#x10b;" horiz-adv-x="1007" 
d="M648 1057c226 0 376 -144 393 -338v-2h-76c-18 158 -141 269 -318 269c-254 0 -449 -242 -449 -560c0 -225 136 -372 337 -372c162 0 295 90 353 230h78c-66 -183 -230 -301 -432 -301c-255 0 -414 180 -414 441c0 358 225 633 528 633zM745 1241c-42 0 -77 35 -77 77
s35 78 77 78c43 0 78 -36 78 -78s-35 -77 -78 -77z" />
    <glyph glyph-name="ccedilla" unicode="&#xe7;" horiz-adv-x="1007" 
d="M1041 717h-76c-18 158 -141 269 -318 269c-254 0 -449 -242 -449 -560c0 -225 136 -372 337 -372c162 0 295 90 353 230h78c-65 -179 -223 -296 -419 -301l-79 -124c116 -6 184 -59 184 -150c0 -109 -88 -176 -213 -176c-66 0 -124 15 -168 37l13 60
c42 -22 91 -36 153 -36c88 0 148 39 148 109c0 64 -51 98 -145 105l-52 3l10 42l85 132c-225 23 -363 196 -363 439c0 358 225 633 528 633c226 0 376 -144 393 -338v-2z" />
    <glyph glyph-name="ccedillaacute" unicode="&#x1e09;" horiz-adv-x="1007" 
d="M1083 1544l-312 -303h-82l301 303h93zM398 -147l85 132c-225 23 -363 196 -363 439c0 358 225 633 528 633c226 0 376 -144 393 -338v-2h-76c-18 158 -141 269 -318 269c-254 0 -449 -242 -449 -560c0 -225 136 -372 337 -372c162 0 295 90 353 230h78
c-65 -179 -223 -296 -419 -301l-79 -124c116 -6 184 -59 184 -150c0 -109 -88 -176 -213 -176c-66 0 -124 15 -168 37l13 60c42 -22 91 -36 153 -36c88 0 148 39 148 109c0 64 -51 98 -145 105l-52 3z" />
    <glyph glyph-name="d" unicode="d" horiz-adv-x="1104" 
d="M493 -16c-227 0 -380 173 -380 424c0 356 244 648 537 648c193 0 341 -129 362 -313h4l150 700h78l-307 -1443h-79l50 234h-4c-83 -152 -245 -250 -411 -250zM509 54c270 0 465 266 465 573c0 217 -128 359 -325 359c-246 0 -459 -262 -459 -572
c0 -217 125 -360 319 -360z" />
    <glyph glyph-name="ddotaccent" unicode="&#x1e0b;" horiz-adv-x="1104" 
d="M493 -16c-227 0 -380 173 -380 424c0 356 244 648 537 648c193 0 341 -129 362 -313h4l150 700h78l-307 -1443h-79l50 234h-4c-83 -152 -245 -250 -411 -250zM509 54c270 0 465 266 465 573c0 217 -128 359 -325 359c-246 0 -459 -262 -459 -572
c0 -217 125 -360 319 -360zM1262 1644c-42 0 -78 35 -78 77s36 78 78 78s78 -36 78 -78s-36 -77 -78 -77z" />
    <glyph glyph-name="dcircumflexbelow" unicode="&#x1e13;" horiz-adv-x="1104" 
d="M493 -16c-227 0 -380 173 -380 424c0 356 244 648 537 648c193 0 341 -129 362 -313h4l150 700h78l-307 -1443h-79l50 234h-4c-83 -152 -245 -250 -411 -250zM509 54c270 0 465 266 465 573c0 217 -128 359 -325 359c-246 0 -459 -262 -459 -572
c0 -217 125 -360 319 -360zM506 -165l202 -289h-78l-160 232h-3l-259 -232h-90l324 289h64z" />
    <glyph glyph-name="dcommaaccent" unicode="&#x1e11;" horiz-adv-x="1104" 
d="M493 -16c-227 0 -380 173 -380 424c0 356 244 648 537 648c193 0 341 -129 362 -313h4l150 700h78l-307 -1443h-79l50 234h-4c-83 -152 -245 -250 -411 -250zM509 54c270 0 465 266 465 573c0 217 -128 359 -325 359c-246 0 -459 -262 -459 -572
c0 -217 125 -360 319 -360zM341 -475h-66l175 341h82z" />
    <glyph glyph-name="dlinebelow" unicode="&#x1e0f;" horiz-adv-x="1104" 
d="M493 -16c-227 0 -380 173 -380 424c0 356 244 648 537 648c193 0 341 -129 362 -313h4l150 700h78l-307 -1443h-79l50 234h-4c-83 -152 -245 -250 -411 -250zM509 54c270 0 465 266 465 573c0 217 -128 359 -325 359c-246 0 -459 -262 -459 -572
c0 -217 125 -360 319 -360zM764 -231l-13 -59h-594l13 59h594z" />
    <glyph glyph-name="dcaron" unicode="&#x10f;" horiz-adv-x="1239" 
d="M1416 1443h77l-103 -385h-56zM493 -16c-227 0 -380 173 -380 424c0 356 244 648 537 648c193 0 341 -129 362 -313h4l150 700h78l-307 -1443h-79l50 234h-4c-83 -152 -245 -250 -411 -250zM509 54c270 0 465 266 465 573c0 217 -128 359 -325 359
c-246 0 -459 -262 -459 -572c0 -217 125 -360 319 -360z" />
    <glyph glyph-name="ddotbelow" unicode="&#x1e0d;" horiz-adv-x="1104" 
d="M493 -16c-227 0 -380 173 -380 424c0 356 244 648 537 648c193 0 341 -129 362 -313h4l150 700h78l-307 -1443h-79l50 234h-4c-83 -152 -245 -250 -411 -250zM509 54c270 0 465 266 465 573c0 217 -128 359 -325 359c-246 0 -459 -262 -459 -572
c0 -217 125 -360 319 -360zM463 -309c-42 0 -78 35 -78 77s36 78 78 78s78 -36 78 -78s-36 -77 -78 -77z" />
    <glyph glyph-name="dcroat" unicode="&#x111;" horiz-adv-x="1104" 
d="M509 54c270 0 465 266 465 573c0 217 -128 359 -325 359c-246 0 -459 -262 -459 -572c0 -217 125 -360 319 -360zM1327 1298l-14 -66h-114l-262 -1232h-79l50 234h-4c-83 -152 -245 -250 -411 -250c-227 0 -380 173 -380 424c0 356 244 648 537 648
c193 0 341 -129 362 -313h4l105 489h-286l15 66h285l31 145h78l-31 -145h114z" />
    <glyph glyph-name="e" unicode="e" horiz-adv-x="1027" 
d="M212 575h740c5 23 6 41 6 76c0 198 -114 336 -314 336c-217 0 -389 -172 -432 -412zM523 -17c-255 0 -408 172 -408 429c0 366 225 645 531 645c240 0 390 -158 390 -411c0 -46 -6 -99 -15 -137h-820c-5 -38 -8 -69 -8 -91c0 -225 129 -365 334 -365
c178 0 311 91 368 244h79c-62 -191 -232 -314 -451 -314z" />
    <glyph glyph-name="egrave" unicode="&#xe8;" horiz-adv-x="1027" 
d="M212 575h740c5 23 6 41 6 76c0 198 -114 336 -314 336c-217 0 -389 -172 -432 -412zM523 -17c-255 0 -408 172 -408 429c0 366 225 645 531 645c240 0 390 -158 390 -411c0 -46 -6 -99 -15 -137h-820c-5 -38 -8 -69 -8 -91c0 -225 129 -365 334 -365
c178 0 311 91 368 244h79c-62 -191 -232 -314 -451 -314zM762 1241h-70l-184 303h83z" />
    <glyph glyph-name="edblgrave" unicode="&#x205;" horiz-adv-x="1027" 
d="M212 575h740c5 23 6 41 6 76c0 198 -114 336 -314 336c-217 0 -389 -172 -432 -412zM523 -17c-255 0 -408 172 -408 429c0 366 225 645 531 645c240 0 390 -158 390 -411c0 -46 -6 -99 -15 -137h-820c-5 -38 -8 -69 -8 -91c0 -225 129 -365 334 -365
c178 0 311 91 368 244h79c-62 -191 -232 -314 -451 -314zM645 1241h-67l-182 303h82zM888 1241h-68l-181 303h81z" />
    <glyph glyph-name="eacute" unicode="&#xe9;" horiz-adv-x="1027" 
d="M212 575h740c5 23 6 41 6 76c0 198 -114 336 -314 336c-217 0 -389 -172 -432 -412zM523 -17c-255 0 -408 172 -408 429c0 366 225 645 531 645c240 0 390 -158 390 -411c0 -46 -6 -99 -15 -137h-820c-5 -38 -8 -69 -8 -91c0 -225 129 -365 334 -365
c178 0 311 91 368 244h79c-62 -191 -232 -314 -451 -314zM761 1241h-82l301 303h93z" />
    <glyph glyph-name="ecircumflex" unicode="&#xea;" horiz-adv-x="1027" 
d="M212 575h740c5 23 6 41 6 76c0 198 -114 336 -314 336c-217 0 -389 -172 -432 -412zM523 -17c-255 0 -408 172 -408 429c0 366 225 645 531 645c240 0 390 -158 390 -411c0 -46 -6 -99 -15 -137h-820c-5 -38 -8 -69 -8 -91c0 -225 129 -365 334 -365
c178 0 311 91 368 244h79c-62 -191 -232 -314 -451 -314zM819 1544l192 -303h-80l-154 248h-3l-261 -248h-88l323 303h71z" />
    <glyph glyph-name="ecircumflexhookabove" unicode="&#x1ec3;" horiz-adv-x="1027" 
d="M212 575h740c5 23 6 41 6 76c0 198 -114 336 -314 336c-217 0 -389 -172 -432 -412zM523 -17c-255 0 -408 172 -408 429c0 366 225 645 531 645c240 0 390 -158 390 -411c0 -46 -6 -99 -15 -137h-820c-5 -38 -8 -69 -8 -91c0 -225 129 -365 334 -365
c178 0 311 91 368 244h79c-62 -191 -232 -314 -451 -314zM867 1682l11 55c21 13 65 23 101 23c86 0 144 -48 144 -120c0 -75 -58 -143 -140 -169l-29 41c64 20 106 67 106 116c0 47 -35 77 -92 77c-37 0 -74 -9 -101 -23zM807 1505l215 -290h-78l-176 236h-3l-277 -236h-91
l339 290h71z" />
    <glyph glyph-name="ecircumflexgrave" unicode="&#x1ec1;" horiz-adv-x="1027" 
d="M212 575h740c5 23 6 41 6 76c0 198 -114 336 -314 336c-217 0 -389 -172 -432 -412zM523 -17c-255 0 -408 172 -408 429c0 366 225 645 531 645c240 0 390 -158 390 -411c0 -46 -6 -99 -15 -137h-820c-5 -38 -8 -69 -8 -91c0 -225 129 -365 334 -365
c178 0 311 91 368 244h79c-62 -191 -232 -314 -451 -314zM1110 1487h-68l-186 301h76zM807 1505l215 -290h-78l-176 236h-3l-277 -236h-91l339 290h71z" />
    <glyph glyph-name="ecircumflextilde" unicode="&#x1ec5;" horiz-adv-x="1027" 
d="M212 575h740c5 23 6 41 6 76c0 198 -114 336 -314 336c-217 0 -389 -172 -432 -412zM523 -17c-255 0 -408 172 -408 429c0 366 225 645 531 645c240 0 390 -158 390 -411c0 -46 -6 -99 -15 -137h-820c-5 -38 -8 -69 -8 -91c0 -225 129 -365 334 -365
c178 0 311 91 368 244h79c-62 -191 -232 -314 -451 -314zM807 1505l215 -290h-78l-176 236h-3l-277 -236h-91l339 290h71zM931 1577c-123 0 -147 149 -240 149c-55 0 -102 -55 -109 -130h-61c12 112 84 189 175 189c122 0 146 -149 240 -149c51 0 96 53 105 130h61
c-16 -116 -84 -189 -171 -189z" />
    <glyph glyph-name="ecircumflexdotbelow" unicode="&#x1ec7;" horiz-adv-x="1027" 
d="M212 575h740c5 23 6 41 6 76c0 198 -114 336 -314 336c-217 0 -389 -172 -432 -412zM523 -17c-255 0 -408 172 -408 429c0 366 225 645 531 645c240 0 390 -158 390 -411c0 -46 -6 -99 -15 -137h-820c-5 -38 -8 -69 -8 -91c0 -225 129 -365 334 -365
c178 0 311 91 368 244h79c-62 -191 -232 -314 -451 -314zM819 1544l192 -303h-80l-154 248h-3l-261 -248h-88l323 303h71zM442 -309c-42 0 -78 35 -78 77s36 78 78 78s78 -36 78 -78s-36 -77 -78 -77z" />
    <glyph glyph-name="ecircumflexacute" unicode="&#x1ebf;" horiz-adv-x="1027" 
d="M212 575h740c5 23 6 41 6 76c0 198 -114 336 -314 336c-217 0 -389 -172 -432 -412zM523 -17c-255 0 -408 172 -408 429c0 366 225 645 531 645c240 0 390 -158 390 -411c0 -46 -6 -99 -15 -137h-820c-5 -38 -8 -69 -8 -91c0 -225 129 -365 334 -365
c178 0 311 91 368 244h79c-62 -191 -232 -314 -451 -314zM807 1505l215 -290h-78l-176 236h-3l-277 -236h-91l339 290h71zM985 1482l305 306h89l-314 -306h-80z" />
    <glyph glyph-name="edieresis" unicode="&#xeb;" horiz-adv-x="1027" 
d="M212 575h740c5 23 6 41 6 76c0 198 -114 336 -314 336c-217 0 -389 -172 -432 -412zM523 -17c-255 0 -408 172 -408 429c0 366 225 645 531 645c240 0 390 -158 390 -411c0 -46 -6 -99 -15 -137h-820c-5 -38 -8 -69 -8 -91c0 -225 129 -365 334 -365
c178 0 311 91 368 244h79c-62 -191 -232 -314 -451 -314zM586 1243c-37 0 -67 30 -67 66c0 37 30 66 67 66c36 0 66 -29 66 -66c0 -36 -30 -66 -66 -66zM884 1243c-36 0 -67 30 -67 66c0 37 31 66 67 66s67 -29 67 -66c0 -36 -31 -66 -67 -66z" />
    <glyph glyph-name="edotbelow" unicode="&#x1eb9;" horiz-adv-x="1027" 
d="M212 575h740c5 23 6 41 6 76c0 198 -114 336 -314 336c-217 0 -389 -172 -432 -412zM523 -17c-255 0 -408 172 -408 429c0 366 225 645 531 645c240 0 390 -158 390 -411c0 -46 -6 -99 -15 -137h-820c-5 -38 -8 -69 -8 -91c0 -225 129 -365 334 -365
c178 0 311 91 368 244h79c-62 -191 -232 -314 -451 -314zM442 -309c-42 0 -78 35 -78 77s36 78 78 78s78 -36 78 -78s-36 -77 -78 -77z" />
    <glyph glyph-name="einvertedbreve" unicode="&#x207;" horiz-adv-x="1027" 
d="M212 575h740c5 23 6 41 6 76c0 198 -114 336 -314 336c-217 0 -389 -172 -432 -412zM523 -17c-255 0 -408 172 -408 429c0 366 225 645 531 645c240 0 390 -158 390 -411c0 -46 -6 -99 -15 -137h-820c-5 -38 -8 -69 -8 -91c0 -225 129 -365 334 -365
c178 0 311 91 368 244h79c-62 -191 -232 -314 -451 -314zM992 1212h-64c2 4 4 16 4 29c0 97 -73 167 -191 167c-121 0 -209 -81 -224 -196h-64c19 149 133 253 296 253c147 0 248 -92 248 -217c0 -15 -2 -29 -5 -36z" />
    <glyph glyph-name="ehookabove" unicode="&#x1ebb;" horiz-adv-x="1027" 
d="M212 575h740c5 23 6 41 6 76c0 198 -114 336 -314 336c-217 0 -389 -172 -432 -412zM523 -17c-255 0 -408 172 -408 429c0 366 225 645 531 645c240 0 390 -158 390 -411c0 -46 -6 -99 -15 -137h-820c-5 -38 -8 -69 -8 -91c0 -225 129 -365 334 -365
c178 0 311 91 368 244h79c-62 -191 -232 -314 -451 -314zM612 1417l12 57c21 13 64 23 103 23c85 0 147 -52 147 -124c0 -79 -59 -145 -148 -173l-27 45c70 22 109 66 109 118c0 47 -36 78 -94 78c-37 0 -76 -9 -102 -24z" />
    <glyph glyph-name="ecaron" unicode="&#x11b;" horiz-adv-x="1027" 
d="M212 575h740c5 23 6 41 6 76c0 198 -114 336 -314 336c-217 0 -389 -172 -432 -412zM523 -17c-255 0 -408 172 -408 429c0 366 225 645 531 645c240 0 390 -158 390 -411c0 -46 -6 -99 -15 -137h-820c-5 -38 -8 -69 -8 -91c0 -225 129 -365 334 -365
c178 0 311 91 368 244h79c-62 -191 -232 -314 -451 -314zM762 1241h-71l-192 303h78l154 -249h3l262 249h89z" />
    <glyph glyph-name="emacron" unicode="&#x113;" horiz-adv-x="1027" 
d="M212 575h740c5 23 6 41 6 76c0 198 -114 336 -314 336c-217 0 -389 -172 -432 -412zM523 -17c-255 0 -408 172 -408 429c0 366 225 645 531 645c240 0 390 -158 390 -411c0 -46 -6 -99 -15 -137h-820c-5 -38 -8 -69 -8 -91c0 -225 129 -365 334 -365
c178 0 311 91 368 244h79c-62 -191 -232 -314 -451 -314zM1006 1358l-13 -60h-519l12 60h520z" />
    <glyph glyph-name="emacrongrave" unicode="&#x1e15;" horiz-adv-x="1027" 
d="M212 575h740c5 23 6 41 6 76c0 198 -114 336 -314 336c-217 0 -389 -172 -432 -412zM523 -17c-255 0 -408 172 -408 429c0 366 225 645 531 645c240 0 390 -158 390 -411c0 -46 -6 -99 -15 -137h-820c-5 -38 -8 -69 -8 -91c0 -225 129 -365 334 -365
c178 0 311 91 368 244h79c-62 -191 -232 -314 -451 -314zM812 1482h-67l-186 306h76zM996 1325l-13 -60h-519l12 60h520z" />
    <glyph glyph-name="emacronacute" unicode="&#x1e17;" horiz-adv-x="1027" 
d="M212 575h740c5 23 6 41 6 76c0 198 -114 336 -314 336c-217 0 -389 -172 -432 -412zM523 -17c-255 0 -408 172 -408 429c0 366 225 645 531 645c240 0 390 -158 390 -411c0 -46 -6 -99 -15 -137h-820c-5 -38 -8 -69 -8 -91c0 -225 129 -365 334 -365
c178 0 311 91 368 244h79c-62 -191 -232 -314 -451 -314zM724 1482l305 306h88l-314 -306h-79zM996 1325l-13 -60h-519l12 60h520z" />
    <glyph glyph-name="etilde" unicode="&#x1ebd;" horiz-adv-x="1027" 
d="M212 575h740c5 23 6 41 6 76c0 198 -114 336 -314 336c-217 0 -389 -172 -432 -412zM523 -17c-255 0 -408 172 -408 429c0 366 225 645 531 645c240 0 390 -158 390 -411c0 -46 -6 -99 -15 -137h-820c-5 -38 -8 -69 -8 -91c0 -225 129 -365 334 -365
c178 0 311 91 368 244h79c-62 -191 -232 -314 -451 -314zM873 1243c-132 0 -155 165 -258 165c-57 0 -108 -57 -126 -153h-62c23 132 98 212 192 212c135 0 156 -165 258 -165c54 0 102 54 122 153h62c-28 -136 -98 -212 -188 -212z" />
    <glyph glyph-name="ecircumflexbelow" unicode="&#x1e19;" horiz-adv-x="1027" 
d="M212 575h740c5 23 6 41 6 76c0 198 -114 336 -314 336c-217 0 -389 -172 -432 -412zM523 -17c-255 0 -408 172 -408 429c0 366 225 645 531 645c240 0 390 -158 390 -411c0 -46 -6 -99 -15 -137h-820c-5 -38 -8 -69 -8 -91c0 -225 129 -365 334 -365
c178 0 311 91 368 244h79c-62 -191 -232 -314 -451 -314zM485 -165l202 -289h-78l-160 232h-3l-259 -232h-90l324 289h64z" />
    <glyph glyph-name="ebreve" unicode="&#x115;" horiz-adv-x="1027" 
d="M212 575h740c5 23 6 41 6 76c0 198 -114 336 -314 336c-217 0 -389 -172 -432 -412zM523 -17c-255 0 -408 172 -408 429c0 366 225 645 531 645c240 0 390 -158 390 -411c0 -46 -6 -99 -15 -137h-820c-5 -38 -8 -69 -8 -91c0 -225 129 -365 334 -365
c178 0 311 91 368 244h79c-62 -191 -232 -314 -451 -314zM480 1491h64c-2 -11 -4 -22 -4 -35c0 -99 73 -160 192 -160c120 0 210 77 223 195h64c-17 -152 -133 -253 -296 -253c-147 0 -248 84 -248 210c0 15 2 30 5 43z" />
    <glyph glyph-name="etildebelow" unicode="&#x1e1b;" horiz-adv-x="1027" 
d="M212 575h740c5 23 6 41 6 76c0 198 -114 336 -314 336c-217 0 -389 -172 -432 -412zM523 -17c-255 0 -408 172 -408 429c0 366 225 645 531 645c240 0 390 -158 390 -411c0 -46 -6 -99 -15 -137h-820c-5 -38 -8 -69 -8 -91c0 -225 129 -365 334 -365
c178 0 311 91 368 244h79c-62 -191 -232 -314 -451 -314zM563 -387c-132 0 -155 165 -258 165c-57 0 -108 -57 -126 -153h-62c23 132 98 212 192 212c135 0 156 -165 258 -165c54 0 102 54 122 153h62c-28 -136 -98 -212 -188 -212z" />
    </font>
</defs>
</svg>
