<?xml version="1.0" standalone="no"?>
<!DOCTYPE svg PUBLIC "-//W3C//DTD SVG 1.1//EN" "http://www.w3.org/Graphics/SVG/1.1/DTD/svg11.dtd" >
<svg xmlns="http://www.w3.org/2000/svg" xmlns:xlink="http://www.w3.org/1999/xlink" version="1.1">
<metadata>
Created by FontForge 20201107 at Wed May 31 04:50:23 2017
 By Jimmy Wärting
(c) 2015-2017 Apple Inc. All rights reserved.
</metadata>
<defs>
<font id="SFProDisplay-SemiboldItalic" horiz-adv-x="0" >
  <font-face 
    font-family="SF Pro Display"
    font-weight="600"
    font-style="italic"
    font-stretch="normal"
    units-per-em="2048"
    panose-1="0 0 7 0 0 0 0 0 0 0"
    ascent="1638"
    descent="-410"
    x-height="1062"
    cap-height="1443"
    bbox="-610 -516 2835 2162"
    underline-thickness="169"
    underline-position="-373"
    slope="-12"
    stemh="213"
    stemv="250"
    unicode-range="U+0020-FB02"
  />
<missing-glyph horiz-adv-x="2048" 
d="M-75 -494l50 229h1848l-51 -229h-1847zM19 -51l50 229h1847l-49 -229h-1848zM114 392l49 229h1847l-49 -229h-1847zM207 835l50 229h1847l-49 -229h-1848zM301 1278l50 229h1847l-49 -229h-1848zM395 1721l49 229h1848l-50 -229h-1847z" />
    <glyph glyph-name=".notdef" horiz-adv-x="2048" 
d="M-75 -494l50 229h1848l-51 -229h-1847zM19 -51l50 229h1847l-49 -229h-1848zM114 392l49 229h1847l-49 -229h-1847zM207 835l50 229h1847l-49 -229h-1848zM301 1278l50 229h1847l-49 -229h-1848zM395 1721l49 229h1848l-50 -229h-1847z" />
    <glyph glyph-name=".null" 
 />
    <glyph glyph-name="nonmarkingreturn" 
 />
    <glyph glyph-name="space" unicode=" " horiz-adv-x="467" 
 />
    <glyph glyph-name="A" unicode="A" horiz-adv-x="1356" 
d="M867 1177l-330 -604h410l-75 604h-5zM1011 0l-45 369h-534l-204 -369h-277l822 1443h293l200 -1443h-255z" />
    <glyph glyph-name="Agrave" unicode="&#xc0;" horiz-adv-x="1356" 
d="M867 1177l-330 -604h410l-75 604h-5zM1011 0l-45 369h-534l-204 -369h-277l822 1443h293l200 -1443h-255zM837 1558l-201 300h229l161 -300h-189z" />
    <glyph glyph-name="Aacute" unicode="&#xc1;" horiz-adv-x="1356" 
d="M867 1177l-330 -604h410l-75 604h-5zM1011 0l-45 369h-534l-204 -369h-277l822 1443h293l200 -1443h-255zM1049 1558h-213l287 300h254z" />
    <glyph glyph-name="Adieresis" unicode="&#xc4;" horiz-adv-x="1356" 
d="M867 1177l-330 -604h410l-75 604h-5zM1011 0l-45 369h-534l-204 -369h-277l822 1443h293l200 -1443h-255zM778 1597c-68 0 -122 54 -122 121s54 121 122 121c69 0 123 -54 123 -121s-54 -121 -123 -121zM1165 1597c-68 0 -122 54 -122 121s54 121 122 121
s122 -54 122 -121s-54 -121 -122 -121z" />
    <glyph glyph-name="Adieresismacron" unicode="&#x1de;" horiz-adv-x="1356" 
d="M867 1177l-330 -604h410l-75 604h-5zM1011 0l-45 369h-534l-204 -369h-277l822 1443h293l200 -1443h-255zM773 1791c69 0 122 -54 122 -122c0 -67 -53 -121 -122 -121c-68 0 -121 54 -121 121c0 68 53 122 121 122zM1382 2058l-29 -138h-670l29 138h670zM1156 1791
c69 0 122 -54 122 -122c0 -67 -53 -121 -122 -121c-68 0 -121 54 -121 121c0 68 53 122 121 122z" />
    <glyph glyph-name="Aring" unicode="&#xc5;" horiz-adv-x="1356" 
d="M867 1177l-330 -604h410l-75 604h-5zM1011 0l-45 369h-534l-204 -369h-277l822 1443h293l200 -1443h-255zM984 1562c-111 0 -205 81 -205 201c0 122 94 212 211 212c113 0 206 -81 205 -201c0 -122 -92 -212 -211 -212zM984 1671c59 0 101 40 101 101
c-1 56 -41 95 -95 95c-57 0 -100 -41 -100 -102c0 -56 41 -94 94 -94z" />
    <glyph glyph-name="Aringacute" unicode="&#x1fa;" horiz-adv-x="1356" 
d="M867 1177l-330 -604h410l-75 604h-5zM1011 0l-45 369h-534l-204 -369h-277l822 1443h293l200 -1443h-255zM967 1511c-107 0 -193 72 -193 183c0 115 86 196 198 196c108 0 194 -72 193 -184c-1 -114 -85 -195 -198 -195zM967 1614c54 0 91 35 91 90c-1 50 -36 83 -86 83
c-53 0 -90 -36 -90 -91c0 -49 36 -82 85 -82zM1085 2136h214l-179 -182h-187z" />
    <glyph glyph-name="Atilde" unicode="&#xc3;" horiz-adv-x="1356" 
d="M867 1177l-330 -604h410l-75 604h-5zM1011 0l-45 369h-534l-204 -369h-277l822 1443h293l200 -1443h-255zM1095 1546c-137 0 -166 140 -245 140c-44 0 -83 -45 -100 -127h-145c31 166 129 268 251 268c143 0 169 -141 245 -141c42 0 79 44 98 130h146
c-34 -164 -132 -270 -250 -270z" />
    <glyph glyph-name="Abrevegrave" unicode="&#x1eb0;" horiz-adv-x="1356" 
d="M867 1177l-330 -604h410l-75 604h-5zM1011 0l-45 369h-534l-204 -369h-277l822 1443h293l200 -1443h-255zM1104 1863h-178l-156 239h205zM657 1831h153c-1 -7 -1 -14 -1 -20c0 -79 56 -134 151 -134c103 0 188 65 216 154h170c-45 -163 -200 -290 -406 -290
c-182 0 -287 105 -287 243c0 15 1 31 4 47z" />
    <glyph glyph-name="Adotmacron" unicode="&#x1e0;" horiz-adv-x="1356" 
d="M867 1177l-330 -604h410l-75 604h-5zM1011 0l-45 369h-534l-204 -369h-277l822 1443h293l200 -1443h-255zM969 1563c-74 0 -132 58 -132 130c0 71 58 129 132 129s131 -58 131 -129c0 -72 -57 -130 -131 -130zM1382 2058l-30 -138h-670l30 138h670z" />
    <glyph glyph-name="Aringbelow" unicode="&#x1e00;" horiz-adv-x="1356" 
d="M867 1177l-330 -604h410l-75 604h-5zM1011 0l-45 369h-534l-204 -369h-277l822 1443h293l200 -1443h-255zM543 -516c-111 0 -205 81 -205 201c0 122 94 212 211 212c113 0 206 -81 205 -201c0 -122 -92 -212 -211 -212zM543 -407c59 0 101 40 101 101
c-1 56 -41 95 -95 95c-57 0 -100 -41 -100 -102c0 -56 41 -94 94 -94z" />
    <glyph glyph-name="Acircumflex" unicode="&#xc2;" horiz-adv-x="1356" 
d="M867 1177l-330 -604h410l-75 604h-5zM1011 0l-45 369h-534l-204 -369h-277l822 1443h293l200 -1443h-255zM1093 1863l208 -311h-193l-124 192h-7l-206 -192h-209l340 311h191z" />
    <glyph glyph-name="Acircumflexdotbelow" unicode="&#x1eac;" horiz-adv-x="1356" 
d="M867 1177l-330 -604h410l-75 604h-5zM1011 0l-45 369h-534l-204 -369h-277l822 1443h293l200 -1443h-255zM1093 1863l208 -311h-193l-124 192h-7l-206 -192h-209l340 311h191zM543 -450c-79 0 -141 64 -141 141c0 78 62 142 141 142c78 0 140 -64 140 -142
c0 -77 -62 -141 -140 -141z" />
    <glyph glyph-name="Acircumflexacute" unicode="&#x1ea4;" horiz-adv-x="1356" 
d="M867 1177l-330 -604h410l-75 604h-5zM1011 0l-45 369h-534l-204 -369h-277l822 1443h293l200 -1443h-255zM886 1813h203l214 -274h-195l-128 167h-6l-200 -167h-220zM1132 1863l230 239h228l-257 -239h-201z" />
    <glyph glyph-name="Acircumflextilde" unicode="&#x1eaa;" horiz-adv-x="1356" 
d="M867 1177l-330 -604h410l-75 604h-5zM1011 0l-45 369h-534l-204 -369h-277l822 1443h293l200 -1443h-255zM1148 1861c-134 0 -170 124 -248 124c-44 0 -81 -37 -92 -106h-144c28 156 124 244 247 244c133 0 168 -123 247 -123c44 0 78 35 93 108h143
c-27 -154 -127 -247 -246 -247zM885 1807h202l216 -268h-195l-129 162h-7l-198 -162h-220z" />
    <glyph glyph-name="Acircumflexgrave" unicode="&#x1ea6;" horiz-adv-x="1356" 
d="M867 1177l-330 -604h410l-75 604h-5zM1011 0l-45 369h-534l-204 -369h-277l822 1443h293l200 -1443h-255zM886 1813h203l214 -274h-195l-128 167h-6l-200 -167h-220zM1355 1863h-177l-157 239h206z" />
    <glyph glyph-name="Acircumflexhookabove" unicode="&#x1ea8;" horiz-adv-x="1356" 
d="M867 1177l-330 -604h410l-75 604h-5zM1011 0l-45 369h-534l-204 -369h-277l822 1443h293l200 -1443h-255zM886 1813h203l214 -274h-195l-128 167h-6l-200 -167h-220zM1112 1975l28 116c25 11 72 18 110 18c121 0 198 -60 198 -153c0 -101 -75 -182 -190 -221l-67 93
c58 16 100 52 100 97c0 38 -35 63 -90 63c-31 0 -60 -4 -89 -13z" />
    <glyph glyph-name="Abreve" unicode="&#x102;" horiz-adv-x="1356" 
d="M867 1177l-330 -604h410l-75 604h-5zM1011 0l-45 369h-534l-204 -369h-277l822 1443h293l200 -1443h-255zM660 1856h159c-4 -13 -7 -29 -7 -45c0 -85 56 -136 151 -136c109 0 197 69 223 181h163c-43 -190 -191 -316 -410 -316c-174 0 -288 102 -288 246c0 25 3 49 9 70z
" />
    <glyph glyph-name="Abreveacute" unicode="&#x1eae;" horiz-adv-x="1356" 
d="M867 1177l-330 -604h410l-75 604h-5zM1011 0l-45 369h-534l-204 -369h-277l822 1443h293l200 -1443h-255zM884 1863l229 239h229l-257 -239h-201zM940 1541c-182 0 -287 105 -287 243c0 15 1 31 4 47h153c-1 -7 -1 -14 -1 -20c0 -79 56 -134 151 -134
c103 0 188 65 216 154h170c-45 -163 -200 -290 -406 -290z" />
    <glyph glyph-name="Abrevetilde" unicode="&#x1eb4;" horiz-adv-x="1356" 
d="M867 1177l-330 -604h410l-75 604h-5zM1011 0l-45 369h-534l-204 -369h-277l822 1443h293l200 -1443h-255zM1154 1861c-135 0 -170 124 -248 124c-44 0 -82 -37 -93 -106h-143c28 156 124 244 247 244c133 0 167 -123 247 -123c43 0 78 35 92 108h144
c-28 -154 -127 -247 -246 -247zM940 1541c-182 0 -287 105 -287 243c0 15 1 31 4 47h153c-1 -7 -1 -14 -1 -20c0 -79 56 -134 151 -134c103 0 188 65 216 154h170c-45 -163 -200 -290 -406 -290z" />
    <glyph glyph-name="Abrevehookabove" unicode="&#x1eb2;" horiz-adv-x="1356" 
d="M867 1177l-330 -604h410l-75 604h-5zM1011 0l-45 369h-534l-204 -369h-277l822 1443h293l200 -1443h-255zM826 2031l29 117c27 9 71 14 103 14c123 0 205 -63 205 -158c0 -94 -75 -175 -188 -207l-72 90c62 14 105 49 105 92c0 39 -34 63 -93 63c-34 0 -64 -4 -89 -11z
M940 1541c-182 0 -287 105 -287 243c0 15 1 31 4 47h153c-1 -7 -1 -14 -1 -20c0 -79 56 -134 151 -134c103 0 188 65 216 154h170c-45 -163 -200 -290 -406 -290z" />
    <glyph glyph-name="Abrevedotbelow" unicode="&#x1eb6;" horiz-adv-x="1356" 
d="M867 1177l-330 -604h410l-75 604h-5zM1011 0l-45 369h-534l-204 -369h-277l822 1443h293l200 -1443h-255zM660 1856h159c-4 -13 -7 -29 -7 -45c0 -85 56 -136 151 -136c109 0 197 69 223 181h163c-43 -190 -191 -316 -410 -316c-174 0 -288 102 -288 246c0 25 3 49 9 70z
M543 -450c-79 0 -141 64 -141 141c0 78 62 142 141 142c78 0 140 -64 140 -142c0 -77 -62 -141 -140 -141z" />
    <glyph glyph-name="Ainvertedbreve" unicode="&#x202;" horiz-adv-x="1356" 
d="M867 1177l-330 -604h410l-75 604h-5zM1011 0l-45 369h-534l-204 -369h-277l822 1443h293l200 -1443h-255zM1281 1540h-159c3 10 6 26 6 42c0 85 -56 138 -150 138c-110 0 -198 -71 -223 -180h-163c43 187 190 316 409 316c174 0 288 -105 288 -249c0 -25 -3 -49 -8 -67z
" />
    <glyph glyph-name="Acaron" unicode="&#x1cd;" horiz-adv-x="1356" 
d="M867 1177l-330 -604h410l-75 604h-5zM1011 0l-45 369h-534l-204 -369h-277l822 1443h293l200 -1443h-255zM847 1552l-208 311h193l125 -192h7l205 192h210l-340 -311h-192z" />
    <glyph glyph-name="Adotaccent" unicode="&#x226;" horiz-adv-x="1356" 
d="M867 1177l-330 -604h410l-75 604h-5zM1011 0l-45 369h-534l-204 -369h-277l822 1443h293l200 -1443h-255zM979 1608c-79 0 -141 64 -141 141c0 78 62 142 141 142c78 0 140 -64 140 -142c0 -77 -62 -141 -140 -141z" />
    <glyph glyph-name="Adotbelow" unicode="&#x1ea0;" horiz-adv-x="1356" 
d="M867 1177l-330 -604h410l-75 604h-5zM1011 0l-45 369h-534l-204 -369h-277l822 1443h293l200 -1443h-255zM543 -450c-79 0 -141 64 -141 141c0 78 62 142 141 142c78 0 140 -64 140 -142c0 -77 -62 -141 -140 -141z" />
    <glyph glyph-name="Ahookabove" unicode="&#x1ea2;" horiz-adv-x="1356" 
d="M867 1177l-330 -604h410l-75 604h-5zM1011 0l-45 369h-534l-204 -369h-277l822 1443h293l200 -1443h-255zM794 1778l28 121c27 11 77 18 115 18c128 0 209 -63 209 -160c0 -105 -87 -198 -227 -239l-55 101c71 18 118 59 118 107c0 40 -36 65 -94 65
c-32 0 -67 -5 -94 -13z" />
    <glyph glyph-name="Adblgrave" unicode="&#x200;" horiz-adv-x="1356" 
d="M867 1177l-330 -604h410l-75 604h-5zM1011 0l-45 369h-534l-204 -369h-277l822 1443h293l200 -1443h-255zM669 1558l-201 300h229l161 -300h-189zM1037 1558l-202 300h230l161 -300h-189z" />
    <glyph glyph-name="Amacron" unicode="&#x100;" horiz-adv-x="1356" 
d="M867 1177l-330 -604h410l-75 604h-5zM1011 0l-45 369h-534l-204 -369h-277l822 1443h293l200 -1443h-255zM1320 1763l-29 -139h-671l30 139h670z" />
    <glyph glyph-name="Aogonek" unicode="&#x104;" horiz-adv-x="1356" 
d="M1149 -283l-30 -145c-25 -13 -77 -22 -132 -22c-125 0 -211 66 -211 169c0 100 89 203 234 283l-46 367h-534l-202 -369h-277l820 1443h293l199 -1426l-23 -10c-175 -76 -263 -158 -263 -229c0 -46 35 -73 99 -73c29 0 56 4 73 12zM864 1177l-329 -604h410l-75 604h-6z
" />
    <glyph glyph-name="B" unicode="B" horiz-adv-x="1328" 
d="M721 0h-661l307 1443h562c249 0 406 -128 406 -314s-136 -330 -322 -374l-1 -6c157 -28 254 -145 254 -290c0 -268 -222 -459 -545 -459zM583 1248l-86 -404h259c189 0 317 97 317 234c0 111 -83 170 -239 170h-251zM360 205h322c191 0 320 106 320 253
c0 126 -88 193 -259 193h-287z" />
    <glyph glyph-name="Blinebelow" unicode="&#x1e06;" horiz-adv-x="1328" 
d="M721 0h-661l307 1443h562c249 0 406 -128 406 -314s-136 -330 -322 -374l-1 -6c157 -28 254 -145 254 -290c0 -268 -222 -459 -545 -459zM583 1248l-86 -404h259c189 0 317 97 317 234c0 111 -83 170 -239 170h-251zM360 205h322c191 0 320 106 320 253
c0 126 -88 193 -259 193h-287zM849 -239l-29 -139h-671l30 139h670z" />
    <glyph glyph-name="Bdotbelow" unicode="&#x1e04;" horiz-adv-x="1328" 
d="M721 0h-661l307 1443h562c249 0 406 -128 406 -314s-136 -330 -322 -374l-1 -6c157 -28 254 -145 254 -290c0 -268 -222 -459 -545 -459zM583 1248l-86 -404h259c189 0 317 97 317 234c0 111 -83 170 -239 170h-251zM360 205h322c191 0 320 106 320 253
c0 126 -88 193 -259 193h-287zM496 -450c-79 0 -141 64 -141 141c0 78 62 142 141 142c78 0 140 -64 140 -142c0 -77 -62 -141 -140 -141z" />
    <glyph glyph-name="Bdotaccent" unicode="&#x1e02;" horiz-adv-x="1328" 
d="M721 0h-661l307 1443h562c249 0 406 -128 406 -314s-136 -330 -322 -374l-1 -6c157 -28 254 -145 254 -290c0 -268 -222 -459 -545 -459zM583 1248l-86 -404h259c189 0 317 97 317 234c0 111 -83 170 -239 170h-251zM360 205h322c191 0 320 106 320 253
c0 126 -88 193 -259 193h-287zM875 1608c-79 0 -141 64 -141 141c0 78 62 142 141 142c78 0 140 -64 140 -142c0 -77 -62 -141 -140 -141z" />
    <glyph glyph-name="C" unicode="C" horiz-adv-x="1446" 
d="M1248 937c0 6 -1 14 -1 30c-14 167 -149 273 -328 273c-292 0 -493 -265 -493 -631c0 -251 135 -405 354 -405c176 0 319 99 379 262h254c-69 -296 -324 -490 -644 -490c-371 0 -608 242 -608 620c0 507 316 871 773 871c324 0 557 -195 570 -490c0 -18 0 -29 -1 -40
h-255z" />
    <glyph glyph-name="Cacute" unicode="&#x106;" horiz-adv-x="1446" 
d="M1248 937c0 6 -1 14 -1 30c-14 167 -149 273 -328 273c-292 0 -493 -265 -493 -631c0 -251 135 -405 354 -405c176 0 319 99 379 262h254c-69 -296 -324 -490 -644 -490c-371 0 -608 242 -608 620c0 507 316 871 773 871c324 0 557 -195 570 -490c0 -18 0 -29 -1 -40
h-255zM1064 1559h-213l287 300h254z" />
    <glyph glyph-name="Ccaron" unicode="&#x10c;" horiz-adv-x="1446" 
d="M1248 937c0 6 -1 14 -1 30c-14 167 -149 273 -328 273c-292 0 -493 -265 -493 -631c0 -251 135 -405 354 -405c176 0 319 99 379 262h254c-69 -296 -324 -490 -644 -490c-371 0 -608 242 -608 620c0 507 316 871 773 871c324 0 557 -195 570 -490c0 -18 0 -29 -1 -40
h-255zM862 1553l-208 311h193l125 -192h7l205 192h210l-340 -311h-192z" />
    <glyph glyph-name="Ccircumflex" unicode="&#x108;" horiz-adv-x="1446" 
d="M1248 937c0 6 -1 14 -1 30c-14 167 -149 273 -328 273c-292 0 -493 -265 -493 -631c0 -251 135 -405 354 -405c176 0 319 99 379 262h254c-69 -296 -324 -490 -644 -490c-371 0 -608 242 -608 620c0 507 316 871 773 871c324 0 557 -195 570 -490c0 -18 0 -29 -1 -40
h-255zM1108 1864l208 -311h-193l-124 192h-7l-206 -192h-209l340 311h191z" />
    <glyph glyph-name="Cdotaccent" unicode="&#x10a;" horiz-adv-x="1446" 
d="M1248 937c0 6 -1 14 -1 30c-14 167 -149 273 -328 273c-292 0 -493 -265 -493 -631c0 -251 135 -405 354 -405c176 0 319 99 379 262h254c-69 -296 -324 -490 -644 -490c-371 0 -608 242 -608 620c0 507 316 871 773 871c324 0 557 -195 570 -490c0 -18 0 -29 -1 -40
h-255zM994 1609c-79 0 -141 64 -141 141c0 78 62 142 141 142c78 0 140 -64 140 -142c0 -77 -62 -141 -140 -141z" />
    <glyph glyph-name="Ccedilla" unicode="&#xc7;" horiz-adv-x="1446" 
d="M1503 937h-255c0 6 -1 14 -1 30c-14 167 -149 273 -328 273c-292 0 -493 -265 -493 -631c0 -251 135 -405 354 -405c176 0 319 99 379 262h254c-65 -280 -297 -469 -593 -488l-60 -96c110 -2 173 -55 173 -146c0 -125 -111 -211 -272 -211c-60 0 -127 10 -165 24l27 130
c38 -13 84 -20 130 -20c78 0 121 22 121 61s-41 56 -141 56h-59l21 91l71 116c-311 40 -505 271 -505 613c0 507 316 871 773 871c324 0 557 -195 570 -490c0 -18 0 -29 -1 -40z" />
    <glyph glyph-name="Ccedillaacute" unicode="&#x1e08;" horiz-adv-x="1446" 
d="M1392 1859l-328 -300h-213l287 300h254zM1503 937h-255c0 6 -1 14 -1 30c-14 167 -149 273 -328 273c-292 0 -493 -265 -493 -631c0 -251 135 -405 354 -405c176 0 319 99 379 262h254c-65 -280 -297 -469 -593 -488l-60 -96c110 -2 173 -55 173 -146
c0 -125 -111 -211 -272 -211c-60 0 -127 10 -165 24l27 130c38 -13 84 -20 130 -20c78 0 121 22 121 61s-41 56 -141 56h-59l21 91l71 116c-311 40 -505 271 -505 613c0 507 316 871 773 871c324 0 557 -195 570 -490c0 -18 0 -29 -1 -40z" />
    <glyph glyph-name="D" unicode="D" horiz-adv-x="1438" 
d="M367 1443h478c368 0 599 -213 599 -575c0 -511 -313 -868 -772 -868h-610zM583 1222l-215 -1000h275c312 0 536 248 536 613c0 249 -135 387 -388 387h-208z" />
    <glyph glyph-name="Ddotaccent" unicode="&#x1e0a;" horiz-adv-x="1438" 
d="M367 1443h478c368 0 599 -213 599 -575c0 -511 -313 -868 -772 -868h-610zM583 1222l-215 -1000h275c312 0 536 248 536 613c0 249 -135 387 -388 387h-208zM869 1608c-79 0 -141 64 -141 141c0 78 62 142 141 142c78 0 140 -64 140 -142c0 -77 -62 -141 -140 -141z" />
    <glyph glyph-name="Dcircumflexbelow" unicode="&#x1e12;" horiz-adv-x="1438" 
d="M367 1443h478c368 0 599 -213 599 -575c0 -511 -313 -868 -772 -868h-610zM583 1222l-215 -1000h275c312 0 536 248 536 613c0 249 -135 387 -388 387h-208zM631 -165l208 -311h-193l-124 192h-7l-206 -192h-209l340 311h191z" />
    <glyph glyph-name="Dcommaaccent" unicode="&#x1e10;" horiz-adv-x="1438" 
d="M367 1443h478c368 0 599 -213 599 -575c0 -511 -313 -868 -772 -868h-610zM583 1222l-215 -1000h275c312 0 536 248 536 613c0 249 -135 387 -388 387h-208zM423 -476h-189l194 346h226z" />
    <glyph glyph-name="Dlinebelow" unicode="&#x1e0e;" horiz-adv-x="1438" 
d="M367 1443h478c368 0 599 -213 599 -575c0 -511 -313 -868 -772 -868h-610zM583 1222l-215 -1000h275c312 0 536 248 536 613c0 249 -135 387 -388 387h-208zM864 -239l-29 -139h-671l30 139h670z" />
    <glyph glyph-name="Dcaron" unicode="&#x10e;" horiz-adv-x="1438" 
d="M367 1443h478c368 0 599 -213 599 -575c0 -511 -313 -868 -772 -868h-610zM583 1222l-215 -1000h275c312 0 536 248 536 613c0 249 -135 387 -388 387h-208zM737 1552l-208 311h193l125 -192h7l205 192h210l-340 -311h-192z" />
    <glyph glyph-name="Ddotbelow" unicode="&#x1e0c;" horiz-adv-x="1438" 
d="M367 1443h478c368 0 599 -213 599 -575c0 -511 -313 -868 -772 -868h-610zM583 1222l-215 -1000h275c312 0 536 248 536 613c0 249 -135 387 -388 387h-208zM511 -450c-79 0 -141 64 -141 141c0 78 62 142 141 142c78 0 140 -64 140 -142c0 -77 -62 -141 -140 -141z" />
    <glyph glyph-name="Dcroat" unicode="&#x110;" horiz-adv-x="1438" 
d="M368 222h275c312 0 536 248 536 613c0 249 -135 387 -388 387h-208l-81 -378h281l-46 -223h-283zM367 1443h478c368 0 599 -213 599 -575c0 -511 -313 -868 -772 -868h-610l131 621h-130l47 223h130z" />
    <glyph glyph-name="E" unicode="E" horiz-adv-x="1158" 
d="M1041 223l-46 -223h-935l307 1443h935l-47 -223h-673l-84 -383h637l-44 -210h-636l-88 -404h674z" />
    <glyph glyph-name="Egrave" unicode="&#xc8;" horiz-adv-x="1158" 
d="M1041 223l-46 -223h-935l307 1443h935l-47 -223h-673l-84 -383h637l-44 -210h-636l-88 -404h674zM747 1558l-201 300h229l161 -300h-189z" />
    <glyph glyph-name="Edblgrave" unicode="&#x204;" horiz-adv-x="1158" 
d="M1041 223l-46 -223h-935l307 1443h935l-47 -223h-673l-84 -383h637l-44 -210h-636l-88 -404h674zM579 1558l-201 300h229l161 -300h-189zM947 1558l-202 300h230l161 -300h-189z" />
    <glyph glyph-name="Eacute" unicode="&#xc9;" horiz-adv-x="1158" 
d="M1041 223l-46 -223h-935l307 1443h935l-47 -223h-673l-84 -383h637l-44 -210h-636l-88 -404h674zM959 1558h-213l287 300h254z" />
    <glyph glyph-name="Ecircumflex" unicode="&#xca;" horiz-adv-x="1158" 
d="M1041 223l-46 -223h-935l307 1443h935l-47 -223h-673l-84 -383h637l-44 -210h-636l-88 -404h674zM1003 1863l208 -311h-193l-124 192h-7l-206 -192h-209l340 311h191z" />
    <glyph glyph-name="Ecircumflexhookabove" unicode="&#x1ec2;" horiz-adv-x="1158" 
d="M1041 223l-46 -223h-935l307 1443h935l-47 -223h-673l-84 -383h637l-44 -210h-636l-88 -404h674zM796 1813h203l214 -274h-195l-128 167h-6l-200 -167h-220zM1022 1975l28 116c25 11 72 18 110 18c121 0 198 -60 198 -153c0 -101 -75 -182 -190 -221l-67 93
c58 16 100 52 100 97c0 38 -35 63 -90 63c-31 0 -60 -4 -89 -13z" />
    <glyph glyph-name="Ecircumflexgrave" unicode="&#x1ec0;" horiz-adv-x="1158" 
d="M1041 223l-46 -223h-935l307 1443h935l-47 -223h-673l-84 -383h637l-44 -210h-636l-88 -404h674zM796 1813h203l214 -274h-195l-128 167h-6l-200 -167h-220zM1265 1863h-177l-157 239h206z" />
    <glyph glyph-name="Ecircumflextilde" unicode="&#x1ec4;" horiz-adv-x="1158" 
d="M1041 223l-46 -223h-935l307 1443h935l-47 -223h-673l-84 -383h637l-44 -210h-636l-88 -404h674zM1058 1861c-134 0 -170 124 -248 124c-44 0 -81 -37 -92 -106h-144c28 156 124 244 247 244c133 0 168 -123 247 -123c44 0 78 35 93 108h143
c-27 -154 -127 -247 -246 -247zM795 1807h202l216 -268h-195l-129 162h-7l-198 -162h-220z" />
    <glyph glyph-name="Ecircumflexdotbelow" unicode="&#x1ec6;" horiz-adv-x="1158" 
d="M1041 223l-46 -223h-935l307 1443h935l-47 -223h-673l-84 -383h637l-44 -210h-636l-88 -404h674zM1003 1863l208 -311h-193l-124 192h-7l-206 -192h-209l340 311h191zM482 -450c-79 0 -141 64 -141 141c0 78 62 142 141 142c78 0 140 -64 140 -142
c0 -77 -62 -141 -140 -141z" />
    <glyph glyph-name="Ecircumflexacute" unicode="&#x1ebe;" horiz-adv-x="1158" 
d="M1041 223l-46 -223h-935l307 1443h935l-47 -223h-673l-84 -383h637l-44 -210h-636l-88 -404h674zM796 1813h203l214 -274h-195l-128 167h-6l-200 -167h-220zM1042 1863l230 239h228l-257 -239h-201z" />
    <glyph glyph-name="Edieresis" unicode="&#xcb;" horiz-adv-x="1158" 
d="M1041 223l-46 -223h-935l307 1443h935l-47 -223h-673l-84 -383h637l-44 -210h-636l-88 -404h674zM688 1597c-68 0 -122 54 -122 121s54 121 122 121c69 0 123 -54 123 -121s-54 -121 -123 -121zM1075 1597c-68 0 -122 54 -122 121s54 121 122 121s122 -54 122 -121
s-54 -121 -122 -121z" />
    <glyph glyph-name="Edotbelow" unicode="&#x1eb8;" horiz-adv-x="1158" 
d="M1041 223l-46 -223h-935l307 1443h935l-47 -223h-673l-84 -383h637l-44 -210h-636l-88 -404h674zM482 -450c-79 0 -141 64 -141 141c0 78 62 142 141 142c78 0 140 -64 140 -142c0 -77 -62 -141 -140 -141z" />
    <glyph glyph-name="Einvertedbreve" unicode="&#x206;" horiz-adv-x="1158" 
d="M1041 223l-46 -223h-935l307 1443h935l-47 -223h-673l-84 -383h637l-44 -210h-636l-88 -404h674zM1191 1540h-159c3 10 6 26 6 42c0 85 -56 138 -150 138c-110 0 -198 -71 -223 -180h-163c43 187 190 316 409 316c174 0 288 -105 288 -249c0 -25 -3 -49 -8 -67z" />
    <glyph glyph-name="Ehookabove" unicode="&#x1eba;" horiz-adv-x="1158" 
d="M1041 223l-46 -223h-935l307 1443h935l-47 -223h-673l-84 -383h637l-44 -210h-636l-88 -404h674zM704 1778l28 121c27 11 77 18 115 18c128 0 209 -63 209 -160c0 -105 -87 -198 -227 -239l-55 101c71 18 118 59 118 107c0 40 -36 65 -94 65c-32 0 -67 -5 -94 -13z" />
    <glyph glyph-name="Ecaron" unicode="&#x11a;" horiz-adv-x="1158" 
d="M1041 223l-46 -223h-935l307 1443h935l-47 -223h-673l-84 -383h637l-44 -210h-636l-88 -404h674zM757 1552l-208 311h193l125 -192h7l205 192h210l-340 -311h-192z" />
    <glyph glyph-name="Emacron" unicode="&#x112;" horiz-adv-x="1158" 
d="M1041 223l-46 -223h-935l307 1443h935l-47 -223h-673l-84 -383h637l-44 -210h-636l-88 -404h674zM1230 1763l-29 -139h-671l30 139h670z" />
    <glyph glyph-name="Emacrongrave" unicode="&#x1e14;" horiz-adv-x="1158" 
d="M1041 223l-46 -223h-935l307 1443h935l-47 -223h-673l-84 -383h637l-44 -210h-636l-88 -404h674zM1194 1597h-670l29 138h670zM1006 1863h-177l-156 239h205z" />
    <glyph glyph-name="Emacronacute" unicode="&#x1e16;" horiz-adv-x="1158" 
d="M1041 223l-46 -223h-935l307 1443h935l-47 -223h-673l-84 -383h637l-44 -210h-636l-88 -404h674zM1194 1597h-670l29 138h670zM816 1863l229 239h229l-257 -239h-201z" />
    <glyph glyph-name="Etilde" unicode="&#x1ebc;" horiz-adv-x="1158" 
d="M1041 223l-46 -223h-935l307 1443h935l-47 -223h-673l-84 -383h637l-44 -210h-636l-88 -404h674zM1005 1546c-137 0 -166 140 -245 140c-44 0 -83 -45 -100 -127h-145c31 166 129 268 251 268c143 0 169 -141 245 -141c42 0 79 44 98 130h146
c-34 -164 -132 -270 -250 -270z" />
    <glyph glyph-name="Ecircumflexbelow" unicode="&#x1e18;" horiz-adv-x="1158" 
d="M1041 223l-46 -223h-935l307 1443h935l-47 -223h-673l-84 -383h637l-44 -210h-636l-88 -404h674zM602 -165l208 -311h-193l-124 192h-7l-206 -192h-209l340 311h191z" />
    <glyph glyph-name="Ebreve" unicode="&#x114;" horiz-adv-x="1158" 
d="M1041 223l-46 -223h-935l307 1443h935l-47 -223h-673l-84 -383h637l-44 -210h-636l-88 -404h674zM570 1856h159c-4 -13 -7 -29 -7 -45c0 -85 56 -136 151 -136c109 0 197 69 223 181h163c-43 -190 -191 -316 -410 -316c-174 0 -288 102 -288 246c0 25 3 49 9 70z" />
    <glyph glyph-name="Etildebelow" unicode="&#x1e1a;" horiz-adv-x="1158" 
d="M1041 223l-46 -223h-935l307 1443h935l-47 -223h-673l-84 -383h637l-44 -210h-636l-88 -404h674zM611 -450c-137 0 -166 140 -245 140c-44 0 -83 -45 -100 -127h-145c31 166 129 268 251 268c143 0 169 -141 245 -141c42 0 79 44 98 130h146
c-34 -164 -132 -270 -250 -270z" />
    <glyph glyph-name="Edotaccent" unicode="&#x116;" horiz-adv-x="1158" 
d="M1041 223l-46 -223h-935l307 1443h935l-47 -223h-673l-84 -383h637l-44 -210h-636l-88 -404h674zM889 1608c-79 0 -141 64 -141 141c0 78 62 142 141 142c78 0 140 -64 140 -142c0 -77 -62 -141 -140 -141z" />
    <glyph glyph-name="Ecedilla" unicode="&#x228;" horiz-adv-x="1158" 
d="M1255 1220h-673l-84 -383h637l-44 -210h-636l-88 -404h674l-46 -223h-368l-74 -118c110 -2 173 -55 173 -146c0 -125 -111 -211 -272 -211c-60 0 -127 10 -165 24l27 130c38 -13 84 -20 130 -20c78 0 121 22 121 61s-41 56 -141 56h-59l21 91l82 133h-410l307 1443h935z
" />
    <glyph glyph-name="Ecedillabreve" unicode="&#x1e1c;" horiz-adv-x="1158" 
d="M1096 1856h163c-43 -190 -191 -316 -410 -316c-174 0 -288 102 -288 246c0 25 3 49 9 70h159c-4 -13 -7 -29 -7 -45c0 -85 56 -136 151 -136c109 0 197 69 223 181zM1255 1220h-673l-84 -383h637l-44 -210h-636l-88 -404h674l-46 -223h-368l-74 -118
c110 -2 173 -55 173 -146c0 -125 -111 -211 -272 -211c-60 0 -127 10 -165 24l27 130c38 -13 84 -20 130 -20c78 0 121 22 121 61s-41 56 -141 56h-59l21 91l82 133h-410l307 1443h935z" />
    <glyph glyph-name="Eogonek" unicode="&#x118;" horiz-adv-x="1158" 
d="M60 0l307 1443h935l-47 -223h-673l-84 -383h637l-44 -210h-636l-89 -404h675l-44 -214l-29 -12c-144 -70 -227 -151 -227 -219c0 -46 36 -73 99 -73c27 0 55 4 73 12l-30 -145c-25 -13 -77 -22 -132 -22c-126 0 -211 67 -211 169c0 99 84 204 223 277v4h-703z" />
    <glyph glyph-name="F" unicode="F" horiz-adv-x="1111" 
d="M326 0h-266l307 1443h921l-47 -223h-654l-91 -420h598l-45 -215h-598z" />
    <glyph glyph-name="Fdotaccent" unicode="&#x1e1e;" horiz-adv-x="1111" 
d="M326 0h-266l307 1443h921l-47 -223h-654l-91 -420h598l-45 -215h-598zM890 1608c-79 0 -141 64 -141 141c0 78 62 142 141 142c78 0 140 -64 140 -142c0 -77 -62 -141 -140 -141z" />
    <glyph glyph-name="G" unicode="G" horiz-adv-x="1481" 
d="M1488 755l-40 -198c-74 -372 -326 -581 -676 -581c-379 0 -611 254 -611 625c0 431 262 866 766 866c348 0 574 -213 580 -487c0 -6 -1 -14 -1 -20h-253c-12 169 -136 282 -330 282c-343 0 -499 -323 -499 -631c0 -246 128 -411 364 -411c200 0 357 128 398 318l7 36
h-346l42 201h599z" />
    <glyph glyph-name="Gacute" unicode="&#x1f4;" horiz-adv-x="1481" 
d="M1488 755l-40 -198c-74 -372 -326 -581 -676 -581c-379 0 -611 254 -611 625c0 431 262 866 766 866c348 0 574 -213 580 -487c0 -6 -1 -14 -1 -20h-253c-12 169 -136 282 -330 282c-343 0 -499 -323 -499 -631c0 -246 128 -411 364 -411c200 0 357 128 398 318l7 36
h-346l42 201h599zM1059 1558h-213l287 300h254z" />
    <glyph glyph-name="Gcaron" unicode="&#x1e6;" horiz-adv-x="1481" 
d="M1488 755l-40 -198c-74 -372 -326 -581 -676 -581c-379 0 -611 254 -611 625c0 431 262 866 766 866c348 0 574 -213 580 -487c0 -6 -1 -14 -1 -20h-253c-12 169 -136 282 -330 282c-343 0 -499 -323 -499 -631c0 -246 128 -411 364 -411c200 0 357 128 398 318l7 36
h-346l42 201h599zM857 1552l-208 311h193l125 -192h7l205 192h210l-340 -311h-192z" />
    <glyph glyph-name="Gcircumflex" unicode="&#x11c;" horiz-adv-x="1481" 
d="M1488 755l-40 -198c-74 -372 -326 -581 -676 -581c-379 0 -611 254 -611 625c0 431 262 866 766 866c348 0 574 -213 580 -487c0 -6 -1 -14 -1 -20h-253c-12 169 -136 282 -330 282c-343 0 -499 -323 -499 -631c0 -246 128 -411 364 -411c200 0 357 128 398 318l7 36
h-346l42 201h599zM1103 1863l208 -311h-193l-124 192h-7l-206 -192h-209l340 311h191z" />
    <glyph glyph-name="Gbreve" unicode="&#x11e;" horiz-adv-x="1481" 
d="M1488 755l-40 -198c-74 -372 -326 -581 -676 -581c-379 0 -611 254 -611 625c0 431 262 866 766 866c348 0 574 -213 580 -487c0 -6 -1 -14 -1 -20h-253c-12 169 -136 282 -330 282c-343 0 -499 -323 -499 -631c0 -246 128 -411 364 -411c200 0 357 128 398 318l7 36
h-346l42 201h599zM670 1856h159c-4 -13 -7 -29 -7 -45c0 -85 56 -136 151 -136c109 0 197 69 223 181h163c-43 -190 -191 -316 -410 -316c-174 0 -288 102 -288 246c0 25 3 49 9 70z" />
    <glyph glyph-name="Gmacron" unicode="&#x1e20;" horiz-adv-x="1481" 
d="M1488 755l-40 -198c-74 -372 -326 -581 -676 -581c-379 0 -611 254 -611 625c0 431 262 866 766 866c348 0 574 -213 580 -487c0 -6 -1 -14 -1 -20h-253c-12 169 -136 282 -330 282c-343 0 -499 -323 -499 -631c0 -246 128 -411 364 -411c200 0 357 128 398 318l7 36
h-346l42 201h599zM1330 1763l-29 -139h-671l30 139h670z" />
    <glyph glyph-name="Gdotaccent" unicode="&#x120;" horiz-adv-x="1481" 
d="M1488 755l-40 -198c-74 -372 -326 -581 -676 -581c-379 0 -611 254 -611 625c0 431 262 866 766 866c348 0 574 -213 580 -487c0 -6 -1 -14 -1 -20h-253c-12 169 -136 282 -330 282c-343 0 -499 -323 -499 -631c0 -246 128 -411 364 -411c200 0 357 128 398 318l7 36
h-346l42 201h599zM988 1608c-79 0 -141 64 -141 141c0 78 62 142 141 142c78 0 140 -64 140 -142c0 -77 -62 -141 -140 -141z" />
    <glyph glyph-name="Gcommaaccent" unicode="&#x122;" horiz-adv-x="1481" 
d="M1488 755l-40 -198c-74 -372 -326 -581 -676 -581c-379 0 -611 254 -611 625c0 431 262 866 766 866c348 0 574 -213 580 -487c0 -6 -1 -14 -1 -20h-253c-12 169 -136 282 -330 282c-343 0 -499 -323 -499 -631c0 -246 128 -411 364 -411c200 0 357 128 398 318l7 36
h-346l42 201h599zM620 -476h-189l194 346h226z" />
    <glyph glyph-name="H" unicode="H" horiz-adv-x="1479" 
d="M1280 0h-264l134 624h-693l-133 -624h-264l307 1443h264l-128 -598h692l128 598h264z" />
    <glyph glyph-name="Hdieresis" unicode="&#x1e26;" horiz-adv-x="1479" 
d="M1280 0h-264l134 624h-693l-133 -624h-264l307 1443h264l-128 -598h692l128 598h264zM833 1597c-68 0 -122 54 -122 121s54 121 122 121c69 0 123 -54 123 -121s-54 -121 -123 -121zM1220 1597c-68 0 -122 54 -122 121s54 121 122 121s122 -54 122 -121
s-54 -121 -122 -121z" />
    <glyph glyph-name="Hcaron" unicode="&#x21e;" horiz-adv-x="1479" 
d="M1280 0h-264l134 624h-693l-133 -624h-264l307 1443h264l-128 -598h692l128 598h264zM902 1552l-208 311h193l125 -192h7l205 192h210l-340 -311h-192z" />
    <glyph glyph-name="Hcircumflex" unicode="&#x124;" horiz-adv-x="1479" 
d="M1280 0h-264l134 624h-693l-133 -624h-264l307 1443h264l-128 -598h692l128 598h264zM1148 1863l208 -311h-193l-124 192h-7l-206 -192h-209l340 311h191z" />
    <glyph glyph-name="Hdotbelow" unicode="&#x1e24;" horiz-adv-x="1479" 
d="M1280 0h-264l134 624h-693l-133 -624h-264l307 1443h264l-128 -598h692l128 598h264zM621 -450c-79 0 -141 64 -141 141c0 78 62 142 141 142c78 0 140 -64 140 -142c0 -77 -62 -141 -140 -141z" />
    <glyph glyph-name="Hdotaccent" unicode="&#x1e22;" horiz-adv-x="1479" 
d="M1280 0h-264l134 624h-693l-133 -624h-264l307 1443h264l-128 -598h692l128 598h264zM1034 1608c-79 0 -141 64 -141 141c0 78 62 142 141 142c78 0 140 -64 140 -142c0 -77 -62 -141 -140 -141z" />
    <glyph glyph-name="Hbrevebelow" unicode="&#x1e2a;" horiz-adv-x="1479" 
d="M1280 0h-264l134 624h-693l-133 -624h-264l307 1443h264l-128 -598h692l128 598h264zM312 -151h159c-3 -13 -6 -29 -6 -45c0 -85 56 -136 150 -136c110 0 198 69 223 181h163c-43 -190 -191 -316 -410 -316c-173 0 -288 103 -288 246c0 25 4 49 9 70z" />
    <glyph glyph-name="Hcedilla" unicode="&#x1e28;" horiz-adv-x="1479" 
d="M1323 1443h264l-307 -1443h-264l134 624h-693l-133 -624l-74 -118c110 -2 173 -55 173 -146c0 -125 -111 -211 -272 -211c-60 0 -127 10 -165 24l27 130c38 -13 84 -20 130 -20c78 0 121 22 121 61s-41 56 -141 56h-59l21 91l82 133h-107l307 1443h264l-128 -598h692z
" />
    <glyph glyph-name="Hbar" unicode="&#x126;" horiz-adv-x="1479" 
d="M1195 845l44 207h-692l-44 -207h692zM1650 1251l-42 -199h-104l-224 -1052h-264l134 624h-693l-133 -624h-264l224 1052h-107l41 199h108l41 192h264l-41 -192h692l41 192h264l-41 -192h104z" />
    <glyph glyph-name="I" unicode="I" horiz-adv-x="520" 
d="M321 0h-261l307 1443h261z" />
    <glyph glyph-name="Idotaccent" unicode="&#x130;" horiz-adv-x="520" 
d="M321 0h-261l307 1443h261zM561 1608c-79 0 -141 64 -141 141c0 78 62 142 141 142c78 0 140 -64 140 -142c0 -77 -62 -141 -140 -141z" />
    <glyph glyph-name="Igrave" unicode="&#xcc;" horiz-adv-x="520" 
d="M321 0h-261l307 1443h261zM419 1558l-201 300h229l161 -300h-189z" />
    <glyph glyph-name="Idblgrave" unicode="&#x208;" horiz-adv-x="520" 
d="M321 0h-261l307 1443h261zM251 1558l-201 300h229l161 -300h-189zM619 1558l-202 300h230l161 -300h-189z" />
    <glyph glyph-name="Iacute" unicode="&#xcd;" horiz-adv-x="520" 
d="M321 0h-261l307 1443h261zM631 1558h-213l287 300h254z" />
    <glyph glyph-name="Icircumflex" unicode="&#xce;" horiz-adv-x="520" 
d="M321 0h-261l307 1443h261zM675 1863l208 -311h-193l-124 192h-7l-206 -192h-209l340 311h191z" />
    <glyph glyph-name="Icaron" unicode="&#x1cf;" horiz-adv-x="520" 
d="M321 0h-261l307 1443h261zM429 1552l-208 311h193l125 -192h7l205 192h210l-340 -311h-192z" />
    <glyph glyph-name="Idieresis" unicode="&#xcf;" horiz-adv-x="520" 
d="M321 0h-261l307 1443h261zM360 1597c-68 0 -122 54 -122 121s54 121 122 121c69 0 123 -54 123 -121s-54 -121 -123 -121zM747 1597c-68 0 -122 54 -122 121s54 121 122 121s122 -54 122 -121s-54 -121 -122 -121z" />
    <glyph glyph-name="Idieresisacute" unicode="&#x1e2e;" horiz-adv-x="520" 
d="M321 0h-261l307 1443h261zM470 1863l229 239h229l-257 -239h-201zM361 1556c-67 0 -119 52 -119 118s52 118 119 118c66 0 118 -52 118 -118s-52 -118 -118 -118zM735 1556c-66 0 -118 52 -118 118s52 118 118 118c67 0 119 -52 119 -118s-52 -118 -119 -118z" />
    <glyph glyph-name="Ibreve" unicode="&#x12c;" horiz-adv-x="520" 
d="M321 0h-261l307 1443h261zM242 1856h159c-4 -13 -7 -29 -7 -45c0 -85 56 -136 151 -136c109 0 197 69 223 181h163c-43 -190 -191 -316 -410 -316c-174 0 -288 102 -288 246c0 25 3 49 9 70z" />
    <glyph glyph-name="Idotbelow" unicode="&#x1eca;" horiz-adv-x="520" 
d="M321 0h-261l307 1443h261zM122 -450c-79 0 -141 64 -141 141c0 78 62 142 141 142c78 0 140 -64 140 -142c0 -77 -62 -141 -140 -141z" />
    <glyph glyph-name="Iinvertedbreve" unicode="&#x20a;" horiz-adv-x="520" 
d="M321 0h-261l307 1443h261zM863 1540h-159c3 10 6 26 6 42c0 85 -56 138 -150 138c-110 0 -198 -71 -223 -180h-163c43 187 190 316 409 316c174 0 288 -105 288 -249c0 -25 -3 -49 -8 -67z" />
    <glyph glyph-name="Imacron" unicode="&#x12a;" horiz-adv-x="520" 
d="M321 0h-261l307 1443h261zM902 1763l-29 -139h-671l30 139h670z" />
    <glyph glyph-name="Itildebelow" unicode="&#x1e2c;" horiz-adv-x="520" 
d="M321 0h-261l307 1443h261zM251 -450c-137 0 -166 140 -245 140c-44 0 -83 -45 -100 -127h-145c31 166 129 268 251 268c143 0 169 -141 245 -141c42 0 79 44 98 130h146c-34 -164 -132 -270 -250 -270z" />
    <glyph glyph-name="Ihookabove" unicode="&#x1ec8;" horiz-adv-x="520" 
d="M321 0h-261l307 1443h261zM376 1778l28 121c27 11 77 18 115 18c128 0 209 -63 209 -160c0 -105 -87 -198 -227 -239l-55 101c71 18 118 59 118 107c0 40 -36 65 -94 65c-32 0 -67 -5 -94 -13z" />
    <glyph glyph-name="Itilde" unicode="&#x128;" horiz-adv-x="520" 
d="M321 0h-261l307 1443h261zM677 1546c-137 0 -166 140 -245 140c-44 0 -83 -45 -100 -127h-145c31 166 129 268 251 268c143 0 169 -141 245 -141c42 0 79 44 98 130h146c-34 -164 -132 -270 -250 -270z" />
    <glyph glyph-name="Iogonek" unicode="&#x12e;" horiz-adv-x="520" 
d="M120 -450c-126 0 -211 68 -211 170c0 85 57 173 169 267l-20 1l309 1455h261l-305 -1431l-25 -13c-129 -75 -188 -150 -188 -217c0 -50 37 -77 98 -77c31 0 59 4 74 12l-30 -145c-26 -13 -77 -22 -132 -22z" />
    <glyph glyph-name="I.1" horiz-adv-x="961" 
d="M1075 1231h-272l-217 -1019h271l-44 -212h-272h-261h-271l45 212h271l217 1019h-270l44 212h271h261h272z" />
    <glyph glyph-name="Idotaccent.1" horiz-adv-x="961" 
d="M780 1608c-79 0 -141 64 -141 141c0 78 62 142 141 142c78 0 140 -64 140 -142c0 -77 -62 -141 -140 -141zM1075 1231h-272l-217 -1019h271l-44 -212h-272h-261h-271l45 212h271l217 1019h-270l44 212h271h261h272z" />
    <glyph glyph-name="Igrave.1" horiz-adv-x="961" 
d="M827 1558h-189l-201 300h229zM1075 1231h-272l-217 -1019h271l-44 -212h-272h-261h-271l45 212h271l217 1019h-270l44 212h271h261h272z" />
    <glyph glyph-name="Idblgrave.1" horiz-adv-x="961" 
d="M1027 1558h-189l-202 300h230zM659 1558h-189l-201 300h229zM1075 1231h-272l-217 -1019h271l-44 -212h-272h-261h-271l45 212h271l217 1019h-270l44 212h271h261h272z" />
    <glyph glyph-name="Iacute.1" horiz-adv-x="961" 
d="M1178 1858l-328 -300h-213l287 300h254zM587 1443h261h272l-45 -212h-272l-217 -1019h271l-44 -212h-272h-261h-271l45 212h271l217 1019h-270l44 212h271z" />
    <glyph glyph-name="Icircumflex.1" horiz-adv-x="961" 
d="M778 1744l-206 -192h-209l340 311h191l208 -311h-193l-124 192h-7zM1075 1231h-272l-217 -1019h271l-44 -212h-272h-261h-271l45 212h271l217 1019h-270l44 212h271h261h272z" />
    <glyph glyph-name="Icaron.1" horiz-adv-x="961" 
d="M840 1552h-192l-208 311h193l125 -192h7l205 192h210zM587 1443h261h272l-45 -212h-272l-217 -1019h271l-44 -212h-272h-261h-271l45 212h271l217 1019h-270l44 212h271z" />
    <glyph glyph-name="Idieresis.1" horiz-adv-x="961" 
d="M966 1597c-68 0 -122 54 -122 121s54 121 122 121s122 -54 122 -121s-54 -121 -122 -121zM579 1597c-68 0 -122 54 -122 121s54 121 122 121c69 0 123 -54 123 -121s-54 -121 -123 -121zM1075 1231h-272l-217 -1019h271l-44 -212h-272h-261h-271l45 212h271l217 1019
h-270l44 212h271h261h272z" />
    <glyph glyph-name="Idieresisacute.1" horiz-adv-x="961" 
d="M1147 2102l-257 -239h-201l229 239h229zM836 1674c0 66 52 118 118 118c67 0 119 -52 119 -118s-52 -118 -119 -118c-66 0 -118 52 -118 118zM580 1556c-67 0 -119 52 -119 118s52 118 119 118c66 0 118 -52 118 -118s-52 -118 -118 -118zM587 1443h261h272l-45 -212
h-272l-217 -1019h271l-44 -212h-272h-261h-271l45 212h271l217 1019h-270l44 212h271z" />
    <glyph glyph-name="Ibreve.1" horiz-adv-x="961" 
d="M987 1856h163c-43 -190 -191 -316 -410 -316c-174 0 -288 102 -288 246c0 25 3 49 9 70h159c-4 -13 -7 -29 -7 -45c0 -85 56 -136 151 -136c109 0 197 69 223 181zM587 1443h261h272l-45 -212h-272l-217 -1019h271l-44 -212h-272h-261h-271l45 212h271l217 1019h-270
l44 212h271z" />
    <glyph glyph-name="Idotbelow.1" horiz-adv-x="961" 
d="M344 -167c78 0 140 -64 140 -142c0 -77 -62 -141 -140 -141c-79 0 -141 64 -141 141c0 78 62 142 141 142zM1075 1231h-272l-217 -1019h271l-44 -212h-272h-261h-271l45 212h271l217 1019h-270l44 212h271h261h272z" />
    <glyph glyph-name="Iinvertedbreve.1" horiz-adv-x="961" 
d="M1082 1540h-159c3 10 6 26 6 42c0 85 -56 138 -150 138c-110 0 -198 -71 -223 -180h-163c43 187 190 316 409 316c174 0 288 -105 288 -249c0 -25 -3 -49 -8 -67zM1075 1231h-272l-217 -1019h271l-44 -212h-272h-261h-271l45 212h271l217 1019h-270l44 212h271h261h272z
" />
    <glyph glyph-name="Imacron.1" horiz-adv-x="961" 
d="M1121 1763l-29 -139h-671l30 139h670zM587 1443h261h272l-45 -212h-272l-217 -1019h271l-44 -212h-272h-261h-271l45 212h271l217 1019h-270l44 212h271z" />
    <glyph glyph-name="Itildebelow.1" horiz-adv-x="961" 
d="M128 -437h-145c31 166 129 268 251 268c143 0 169 -141 245 -141c42 0 79 44 98 130h146c-34 -164 -132 -270 -250 -270c-137 0 -166 140 -245 140c-44 0 -83 -45 -100 -127zM1075 1231h-272l-217 -1019h271l-44 -212h-272h-261h-271l45 212h271l217 1019h-270l44 212
h271h261h272z" />
    <glyph glyph-name="Ihookabove.1" horiz-adv-x="961" 
d="M720 1518l-55 101c71 18 118 59 118 107c0 40 -36 65 -94 65c-32 0 -67 -5 -94 -13l28 121c27 11 77 18 115 18c128 0 209 -63 209 -160c0 -105 -87 -198 -227 -239zM1075 1231h-272l-217 -1019h271l-44 -212h-272h-261h-271l45 212h271l217 1019h-270l44 212h271h261
h272z" />
    <glyph glyph-name="Itilde.1" horiz-adv-x="961" 
d="M1000 1816h146c-34 -164 -132 -270 -250 -270c-137 0 -166 140 -245 140c-44 0 -83 -45 -100 -127h-145c31 166 129 268 251 268c143 0 169 -141 245 -141c42 0 79 44 98 130zM587 1443h261h272l-45 -212h-272l-217 -1019h271l-44 -212h-272h-261h-271l45 212h271
l217 1019h-270l44 212h271z" />
    <glyph glyph-name="Iogonek.1" horiz-adv-x="961" 
d="M272 1231l44 212h804l-45 -212h-271l-219 -1019h272l-42 -203l-29 -12c-139 -68 -227 -148 -227 -219c0 -46 35 -73 98 -73c29 0 57 4 74 12l-30 -145c-26 -13 -77 -22 -132 -22c-125 0 -211 66 -211 169c0 100 85 204 223 277v4h-572l45 212h271l218 1019h-271z" />
    <glyph glyph-name="J" unicode="J" horiz-adv-x="1100" 
d="M56 366c0 12 1 29 1 40h253v-8c0 -115 75 -186 195 -186c122 0 196 76 229 230l213 1001h261l-222 -1044c-57 -271 -227 -423 -494 -423c-257 0 -436 162 -436 390z" />
    <glyph glyph-name="Jcircumflex" unicode="&#x134;" horiz-adv-x="1100" 
d="M56 366c0 12 1 29 1 40h253v-8c0 -115 75 -186 195 -186c122 0 196 76 229 230l213 1001h261l-222 -1044c-57 -271 -227 -423 -494 -423c-257 0 -436 162 -436 390zM1255 1863l208 -311h-193l-124 192h-7l-206 -192h-209l340 311h191z" />
    <glyph glyph-name="K" unicode="K" horiz-adv-x="1322" 
d="M321 0h-261l307 1443h261l-142 -662h5l708 662h315l-692 -657l416 -786h-291l-334 629l-196 -179z" />
    <glyph glyph-name="Kacute" unicode="&#x1e30;" horiz-adv-x="1322" 
d="M321 0h-261l307 1443h261l-142 -662h5l708 662h315l-692 -657l416 -786h-291l-334 629l-196 -179zM1012 1558h-213l287 300h254z" />
    <glyph glyph-name="Kcaron" unicode="&#x1e8;" horiz-adv-x="1322" 
d="M321 0h-261l307 1443h261l-142 -662h5l708 662h315l-692 -657l416 -786h-291l-334 629l-196 -179zM810 1552l-208 311h193l125 -192h7l205 192h210l-340 -311h-192z" />
    <glyph glyph-name="Kdotbelow" unicode="&#x1e32;" horiz-adv-x="1322" 
d="M321 0h-261l307 1443h261l-142 -662h5l708 662h315l-692 -657l416 -786h-291l-334 629l-196 -179zM550 -450c-79 0 -141 64 -141 141c0 78 62 142 141 142c78 0 140 -64 140 -142c0 -77 -62 -141 -140 -141z" />
    <glyph glyph-name="Klinebelow" unicode="&#x1e34;" horiz-adv-x="1322" 
d="M321 0h-261l307 1443h261l-142 -662h5l708 662h315l-692 -657l416 -786h-291l-334 629l-196 -179zM903 -239l-29 -139h-671l30 139h670z" />
    <glyph glyph-name="Kcommaaccent" unicode="&#x136;" horiz-adv-x="1322" 
d="M321 0h-261l307 1443h261l-142 -662h5l708 662h315l-692 -657l416 -786h-291l-334 629l-196 -179zM462 -476h-189l194 346h226z" />
    <glyph glyph-name="L" unicode="L" horiz-adv-x="1102" 
d="M1027 226l-46 -226h-921l307 1443h261l-260 -1217h659z" />
    <glyph glyph-name="Lacute" unicode="&#x139;" horiz-adv-x="1102" 
d="M1027 226l-46 -226h-921l307 1443h261l-260 -1217h659zM630 1558h-213l287 300h254z" />
    <glyph glyph-name="Lcircumflexbelow" unicode="&#x1e3c;" horiz-adv-x="1102" 
d="M1027 226l-46 -226h-921l307 1443h261l-260 -1217h659zM578 -165l208 -311h-193l-124 192h-7l-206 -192h-209l340 311h191z" />
    <glyph glyph-name="Ldotbelow" unicode="&#x1e36;" horiz-adv-x="1102" 
d="M1027 226l-46 -226h-921l307 1443h261l-260 -1217h659zM458 -450c-79 0 -141 64 -141 141c0 78 62 142 141 142c78 0 140 -64 140 -142c0 -77 -62 -141 -140 -141z" />
    <glyph glyph-name="Ldotbelowmacron" unicode="&#x1e38;" horiz-adv-x="1102" 
d="M1027 226l-46 -226h-921l307 1443h261l-260 -1217h659zM458 -450c-79 0 -141 64 -141 141c0 78 62 142 141 142c78 0 140 -64 140 -142c0 -77 -62 -141 -140 -141zM901 1763l-29 -139h-671l30 139h670z" />
    <glyph glyph-name="Llinebelow" unicode="&#x1e3a;" horiz-adv-x="1102" 
d="M1027 226l-46 -226h-921l307 1443h261l-260 -1217h659zM811 -239l-29 -139h-671l30 139h670z" />
    <glyph glyph-name="Lcommaaccent" unicode="&#x13b;" horiz-adv-x="1102" 
d="M1027 226l-46 -226h-921l307 1443h261l-260 -1217h659zM370 -476h-189l194 346h226z" />
    <glyph glyph-name="Lcaron" unicode="&#x13d;" horiz-adv-x="1102" 
d="M926 1443h218l-155 -498h-169zM1027 226l-46 -226h-921l307 1443h261l-260 -1217h659z" />
    <glyph glyph-name="Lslash" unicode="&#x141;" horiz-adv-x="1102" 
d="M368 226h659l-46 -226h-921l109 512l-143 -67l46 220l144 68l151 710h261l-123 -574l314 147l-46 -221l-315 -148z" />
    <glyph glyph-name="M" unicode="M" horiz-adv-x="1752" 
d="M295 0h-234l306 1443h293l203 -1107h6l669 1107h321l-307 -1443h-235l225 1048h-8l-637 -1041h-182l-190 1041h-7z" />
    <glyph glyph-name="Macute" unicode="&#x1e3e;" horiz-adv-x="1752" 
d="M295 0h-234l306 1443h293l203 -1107h6l669 1107h321l-307 -1443h-235l225 1048h-8l-637 -1041h-182l-190 1041h-7zM1200 1558h-213l287 300h254z" />
    <glyph glyph-name="Mdotaccent" unicode="&#x1e40;" horiz-adv-x="1752" 
d="M295 0h-234l306 1443h293l203 -1107h6l669 1107h321l-307 -1443h-235l225 1048h-8l-637 -1041h-182l-190 1041h-7zM1129 1608c-79 0 -141 64 -141 141c0 78 62 142 141 142c78 0 140 -64 140 -142c0 -77 -62 -141 -140 -141z" />
    <glyph glyph-name="Mdotbelow" unicode="&#x1e42;" horiz-adv-x="1752" 
d="M295 0h-234l306 1443h293l203 -1107h6l669 1107h321l-307 -1443h-235l225 1048h-8l-637 -1041h-182l-190 1041h-7zM740 -450c-79 0 -141 64 -141 141c0 78 62 142 141 142c78 0 140 -64 140 -142c0 -77 -62 -141 -140 -141z" />
    <glyph glyph-name="N" unicode="N" horiz-adv-x="1458" 
d="M315 0h-255l307 1443h228l488 -1040h5l223 1040h254l-307 -1443h-227l-488 1040h-6z" />
    <glyph glyph-name="Ngrave" unicode="&#x1f8;" horiz-adv-x="1458" 
d="M315 0h-255l307 1443h228l488 -1040h5l223 1040h254l-307 -1443h-227l-488 1040h-6zM880 1558l-201 300h229l161 -300h-189z" />
    <glyph glyph-name="Nacute" unicode="&#x143;" horiz-adv-x="1458" 
d="M315 0h-255l307 1443h228l488 -1040h5l223 1040h254l-307 -1443h-227l-488 1040h-6zM1092 1558h-213l287 300h254z" />
    <glyph glyph-name="Ntilde" unicode="&#xd1;" horiz-adv-x="1458" 
d="M315 0h-255l307 1443h228l488 -1040h5l223 1040h254l-307 -1443h-227l-488 1040h-6zM1138 1546c-137 0 -166 140 -245 140c-44 0 -83 -45 -100 -127h-145c31 166 129 268 251 268c143 0 169 -141 245 -141c42 0 79 44 98 130h146c-34 -164 -132 -270 -250 -270z" />
    <glyph glyph-name="Ndotbelow" unicode="&#x1e46;" horiz-adv-x="1458" 
d="M315 0h-255l307 1443h228l488 -1040h5l223 1040h254l-307 -1443h-227l-488 1040h-6zM603 -450c-79 0 -141 64 -141 141c0 78 62 142 141 142c78 0 140 -64 140 -142c0 -77 -62 -141 -140 -141z" />
    <glyph glyph-name="Ndotaccent" unicode="&#x1e44;" horiz-adv-x="1458" 
d="M315 0h-255l307 1443h228l488 -1040h5l223 1040h254l-307 -1443h-227l-488 1040h-6zM1021 1608c-79 0 -141 64 -141 141c0 78 62 142 141 142c78 0 140 -64 140 -142c0 -77 -62 -141 -140 -141z" />
    <glyph glyph-name="Ncaron" unicode="&#x147;" horiz-adv-x="1458" 
d="M315 0h-255l307 1443h228l488 -1040h5l223 1040h254l-307 -1443h-227l-488 1040h-6zM890 1552l-208 311h193l125 -192h7l205 192h210l-340 -311h-192z" />
    <glyph glyph-name="Ncircumflexbelow" unicode="&#x1e4a;" horiz-adv-x="1458" 
d="M315 0h-255l307 1443h228l488 -1040h5l223 1040h254l-307 -1443h-227l-488 1040h-6zM723 -165l208 -311h-193l-124 192h-7l-206 -192h-209l340 311h191z" />
    <glyph glyph-name="Nlinebelow" unicode="&#x1e48;" horiz-adv-x="1458" 
d="M315 0h-255l307 1443h228l488 -1040h5l223 1040h254l-307 -1443h-227l-488 1040h-6zM956 -239l-29 -139h-671l30 139h670z" />
    <glyph glyph-name="Ncommaaccent" unicode="&#x145;" horiz-adv-x="1458" 
d="M315 0h-255l307 1443h228l488 -1040h5l223 1040h254l-307 -1443h-227l-488 1040h-6zM515 -476h-189l194 346h226z" />
    <glyph glyph-name="O" unicode="O" horiz-adv-x="1540" 
d="M924 1241c-291 0 -500 -282 -500 -628c0 -251 140 -411 359 -411c291 0 501 281 501 628c0 251 -141 411 -360 411zM779 -24c-378 0 -618 255 -618 624c0 492 328 867 766 867c381 0 620 -255 620 -624c0 -493 -330 -867 -768 -867z" />
    <glyph glyph-name="Odieresis" unicode="&#xd6;" horiz-adv-x="1540" 
d="M924 1241c-291 0 -500 -282 -500 -628c0 -251 140 -411 359 -411c291 0 501 281 501 628c0 251 -141 411 -360 411zM779 -24c-378 0 -618 255 -618 624c0 492 328 867 766 867c381 0 620 -255 620 -624c0 -493 -330 -867 -768 -867zM806 1597c-68 0 -122 54 -122 121
s54 121 122 121c69 0 123 -54 123 -121s-54 -121 -123 -121zM1193 1597c-68 0 -122 54 -122 121s54 121 122 121s122 -54 122 -121s-54 -121 -122 -121z" />
    <glyph glyph-name="Oslash" unicode="&#xd8;" horiz-adv-x="1540" 
d="M1257 1004l-714 -714c61 -56 143 -88 240 -88c291 0 501 281 501 628c0 64 -9 123 -27 174zM451 439l713 713c-61 57 -143 89 -240 89c-291 0 -500 -282 -500 -628c0 -64 9 -123 27 -174zM1609 1356l-156 -156c61 -98 94 -220 94 -357c0 -493 -330 -867 -768 -867
c-167 0 -308 50 -412 138l-149 -149l-119 122l156 156c-61 99 -94 220 -94 357c0 492 328 867 766 867c169 0 310 -50 414 -138l149 149z" />
    <glyph glyph-name="Otilde" unicode="&#xd5;" horiz-adv-x="1540" 
d="M924 1241c-291 0 -500 -282 -500 -628c0 -251 140 -411 359 -411c291 0 501 281 501 628c0 251 -141 411 -360 411zM779 -24c-378 0 -618 255 -618 624c0 492 328 867 766 867c381 0 620 -255 620 -624c0 -493 -330 -867 -768 -867zM1123 1546c-137 0 -166 140 -245 140
c-44 0 -83 -45 -100 -127h-145c31 166 129 268 251 268c143 0 169 -141 245 -141c42 0 79 44 98 130h146c-34 -164 -132 -270 -250 -270z" />
    <glyph glyph-name="Oacute" unicode="&#xd3;" horiz-adv-x="1540" 
d="M924 1241c-291 0 -500 -282 -500 -628c0 -251 140 -411 359 -411c291 0 501 281 501 628c0 251 -141 411 -360 411zM779 -24c-378 0 -618 255 -618 624c0 492 328 867 766 867c381 0 620 -255 620 -624c0 -493 -330 -867 -768 -867zM1077 1558h-213l287 300h254z" />
    <glyph glyph-name="Ocircumflex" unicode="&#xd4;" horiz-adv-x="1540" 
d="M924 1241c-291 0 -500 -282 -500 -628c0 -251 140 -411 359 -411c291 0 501 281 501 628c0 251 -141 411 -360 411zM779 -24c-378 0 -618 255 -618 624c0 492 328 867 766 867c381 0 620 -255 620 -624c0 -493 -330 -867 -768 -867zM1121 1863l208 -311h-193l-124 192h-7
l-206 -192h-209l340 311h191z" />
    <glyph glyph-name="Ograve" unicode="&#xd2;" horiz-adv-x="1540" 
d="M924 1241c-291 0 -500 -282 -500 -628c0 -251 140 -411 359 -411c291 0 501 281 501 628c0 251 -141 411 -360 411zM779 -24c-378 0 -618 255 -618 624c0 492 328 867 766 867c381 0 620 -255 620 -624c0 -493 -330 -867 -768 -867zM865 1558l-201 300h229l161 -300h-189
z" />
    <glyph glyph-name="Ocircumflexhookabove" unicode="&#x1ed4;" horiz-adv-x="1540" 
d="M924 1241c-291 0 -500 -282 -500 -628c0 -251 140 -411 359 -411c291 0 501 281 501 628c0 251 -141 411 -360 411zM779 -24c-378 0 -618 255 -618 624c0 492 328 867 766 867c381 0 620 -255 620 -624c0 -493 -330 -867 -768 -867zM914 1813h203l214 -274h-195l-128 167
h-6l-200 -167h-220zM1140 1975l28 116c25 11 72 18 110 18c121 0 198 -60 198 -153c0 -101 -75 -182 -190 -221l-67 93c58 16 100 52 100 97c0 38 -35 63 -90 63c-31 0 -60 -4 -89 -13z" />
    <glyph glyph-name="Ocircumflexgrave" unicode="&#x1ed2;" horiz-adv-x="1540" 
d="M924 1241c-291 0 -500 -282 -500 -628c0 -251 140 -411 359 -411c291 0 501 281 501 628c0 251 -141 411 -360 411zM779 -24c-378 0 -618 255 -618 624c0 492 328 867 766 867c381 0 620 -255 620 -624c0 -493 -330 -867 -768 -867zM914 1813h203l214 -274h-195l-128 167
h-6l-200 -167h-220zM1383 1863h-177l-157 239h206z" />
    <glyph glyph-name="Odotbelow" unicode="&#x1ecc;" horiz-adv-x="1540" 
d="M924 1241c-291 0 -500 -282 -500 -628c0 -251 140 -411 359 -411c291 0 501 281 501 628c0 251 -141 411 -360 411zM779 -24c-378 0 -618 255 -618 624c0 492 328 867 766 867c381 0 620 -255 620 -624c0 -493 -330 -867 -768 -867zM708 -450c-79 0 -141 64 -141 141
c0 78 62 142 141 142c78 0 140 -64 140 -142c0 -77 -62 -141 -140 -141z" />
    <glyph glyph-name="Odblgrave" unicode="&#x20c;" horiz-adv-x="1540" 
d="M924 1241c-291 0 -500 -282 -500 -628c0 -251 140 -411 359 -411c291 0 501 281 501 628c0 251 -141 411 -360 411zM779 -24c-378 0 -618 255 -618 624c0 492 328 867 766 867c381 0 620 -255 620 -624c0 -493 -330 -867 -768 -867zM697 1558l-201 300h229l161 -300h-189
zM1065 1558l-202 300h230l161 -300h-189z" />
    <glyph glyph-name="Otildeacute" unicode="&#x1e4c;" horiz-adv-x="1540" 
d="M924 1241c-291 0 -500 -282 -500 -628c0 -251 140 -411 359 -411c291 0 501 281 501 628c0 251 -141 411 -360 411zM779 -24c-378 0 -618 255 -618 624c0 492 328 867 766 867c381 0 620 -255 620 -624c0 -493 -330 -867 -768 -867zM936 1876l227 226h228l-254 -226h-201
zM1112 1539c-137 0 -171 139 -245 139c-44 0 -83 -44 -97 -119h-143c31 162 128 258 251 258c135 0 168 -139 244 -139c43 0 79 44 97 122h143c-31 -160 -131 -261 -250 -261z" />
    <glyph glyph-name="Omacronacute" unicode="&#x1e52;" horiz-adv-x="1540" 
d="M924 1241c-291 0 -500 -282 -500 -628c0 -251 140 -411 359 -411c291 0 501 281 501 628c0 251 -141 411 -360 411zM779 -24c-378 0 -618 255 -618 624c0 492 328 867 766 867c381 0 620 -255 620 -624c0 -493 -330 -867 -768 -867zM1312 1597h-670l29 138h670zM934 1863
l229 239h229l-257 -239h-201z" />
    <glyph glyph-name="Ocircumflextilde" unicode="&#x1ed6;" horiz-adv-x="1540" 
d="M924 1241c-291 0 -500 -282 -500 -628c0 -251 140 -411 359 -411c291 0 501 281 501 628c0 251 -141 411 -360 411zM779 -24c-378 0 -618 255 -618 624c0 492 328 867 766 867c381 0 620 -255 620 -624c0 -493 -330 -867 -768 -867zM1176 1861c-134 0 -170 124 -248 124
c-44 0 -81 -37 -92 -106h-144c28 156 124 244 247 244c133 0 168 -123 247 -123c44 0 78 35 93 108h143c-27 -154 -127 -247 -246 -247zM913 1807h202l216 -268h-195l-129 162h-7l-198 -162h-220z" />
    <glyph glyph-name="Odotaccentmacron" unicode="&#x230;" horiz-adv-x="1540" 
d="M924 1241c-291 0 -500 -282 -500 -628c0 -251 140 -411 359 -411c291 0 501 281 501 628c0 251 -141 411 -360 411zM779 -24c-378 0 -618 255 -618 624c0 492 328 867 766 867c381 0 620 -255 620 -624c0 -493 -330 -867 -768 -867zM997 1563c-74 0 -132 58 -132 130
c0 71 58 129 132 129s131 -58 131 -129c0 -72 -57 -130 -131 -130zM1410 2058l-30 -138h-670l30 138h670z" />
    <glyph glyph-name="Omacrongrave" unicode="&#x1e50;" horiz-adv-x="1540" 
d="M924 1241c-291 0 -500 -282 -500 -628c0 -251 140 -411 359 -411c291 0 501 281 501 628c0 251 -141 411 -360 411zM779 -24c-378 0 -618 255 -618 624c0 492 328 867 766 867c381 0 620 -255 620 -624c0 -493 -330 -867 -768 -867zM1312 1597h-670l29 138h670z
M1124 1863h-177l-156 239h205z" />
    <glyph glyph-name="Ocaron" unicode="&#x1d1;" horiz-adv-x="1540" 
d="M924 1241c-291 0 -500 -282 -500 -628c0 -251 140 -411 359 -411c291 0 501 281 501 628c0 251 -141 411 -360 411zM779 -24c-378 0 -618 255 -618 624c0 492 328 867 766 867c381 0 620 -255 620 -624c0 -493 -330 -867 -768 -867zM875 1552l-208 311h193l125 -192h7
l205 192h210l-340 -311h-192z" />
    <glyph glyph-name="Oslashacute" unicode="&#x1fe;" horiz-adv-x="1540" 
d="M1405 1858l-328 -300h-213l287 300h254zM1257 1004l-714 -714c61 -56 143 -88 240 -88c291 0 501 281 501 628c0 64 -9 123 -27 174zM451 439l713 713c-61 57 -143 89 -240 89c-291 0 -500 -282 -500 -628c0 -64 9 -123 27 -174zM1609 1356l-156 -156
c61 -98 94 -220 94 -357c0 -493 -330 -867 -768 -867c-167 0 -308 50 -412 138l-149 -149l-119 122l156 156c-61 99 -94 220 -94 357c0 492 328 867 766 867c169 0 310 -50 414 -138l149 149z" />
    <glyph glyph-name="Ohungarumlaut" unicode="&#x150;" horiz-adv-x="1540" 
d="M924 1241c-291 0 -500 -282 -500 -628c0 -251 140 -411 359 -411c291 0 501 281 501 628c0 251 -141 411 -360 411zM779 -24c-378 0 -618 255 -618 624c0 492 328 867 766 867c381 0 620 -255 620 -624c0 -493 -330 -867 -768 -867zM1267 1558h-207l287 300h248z
M883 1558h-207l287 300h248z" />
    <glyph glyph-name="Obreve" unicode="&#x14e;" horiz-adv-x="1540" 
d="M924 1241c-291 0 -500 -282 -500 -628c0 -251 140 -411 359 -411c291 0 501 281 501 628c0 251 -141 411 -360 411zM779 -24c-378 0 -618 255 -618 624c0 492 328 867 766 867c381 0 620 -255 620 -624c0 -493 -330 -867 -768 -867zM688 1856h159c-4 -13 -7 -29 -7 -45
c0 -85 56 -136 151 -136c109 0 197 69 223 181h163c-43 -190 -191 -316 -410 -316c-174 0 -288 102 -288 246c0 25 3 49 9 70z" />
    <glyph glyph-name="Oinvertedbreve" unicode="&#x20e;" horiz-adv-x="1540" 
d="M924 1241c-291 0 -500 -282 -500 -628c0 -251 140 -411 359 -411c291 0 501 281 501 628c0 251 -141 411 -360 411zM779 -24c-378 0 -618 255 -618 624c0 492 328 867 766 867c381 0 620 -255 620 -624c0 -493 -330 -867 -768 -867zM1309 1540h-159c3 10 6 26 6 42
c0 85 -56 138 -150 138c-110 0 -198 -71 -223 -180h-163c43 187 190 316 409 316c174 0 288 -105 288 -249c0 -25 -3 -49 -8 -67z" />
    <glyph glyph-name="Ohookabove" unicode="&#x1ece;" horiz-adv-x="1540" 
d="M924 1241c-291 0 -500 -282 -500 -628c0 -251 140 -411 359 -411c291 0 501 281 501 628c0 251 -141 411 -360 411zM779 -24c-378 0 -618 255 -618 624c0 492 328 867 766 867c381 0 620 -255 620 -624c0 -493 -330 -867 -768 -867zM822 1778l28 121c27 11 77 18 115 18
c128 0 209 -63 209 -160c0 -105 -87 -198 -227 -239l-55 101c71 18 118 59 118 107c0 40 -36 65 -94 65c-32 0 -67 -5 -94 -13z" />
    <glyph glyph-name="Odieresismacron" unicode="&#x22a;" horiz-adv-x="1540" 
d="M924 1241c-291 0 -500 -282 -500 -628c0 -251 140 -411 359 -411c291 0 501 281 501 628c0 251 -141 411 -360 411zM779 -24c-378 0 -618 255 -618 624c0 492 328 867 766 867c381 0 620 -255 620 -624c0 -493 -330 -867 -768 -867zM801 1791c69 0 122 -54 122 -122
c0 -67 -53 -121 -122 -121c-68 0 -121 54 -121 121c0 68 53 122 121 122zM1410 2058l-29 -138h-670l29 138h670zM1184 1791c69 0 122 -54 122 -122c0 -67 -53 -121 -122 -121c-68 0 -121 54 -121 121c0 68 53 122 121 122z" />
    <glyph glyph-name="Otildemacron" unicode="&#x22c;" horiz-adv-x="1540" 
d="M924 1241c-291 0 -500 -282 -500 -628c0 -251 140 -411 359 -411c291 0 501 281 501 628c0 251 -141 411 -360 411zM779 -24c-378 0 -618 255 -618 624c0 492 328 867 766 867c381 0 620 -255 620 -624c0 -493 -330 -867 -768 -867zM1410 2058l-30 -138h-670l30 138h670z
M1112 1539c-137 0 -171 139 -245 139c-44 0 -83 -44 -97 -119h-143c31 162 128 258 251 258c135 0 168 -139 244 -139c43 0 79 44 97 122h143c-31 -160 -131 -261 -250 -261z" />
    <glyph glyph-name="Odotaccent" unicode="&#x22e;" horiz-adv-x="1540" 
d="M924 1241c-291 0 -500 -282 -500 -628c0 -251 140 -411 359 -411c291 0 501 281 501 628c0 251 -141 411 -360 411zM779 -24c-378 0 -618 255 -618 624c0 492 328 867 766 867c381 0 620 -255 620 -624c0 -493 -330 -867 -768 -867zM1006 1608c-79 0 -141 64 -141 141
c0 78 62 142 141 142c78 0 140 -64 140 -142c0 -77 -62 -141 -140 -141z" />
    <glyph glyph-name="Ocircumflexdotbelow" unicode="&#x1ed8;" horiz-adv-x="1540" 
d="M924 1241c-291 0 -500 -282 -500 -628c0 -251 140 -411 359 -411c291 0 501 281 501 628c0 251 -141 411 -360 411zM779 -24c-378 0 -618 255 -618 624c0 492 328 867 766 867c381 0 620 -255 620 -624c0 -493 -330 -867 -768 -867zM1121 1863l208 -311h-193l-124 192h-7
l-206 -192h-209l340 311h191zM708 -450c-79 0 -141 64 -141 141c0 78 62 142 141 142c78 0 140 -64 140 -142c0 -77 -62 -141 -140 -141z" />
    <glyph glyph-name="Ocircumflexacute" unicode="&#x1ed0;" horiz-adv-x="1540" 
d="M924 1241c-291 0 -500 -282 -500 -628c0 -251 140 -411 359 -411c291 0 501 281 501 628c0 251 -141 411 -360 411zM779 -24c-378 0 -618 255 -618 624c0 492 328 867 766 867c381 0 620 -255 620 -624c0 -493 -330 -867 -768 -867zM914 1813h203l214 -274h-195l-128 167
h-6l-200 -167h-220zM1160 1863l230 239h228l-257 -239h-201z" />
    <glyph glyph-name="Otildedieresis" unicode="&#x1e4e;" horiz-adv-x="1540" 
d="M924 1241c-291 0 -500 -282 -500 -628c0 -251 140 -411 359 -411c291 0 501 281 501 628c0 251 -141 411 -360 411zM779 -24c-378 0 -618 255 -618 624c0 492 328 867 766 867c381 0 620 -255 620 -624c0 -493 -330 -867 -768 -867zM1112 1539c-137 0 -171 139 -245 139
c-44 0 -83 -44 -97 -119h-143c31 162 128 258 251 258c135 0 168 -139 244 -139c43 0 79 44 97 122h143c-31 -160 -131 -261 -250 -261zM872 2129c68 0 121 -54 121 -122c0 -67 -53 -121 -121 -121c-69 0 -122 54 -122 121c0 68 53 122 122 122zM1255 2129
c69 0 122 -54 122 -122c0 -67 -53 -121 -122 -121c-68 0 -121 54 -121 121c0 68 53 122 121 122z" />
    <glyph glyph-name="Omacron" unicode="&#x14c;" horiz-adv-x="1540" 
d="M924 1241c-291 0 -500 -282 -500 -628c0 -251 140 -411 359 -411c291 0 501 281 501 628c0 251 -141 411 -360 411zM779 -24c-378 0 -618 255 -618 624c0 492 328 867 766 867c381 0 620 -255 620 -624c0 -493 -330 -867 -768 -867zM1348 1763l-29 -139h-671l30 139h670z
" />
    <glyph glyph-name="Oogonek" unicode="&#x1ea;" horiz-adv-x="1540" 
d="M975 -428c-25 -13 -76 -22 -132 -22c-125 0 -211 67 -211 170c0 92 63 179 189 253v5c-14 -1 -28 -2 -42 -2c-378 0 -618 255 -618 624c0 492 328 867 766 867c381 0 620 -255 620 -624c0 -364 -195 -641 -454 -795c-112 -71 -260 -174 -260 -269c0 -47 36 -74 99 -74
c29 0 56 4 73 12zM1284 830c0 251 -141 411 -360 411c-291 0 -500 -282 -500 -628c0 -251 140 -411 359 -411c291 0 501 281 501 628z" />
    <glyph glyph-name="Oogonekmacron" unicode="&#x1ec;" horiz-adv-x="1540" 
d="M975 -428c-25 -13 -76 -22 -132 -22c-125 0 -211 67 -211 170c0 92 63 179 189 253v5c-14 -1 -28 -2 -42 -2c-378 0 -618 255 -618 624c0 492 328 867 766 867c381 0 620 -255 620 -624c0 -364 -195 -641 -454 -795c-112 -71 -260 -174 -260 -269c0 -47 36 -74 99 -74
c29 0 56 4 73 12zM1284 830c0 251 -141 411 -360 411c-291 0 -500 -282 -500 -628c0 -251 140 -411 359 -411c291 0 501 281 501 628zM1348 1763l-29 -139h-671l30 139h670z" />
    <glyph glyph-name="Ohorn" unicode="&#x1a0;" horiz-adv-x="1540" 
d="M1284 830c0 251 -141 411 -360 411c-291 0 -500 -282 -500 -628c0 -251 140 -411 359 -411c291 0 501 281 501 628zM1547 843c0 -493 -330 -867 -768 -867c-378 0 -618 255 -618 624c0 492 328 867 766 867c273 0 337 -114 458 -114c67 0 98 25 111 89l38 185h206
l-54 -260c-23 -114 -106 -174 -200 -174c-11 0 -30 4 -34 7l-2 -6c63 -96 97 -218 97 -351z" />
    <glyph glyph-name="Ohorndotbelow" unicode="&#x1ee2;" horiz-adv-x="1540" 
d="M1284 830c0 251 -141 411 -360 411c-291 0 -500 -282 -500 -628c0 -251 140 -411 359 -411c291 0 501 281 501 628zM1547 843c0 -493 -330 -867 -768 -867c-378 0 -618 255 -618 624c0 492 328 867 766 867c273 0 337 -114 458 -114c67 0 98 25 111 89l38 185h206
l-54 -260c-23 -114 -106 -174 -200 -174c-11 0 -30 4 -34 7l-2 -6c63 -96 97 -218 97 -351zM708 -450c-79 0 -141 64 -141 141c0 78 62 142 141 142c78 0 140 -64 140 -142c0 -77 -62 -141 -140 -141z" />
    <glyph glyph-name="Ohornhookabove" unicode="&#x1ede;" horiz-adv-x="1540" 
d="M1284 830c0 251 -141 411 -360 411c-291 0 -500 -282 -500 -628c0 -251 140 -411 359 -411c291 0 501 281 501 628zM1547 843c0 -493 -330 -867 -768 -867c-378 0 -618 255 -618 624c0 492 328 867 766 867c273 0 337 -114 458 -114c67 0 98 25 111 89l38 185h206
l-54 -260c-23 -114 -106 -174 -200 -174c-11 0 -30 4 -34 7l-2 -6c63 -96 97 -218 97 -351zM822 1778l28 121c27 11 77 18 115 18c128 0 209 -63 209 -160c0 -105 -87 -198 -227 -239l-55 101c71 18 118 59 118 107c0 40 -36 65 -94 65c-32 0 -67 -5 -94 -13z" />
    <glyph glyph-name="Ohorntilde" unicode="&#x1ee0;" horiz-adv-x="1540" 
d="M1284 830c0 251 -141 411 -360 411c-291 0 -500 -282 -500 -628c0 -251 140 -411 359 -411c291 0 501 281 501 628zM1547 843c0 -493 -330 -867 -768 -867c-378 0 -618 255 -618 624c0 492 328 867 766 867c273 0 337 -114 458 -114c67 0 98 25 111 89l38 185h206
l-54 -260c-23 -114 -106 -174 -200 -174c-11 0 -30 4 -34 7l-2 -6c63 -96 97 -218 97 -351zM1123 1546c-137 0 -166 140 -245 140c-44 0 -83 -45 -100 -127h-145c31 166 129 268 251 268c143 0 169 -141 245 -141c42 0 79 44 98 130h146c-34 -164 -132 -270 -250 -270z" />
    <glyph glyph-name="Ohorngrave" unicode="&#x1edc;" horiz-adv-x="1540" 
d="M1284 830c0 251 -141 411 -360 411c-291 0 -500 -282 -500 -628c0 -251 140 -411 359 -411c291 0 501 281 501 628zM1547 843c0 -493 -330 -867 -768 -867c-378 0 -618 255 -618 624c0 492 328 867 766 867c273 0 337 -114 458 -114c67 0 98 25 111 89l38 185h206
l-54 -260c-23 -114 -106 -174 -200 -174c-11 0 -30 4 -34 7l-2 -6c63 -96 97 -218 97 -351zM865 1558l-201 300h229l161 -300h-189z" />
    <glyph glyph-name="Ohornacute" unicode="&#x1eda;" horiz-adv-x="1540" 
d="M1284 830c0 251 -141 411 -360 411c-291 0 -500 -282 -500 -628c0 -251 140 -411 359 -411c291 0 501 281 501 628zM1547 843c0 -493 -330 -867 -768 -867c-378 0 -618 255 -618 624c0 492 328 867 766 867c273 0 337 -114 458 -114c67 0 98 25 111 89l38 185h206
l-54 -260c-23 -114 -106 -174 -200 -174c-11 0 -30 4 -34 7l-2 -6c63 -96 97 -218 97 -351zM1077 1558h-213l287 300h254z" />
    <glyph glyph-name="P" unicode="P" horiz-adv-x="1266" 
d="M367 1443h520c265 0 452 -161 452 -411c0 -347 -256 -559 -613 -559h-303l-101 -473h-261zM583 1227l-116 -540h252c217 0 356 122 356 322c0 141 -97 218 -256 218h-236z" />
    <glyph glyph-name="Pdotaccent" unicode="&#x1e56;" horiz-adv-x="1266" 
d="M367 1443h520c265 0 452 -161 452 -411c0 -347 -256 -559 -613 -559h-303l-101 -473h-261zM583 1227l-116 -540h252c217 0 356 122 356 322c0 141 -97 218 -256 218h-236zM826 1608c-79 0 -141 64 -141 141c0 78 62 142 141 142c78 0 140 -64 140 -142
c0 -77 -62 -141 -140 -141z" />
    <glyph glyph-name="Pacute" unicode="&#x1e54;" horiz-adv-x="1266" 
d="M367 1443h520c265 0 452 -161 452 -411c0 -347 -256 -559 -613 -559h-303l-101 -473h-261zM583 1227l-116 -540h252c217 0 356 122 356 322c0 141 -97 218 -256 218h-236zM897 1558h-213l287 300h254z" />
    <glyph glyph-name="Q" unicode="Q" horiz-adv-x="1540" 
d="M1306 -149h-242l-77 156c-65 -20 -135 -31 -208 -31c-378 0 -618 255 -618 624c0 492 328 867 766 867c381 0 620 -255 620 -624c0 -315 -138 -585 -362 -740zM783 202c38 0 74 5 112 14l-116 239h230l65 -119c130 105 210 288 210 494c0 251 -141 411 -360 411
c-291 0 -500 -282 -500 -628c0 -251 140 -411 359 -411z" />
    <glyph glyph-name="R" unicode="R" horiz-adv-x="1309" 
d="M479 746h297c190 0 319 114 319 275c0 130 -85 208 -225 208h-287zM367 1443h551c282 0 442 -163 442 -398c0 -217 -137 -412 -373 -474l188 -571h-270l-173 541h-295l-116 -541h-261z" />
    <glyph glyph-name="Rcaron" unicode="&#x158;" horiz-adv-x="1309" 
d="M922 1552h-192l-208 311h193l125 -192h7l205 192h210zM479 746h297c190 0 319 114 319 275c0 130 -85 208 -225 208h-287zM367 1443h551c282 0 442 -163 442 -398c0 -217 -137 -412 -373 -474l188 -571h-270l-173 541h-295l-116 -541h-261z" />
    <glyph glyph-name="Rlinebelow" unicode="&#x1e5e;" horiz-adv-x="1309" 
d="M197 -378l30 139h670l-29 -139h-671zM479 746h297c190 0 319 114 319 275c0 130 -85 208 -225 208h-287zM367 1443h551c282 0 442 -163 442 -398c0 -217 -137 -412 -373 -474l188 -571h-270l-173 541h-295l-116 -541h-261z" />
    <glyph glyph-name="Rdotbelowmacron" unicode="&#x1e5c;" horiz-adv-x="1309" 
d="M1203 1763l-29 -139h-671l30 139h670zM544 -167c78 0 140 -64 140 -142c0 -77 -62 -141 -140 -141c-79 0 -141 64 -141 141c0 78 62 142 141 142zM479 746h297c190 0 319 114 319 275c0 130 -85 208 -225 208h-287zM367 1443h551c282 0 442 -163 442 -398
c0 -217 -137 -412 -373 -474l188 -571h-270l-173 541h-295l-116 -541h-261z" />
    <glyph glyph-name="Rdblgrave" unicode="&#x210;" horiz-adv-x="1309" 
d="M1109 1558h-189l-202 300h230zM741 1558h-189l-201 300h229zM479 746h297c190 0 319 114 319 275c0 130 -85 208 -225 208h-287zM367 1443h551c282 0 442 -163 442 -398c0 -217 -137 -412 -373 -474l188 -571h-270l-173 541h-295l-116 -541h-261z" />
    <glyph glyph-name="Rinvertedbreve" unicode="&#x212;" horiz-adv-x="1309" 
d="M1164 1540h-159c3 10 6 26 6 42c0 85 -56 138 -150 138c-110 0 -198 -71 -223 -180h-163c43 187 190 316 409 316c174 0 288 -105 288 -249c0 -25 -3 -49 -8 -67zM479 746h297c190 0 319 114 319 275c0 130 -85 208 -225 208h-287zM367 1443h551c282 0 442 -163 442 -398
c0 -217 -137 -412 -373 -474l188 -571h-270l-173 541h-295l-116 -541h-261z" />
    <glyph glyph-name="Racute" unicode="&#x154;" horiz-adv-x="1309" 
d="M1260 1858l-328 -300h-213l287 300h254zM479 746h297c190 0 319 114 319 275c0 130 -85 208 -225 208h-287zM367 1443h551c282 0 442 -163 442 -398c0 -217 -137 -412 -373 -474l188 -571h-270l-173 541h-295l-116 -541h-261z" />
    <glyph glyph-name="Rdotbelow" unicode="&#x1e5a;" horiz-adv-x="1309" 
d="M544 -167c78 0 140 -64 140 -142c0 -77 -62 -141 -140 -141c-79 0 -141 64 -141 141c0 78 62 142 141 142zM479 746h297c190 0 319 114 319 275c0 130 -85 208 -225 208h-287zM367 1443h551c282 0 442 -163 442 -398c0 -217 -137 -412 -373 -474l188 -571h-270l-173 541
h-295l-116 -541h-261z" />
    <glyph glyph-name="Rdotaccent" unicode="&#x1e58;" horiz-adv-x="1309" 
d="M862 1608c-79 0 -141 64 -141 141c0 78 62 142 141 142c78 0 140 -64 140 -142c0 -77 -62 -141 -140 -141zM479 746h297c190 0 319 114 319 275c0 130 -85 208 -225 208h-287zM367 1443h551c282 0 442 -163 442 -398c0 -217 -137 -412 -373 -474l188 -571h-270l-173 541
h-295l-116 -541h-261z" />
    <glyph glyph-name="Rcommaaccent" unicode="&#x156;" horiz-adv-x="1309" 
d="M267 -476l194 346h226l-231 -346h-189zM479 746h297c190 0 319 114 319 275c0 130 -85 208 -225 208h-287zM367 1443h551c282 0 442 -163 442 -398c0 -217 -137 -412 -373 -474l188 -571h-270l-173 541h-295l-116 -541h-261z" />
    <glyph glyph-name="S" unicode="S" horiz-adv-x="1277" 
d="M88 424h251c17 -136 144 -232 332 -232c165 0 287 74 287 202c0 103 -61 157 -226 208l-113 35c-240 75 -360 195 -360 391c0 263 220 439 532 439c318 0 536 -163 537 -432h-246c-6 128 -114 216 -289 216c-177 0 -271 -93 -271 -195c0 -93 66 -151 222 -199l116 -36
c246 -75 364 -190 364 -382c0 -254 -203 -463 -557 -463c-329 0 -572 167 -579 448z" />
    <glyph glyph-name="Scaron" unicode="&#x160;" horiz-adv-x="1277" 
d="M88 424h251c17 -136 144 -232 332 -232c165 0 287 74 287 202c0 103 -61 157 -226 208l-113 35c-240 75 -360 195 -360 391c0 263 220 439 532 439c318 0 536 -163 537 -432h-246c-6 128 -114 216 -289 216c-177 0 -271 -93 -271 -195c0 -93 66 -151 222 -199l116 -36
c246 -75 364 -190 364 -382c0 -254 -203 -463 -557 -463c-329 0 -572 167 -579 448zM761 1552l-208 311h193l125 -192h7l205 192h210l-340 -311h-192z" />
    <glyph glyph-name="Scedilla" unicode="&#x15e;" horiz-adv-x="1277" 
d="M744 857l116 -36c246 -75 364 -190 364 -382c0 -242 -184 -443 -508 -462l-60 -95c110 -2 173 -55 173 -146c0 -125 -111 -211 -272 -211c-60 0 -127 10 -165 24l27 130c38 -13 84 -20 130 -20c78 0 121 22 121 61s-41 56 -141 56h-59l21 91l71 115
c-274 32 -468 192 -474 442h251c17 -136 144 -232 332 -232c165 0 287 74 287 202c0 103 -61 157 -226 208l-113 35c-240 75 -360 195 -360 391c0 263 220 439 532 439c318 0 536 -163 537 -432h-246c-6 128 -114 216 -289 216c-177 0 -271 -93 -271 -195
c0 -93 66 -151 222 -199z" />
    <glyph glyph-name="Sdotaccent" unicode="&#x1e60;" horiz-adv-x="1277" 
d="M88 424h251c17 -136 144 -232 332 -232c165 0 287 74 287 202c0 103 -61 157 -226 208l-113 35c-240 75 -360 195 -360 391c0 263 220 439 532 439c318 0 536 -163 537 -432h-246c-6 128 -114 216 -289 216c-177 0 -271 -93 -271 -195c0 -93 66 -151 222 -199l116 -36
c246 -75 364 -190 364 -382c0 -254 -203 -463 -557 -463c-329 0 -572 167 -579 448zM893 1608c-79 0 -141 64 -141 141c0 78 62 142 141 142c78 0 140 -64 140 -142c0 -77 -62 -141 -140 -141z" />
    <glyph glyph-name="Sdotbelow" unicode="&#x1e62;" horiz-adv-x="1277" 
d="M88 424h251c17 -136 144 -232 332 -232c165 0 287 74 287 202c0 103 -61 157 -226 208l-113 35c-240 75 -360 195 -360 391c0 263 220 439 532 439c318 0 536 -163 537 -432h-246c-6 128 -114 216 -289 216c-177 0 -271 -93 -271 -195c0 -93 66 -151 222 -199l116 -36
c246 -75 364 -190 364 -382c0 -254 -203 -463 -557 -463c-329 0 -572 167 -579 448zM585 -450c-79 0 -141 64 -141 141c0 78 62 142 141 142c78 0 140 -64 140 -142c0 -77 -62 -141 -140 -141z" />
    <glyph glyph-name="Scommaaccent" unicode="&#x218;" horiz-adv-x="1277" 
d="M88 424h251c17 -136 144 -232 332 -232c165 0 287 74 287 202c0 103 -61 157 -226 208l-113 35c-240 75 -360 195 -360 391c0 263 220 439 532 439c318 0 536 -163 537 -432h-246c-6 128 -114 216 -289 216c-177 0 -271 -93 -271 -195c0 -93 66 -151 222 -199l116 -36
c246 -75 364 -190 364 -382c0 -254 -203 -463 -557 -463c-329 0 -572 167 -579 448zM497 -476h-189l194 346h226z" />
    <glyph glyph-name="Sdotbelowdotaccent" unicode="&#x1e68;" horiz-adv-x="1277" 
d="M88 424h251c17 -136 144 -232 332 -232c165 0 287 74 287 202c0 103 -61 157 -226 208l-113 35c-240 75 -360 195 -360 391c0 263 220 439 532 439c318 0 536 -163 537 -432h-246c-6 128 -114 216 -289 216c-177 0 -271 -93 -271 -195c0 -93 66 -151 222 -199l116 -36
c246 -75 364 -190 364 -382c0 -254 -203 -463 -557 -463c-329 0 -572 167 -579 448zM585 -450c-79 0 -141 64 -141 141c0 78 62 142 141 142c78 0 140 -64 140 -142c0 -77 -62 -141 -140 -141zM893 1608c-79 0 -141 64 -141 141c0 78 62 142 141 142c78 0 140 -64 140 -142
c0 -77 -62 -141 -140 -141z" />
    <glyph glyph-name="Scarondotaccent" unicode="&#x1e66;" horiz-adv-x="1277" 
d="M88 424h251c17 -136 144 -232 332 -232c165 0 287 74 287 202c0 103 -61 157 -226 208l-113 35c-240 75 -360 195 -360 391c0 263 220 439 532 439c318 0 536 -163 537 -432h-246c-6 128 -114 216 -289 216c-177 0 -271 -93 -271 -195c0 -93 66 -151 222 -199l116 -36
c246 -75 364 -190 364 -382c0 -254 -203 -463 -557 -463c-329 0 -572 167 -579 448zM749 1539l-215 274h195l127 -167h7l200 167h220l-332 -274h-202zM920 1847c-71 0 -124 55 -124 124c0 68 53 123 124 123s125 -55 125 -123c0 -69 -54 -124 -125 -124z" />
    <glyph glyph-name="Scircumflex" unicode="&#x15c;" horiz-adv-x="1277" 
d="M88 424h251c17 -136 144 -232 332 -232c165 0 287 74 287 202c0 103 -61 157 -226 208l-113 35c-240 75 -360 195 -360 391c0 263 220 439 532 439c318 0 536 -163 537 -432h-246c-6 128 -114 216 -289 216c-177 0 -271 -93 -271 -195c0 -93 66 -151 222 -199l116 -36
c246 -75 364 -190 364 -382c0 -254 -203 -463 -557 -463c-329 0 -572 167 -579 448zM1007 1863l208 -311h-193l-124 192h-7l-206 -192h-209l340 311h191z" />
    <glyph glyph-name="Sacutedotaccent" unicode="&#x1e64;" horiz-adv-x="1277" 
d="M88 424h251c17 -136 144 -232 332 -232c165 0 287 74 287 202c0 103 -61 157 -226 208l-113 35c-240 75 -360 195 -360 391c0 263 220 439 532 439c318 0 536 -163 537 -432h-246c-6 128 -114 216 -289 216c-177 0 -271 -93 -271 -195c0 -93 66 -151 222 -199l116 -36
c246 -75 364 -190 364 -382c0 -254 -203 -463 -557 -463c-329 0 -572 167 -579 448zM1109 1560h-213l287 300h254zM704 1565c-79 0 -141 64 -141 141c0 78 62 142 141 142c78 0 140 -64 140 -142c0 -77 -62 -141 -140 -141z" />
    <glyph glyph-name="Sacute" unicode="&#x15a;" horiz-adv-x="1277" 
d="M88 424h251c17 -136 144 -232 332 -232c165 0 287 74 287 202c0 103 -61 157 -226 208l-113 35c-240 75 -360 195 -360 391c0 263 220 439 532 439c318 0 536 -163 537 -432h-246c-6 128 -114 216 -289 216c-177 0 -271 -93 -271 -195c0 -93 66 -151 222 -199l116 -36
c246 -75 364 -190 364 -382c0 -254 -203 -463 -557 -463c-329 0 -572 167 -579 448zM963 1558h-213l287 300h254z" />
    <glyph glyph-name="germandbls.uc" unicode="&#x1e9e;" horiz-adv-x="2553" 
d="M88 424h251c17 -136 144 -232 332 -232c165 0 287 74 287 202c0 103 -61 157 -226 208l-113 35c-240 75 -360 195 -360 391c0 263 220 439 532 439c318 0 536 -163 537 -432h-246c-6 128 -114 216 -289 216c-177 0 -271 -93 -271 -195c0 -93 66 -151 222 -199l116 -36
c246 -75 364 -190 364 -382c0 -254 -203 -463 -557 -463c-329 0 -572 167 -579 448zM1365 424h251c17 -136 144 -232 332 -232c165 0 287 74 287 202c0 103 -61 157 -226 208l-113 35c-240 75 -360 195 -360 391c0 263 220 439 532 439c318 0 536 -163 537 -432h-246
c-6 128 -114 216 -289 216c-177 0 -271 -93 -271 -195c0 -93 66 -151 222 -199l116 -36c246 -75 364 -190 364 -382c0 -254 -203 -463 -557 -463c-329 0 -572 167 -579 448z" />
    <glyph glyph-name="T" unicode="T" horiz-adv-x="1241" 
d="M682 0h-261l260 1220h-443l46 223h1147l-46 -223h-443z" />
    <glyph glyph-name="Tcircumflexbelow" unicode="&#x1e70;" horiz-adv-x="1241" 
d="M682 0h-261l260 1220h-443l46 223h1147l-46 -223h-443zM607 -165l208 -311h-193l-124 192h-7l-206 -192h-209l340 311h191z" />
    <glyph glyph-name="Tdotbelow" unicode="&#x1e6c;" horiz-adv-x="1241" 
d="M682 0h-261l260 1220h-443l46 223h1147l-46 -223h-443zM487 -450c-79 0 -141 64 -141 141c0 78 62 142 141 142c78 0 140 -64 140 -142c0 -77 -62 -141 -140 -141z" />
    <glyph glyph-name="Tcommaaccent" unicode="&#x21a;" horiz-adv-x="1241" 
d="M682 0h-261l260 1220h-443l46 223h1147l-46 -223h-443zM399 -476h-189l194 346h226z" />
    <glyph glyph-name="Tdotaccent" unicode="&#x1e6a;" horiz-adv-x="1241" 
d="M682 0h-261l260 1220h-443l46 223h1147l-46 -223h-443zM923 1608c-79 0 -141 64 -141 141c0 78 62 142 141 142c78 0 140 -64 140 -142c0 -77 -62 -141 -140 -141z" />
    <glyph glyph-name="Tcedilla" unicode="&#x162;" horiz-adv-x="1241" 
d="M284 1443h1147l-46 -223h-443l-260 -1220l-74 -118c110 -2 173 -55 173 -146c0 -125 -111 -211 -272 -211c-60 0 -127 10 -165 24l27 130c38 -13 84 -20 130 -20c78 0 121 22 121 61s-41 56 -141 56h-59l21 91l82 133h-104l260 1220h-443z" />
    <glyph glyph-name="Tlinebelow" unicode="&#x1e6e;" horiz-adv-x="1241" 
d="M682 0h-261l260 1220h-443l46 223h1147l-46 -223h-443zM840 -239l-29 -139h-671l30 139h670z" />
    <glyph glyph-name="Tcaron" unicode="&#x164;" horiz-adv-x="1241" 
d="M682 0h-261l260 1220h-443l46 223h1147l-46 -223h-443zM791 1552l-208 311h193l125 -192h7l205 192h210l-340 -311h-192z" />
    <glyph glyph-name="Tbar" unicode="&#x166;" horiz-adv-x="1241" 
d="M1385 1220h-443l-82 -386h345l-46 -222h-347l-130 -612h-261l130 612h-309l46 222h311l82 386h-443l46 223h1147z" />
    <glyph glyph-name="U" unicode="U" horiz-adv-x="1453" 
d="M708 -24c-344 0 -537 199 -538 462c-1 41 4 85 13 128l184 877h261l-183 -868c-9 -40 -13 -79 -12 -113c5 -156 110 -253 303 -253c185 0 324 113 366 308l197 926h261l-209 -981c-65 -305 -292 -486 -643 -486z" />
    <glyph glyph-name="Ugrave" unicode="&#xd9;" horiz-adv-x="1453" 
d="M708 -24c-344 0 -537 199 -538 462c-1 41 4 85 13 128l184 877h261l-183 -868c-9 -40 -13 -79 -12 -113c5 -156 110 -253 303 -253c185 0 324 113 366 308l197 926h261l-209 -981c-65 -305 -292 -486 -643 -486zM871 1558l-201 300h229l161 -300h-189z" />
    <glyph glyph-name="Udblgrave" unicode="&#x214;" horiz-adv-x="1453" 
d="M708 -24c-344 0 -537 199 -538 462c-1 41 4 85 13 128l184 877h261l-183 -868c-9 -40 -13 -79 -12 -113c5 -156 110 -253 303 -253c185 0 324 113 366 308l197 926h261l-209 -981c-65 -305 -292 -486 -643 -486zM703 1558l-201 300h229l161 -300h-189zM1071 1558
l-202 300h230l161 -300h-189z" />
    <glyph glyph-name="Uacute" unicode="&#xda;" horiz-adv-x="1453" 
d="M708 -24c-344 0 -537 199 -538 462c-1 41 4 85 13 128l184 877h261l-183 -868c-9 -40 -13 -79 -12 -113c5 -156 110 -253 303 -253c185 0 324 113 366 308l197 926h261l-209 -981c-65 -305 -292 -486 -643 -486zM1083 1558h-213l287 300h254z" />
    <glyph glyph-name="Uhungarumlaut" unicode="&#x170;" horiz-adv-x="1453" 
d="M708 -24c-344 0 -537 199 -538 462c-1 41 4 85 13 128l184 877h261l-183 -868c-9 -40 -13 -79 -12 -113c5 -156 110 -253 303 -253c185 0 324 113 366 308l197 926h261l-209 -981c-65 -305 -292 -486 -643 -486zM1273 1558h-207l287 300h248zM889 1558h-207l287 300h248z
" />
    <glyph glyph-name="Ucircumflex" unicode="&#xdb;" horiz-adv-x="1453" 
d="M708 -24c-344 0 -537 199 -538 462c-1 41 4 85 13 128l184 877h261l-183 -868c-9 -40 -13 -79 -12 -113c5 -156 110 -253 303 -253c185 0 324 113 366 308l197 926h261l-209 -981c-65 -305 -292 -486 -643 -486zM1127 1863l208 -311h-193l-124 192h-7l-206 -192h-209
l340 311h191z" />
    <glyph glyph-name="Ucaron" unicode="&#x1d3;" horiz-adv-x="1453" 
d="M708 -24c-344 0 -537 199 -538 462c-1 41 4 85 13 128l184 877h261l-183 -868c-9 -40 -13 -79 -12 -113c5 -156 110 -253 303 -253c185 0 324 113 366 308l197 926h261l-209 -981c-65 -305 -292 -486 -643 -486zM881 1552l-208 311h193l125 -192h7l205 192h210l-340 -311
h-192z" />
    <glyph glyph-name="Ucircumflexbelow" unicode="&#x1e76;" horiz-adv-x="1453" 
d="M708 -24c-344 0 -537 199 -538 462c-1 41 4 85 13 128l184 877h261l-183 -868c-9 -40 -13 -79 -12 -113c5 -156 110 -253 303 -253c185 0 324 113 366 308l197 926h261l-209 -981c-65 -305 -292 -486 -643 -486zM731 -165l208 -311h-193l-124 192h-7l-206 -192h-209
l340 311h191z" />
    <glyph glyph-name="Udieresis" unicode="&#xdc;" horiz-adv-x="1453" 
d="M708 -24c-344 0 -537 199 -538 462c-1 41 4 85 13 128l184 877h261l-183 -868c-9 -40 -13 -79 -12 -113c5 -156 110 -253 303 -253c185 0 324 113 366 308l197 926h261l-209 -981c-65 -305 -292 -486 -643 -486zM812 1597c-68 0 -122 54 -122 121s54 121 122 121
c69 0 123 -54 123 -121s-54 -121 -123 -121zM1199 1597c-68 0 -122 54 -122 121s54 121 122 121s122 -54 122 -121s-54 -121 -122 -121z" />
    <glyph glyph-name="Udieresisgrave" unicode="&#x1db;" horiz-adv-x="1453" 
d="M708 -24c-344 0 -537 199 -538 462c-1 41 4 85 13 128l184 877h261l-183 -868c-9 -40 -13 -79 -12 -113c5 -156 110 -253 303 -253c185 0 324 113 366 308l197 926h261l-209 -981c-65 -305 -292 -486 -643 -486zM1145 1863h-177l-156 239h205zM813 1556
c-67 0 -119 52 -119 118s52 118 119 118c66 0 118 -52 118 -118s-52 -118 -118 -118zM1187 1556c-66 0 -118 52 -118 118s52 118 118 118c67 0 119 -52 119 -118s-52 -118 -119 -118z" />
    <glyph glyph-name="Udieresisacute" unicode="&#x1d7;" horiz-adv-x="1453" 
d="M708 -24c-344 0 -537 199 -538 462c-1 41 4 85 13 128l184 877h261l-183 -868c-9 -40 -13 -79 -12 -113c5 -156 110 -253 303 -253c185 0 324 113 366 308l197 926h261l-209 -981c-65 -305 -292 -486 -643 -486zM922 1863l229 239h229l-257 -239h-201zM813 1556
c-67 0 -119 52 -119 118s52 118 119 118c66 0 118 -52 118 -118s-52 -118 -118 -118zM1187 1556c-66 0 -118 52 -118 118s52 118 118 118c67 0 119 -52 119 -118s-52 -118 -119 -118z" />
    <glyph glyph-name="Udieresismacron" unicode="&#x1d5;" horiz-adv-x="1453" 
d="M708 -24c-344 0 -537 199 -538 462c-1 41 4 85 13 128l184 877h261l-183 -868c-9 -40 -13 -79 -12 -113c5 -156 110 -253 303 -253c185 0 324 113 366 308l197 926h261l-209 -981c-65 -305 -292 -486 -643 -486zM807 1791c69 0 122 -54 122 -122
c0 -67 -53 -121 -122 -121c-68 0 -121 54 -121 121c0 68 53 122 121 122zM1416 2058l-29 -138h-670l29 138h670zM1190 1791c69 0 122 -54 122 -122c0 -67 -53 -121 -122 -121c-68 0 -121 54 -121 121c0 68 53 122 121 122z" />
    <glyph glyph-name="Udieresiscaron" unicode="&#x1d9;" horiz-adv-x="1453" 
d="M708 -24c-344 0 -537 199 -538 462c-1 41 4 85 13 128l184 877h261l-183 -868c-9 -40 -13 -79 -12 -113c5 -156 110 -253 303 -253c185 0 324 113 366 308l197 926h261l-209 -981c-65 -305 -292 -486 -643 -486zM941 1855l-204 257h191l116 -147h11l177 147h216
l-313 -257h-194zM807 1791c69 0 122 -54 122 -122c0 -67 -53 -121 -122 -121c-68 0 -121 54 -121 121c0 68 53 122 121 122zM1190 1791c69 0 122 -54 122 -122c0 -67 -53 -121 -122 -121c-68 0 -121 54 -121 121c0 68 53 122 121 122z" />
    <glyph glyph-name="Udieresisbelow" unicode="&#x1e72;" horiz-adv-x="1453" 
d="M708 -24c-344 0 -537 199 -538 462c-1 41 4 85 13 128l184 877h261l-183 -868c-9 -40 -13 -79 -12 -113c5 -156 110 -253 303 -253c185 0 324 113 366 308l197 926h261l-209 -981c-65 -305 -292 -486 -643 -486zM419 -430c-68 0 -122 54 -122 121s54 121 122 121
s123 -54 123 -121s-55 -121 -123 -121zM806 -430c-68 0 -123 54 -123 121s55 121 123 121s122 -54 122 -121s-54 -121 -122 -121z" />
    <glyph glyph-name="Utildebelow" unicode="&#x1e74;" horiz-adv-x="1453" 
d="M708 -24c-344 0 -537 199 -538 462c-1 41 4 85 13 128l184 877h261l-183 -868c-9 -40 -13 -79 -12 -113c5 -156 110 -253 303 -253c185 0 324 113 366 308l197 926h261l-209 -981c-65 -305 -292 -486 -643 -486zM740 -450c-137 0 -166 140 -245 140
c-44 0 -83 -45 -100 -127h-145c31 166 129 268 251 268c143 0 169 -141 245 -141c42 0 79 44 98 130h146c-34 -164 -132 -270 -250 -270z" />
    <glyph glyph-name="Uhookabove" unicode="&#x1ee6;" horiz-adv-x="1453" 
d="M708 -24c-344 0 -537 199 -538 462c-1 41 4 85 13 128l184 877h261l-183 -868c-9 -40 -13 -79 -12 -113c5 -156 110 -253 303 -253c185 0 324 113 366 308l197 926h261l-209 -981c-65 -305 -292 -486 -643 -486zM828 1778l28 121c27 11 77 18 115 18
c128 0 209 -63 209 -160c0 -105 -87 -198 -227 -239l-55 101c71 18 118 59 118 107c0 40 -36 65 -94 65c-32 0 -67 -5 -94 -13z" />
    <glyph glyph-name="Ubreve" unicode="&#x16c;" horiz-adv-x="1453" 
d="M708 -24c-344 0 -537 199 -538 462c-1 41 4 85 13 128l184 877h261l-183 -868c-9 -40 -13 -79 -12 -113c5 -156 110 -253 303 -253c185 0 324 113 366 308l197 926h261l-209 -981c-65 -305 -292 -486 -643 -486zM694 1856h159c-4 -13 -7 -29 -7 -45
c0 -85 56 -136 151 -136c109 0 197 69 223 181h163c-43 -190 -191 -316 -410 -316c-174 0 -288 102 -288 246c0 25 3 49 9 70z" />
    <glyph glyph-name="Uinvertedbreve" unicode="&#x216;" horiz-adv-x="1453" 
d="M708 -24c-344 0 -537 199 -538 462c-1 41 4 85 13 128l184 877h261l-183 -868c-9 -40 -13 -79 -12 -113c5 -156 110 -253 303 -253c185 0 324 113 366 308l197 926h261l-209 -981c-65 -305 -292 -486 -643 -486zM1315 1540h-159c3 10 6 26 6 42c0 85 -56 138 -150 138
c-110 0 -198 -71 -223 -180h-163c43 187 190 316 409 316c174 0 288 -105 288 -249c0 -25 -3 -49 -8 -67z" />
    <glyph glyph-name="Utildeacute" unicode="&#x1e78;" horiz-adv-x="1453" 
d="M708 -24c-344 0 -537 199 -538 462c-1 41 4 85 13 128l184 877h261l-183 -868c-9 -40 -13 -79 -12 -113c5 -156 110 -253 303 -253c185 0 324 113 366 308l197 926h261l-209 -981c-65 -305 -292 -486 -643 -486zM942 1876l227 226h228l-254 -226h-201zM1118 1539
c-137 0 -171 139 -245 139c-44 0 -83 -44 -97 -119h-143c31 162 128 258 251 258c135 0 168 -139 244 -139c43 0 79 44 97 122h143c-31 -160 -131 -261 -250 -261z" />
    <glyph glyph-name="Udotbelow" unicode="&#x1ee4;" horiz-adv-x="1453" 
d="M708 -24c-344 0 -537 199 -538 462c-1 41 4 85 13 128l184 877h261l-183 -868c-9 -40 -13 -79 -12 -113c5 -156 110 -253 303 -253c185 0 324 113 366 308l197 926h261l-209 -981c-65 -305 -292 -486 -643 -486zM611 -450c-79 0 -141 64 -141 141c0 78 62 142 141 142
c78 0 140 -64 140 -142c0 -77 -62 -141 -140 -141z" />
    <glyph glyph-name="Utilde" unicode="&#x168;" horiz-adv-x="1453" 
d="M708 -24c-344 0 -537 199 -538 462c-1 41 4 85 13 128l184 877h261l-183 -868c-9 -40 -13 -79 -12 -113c5 -156 110 -253 303 -253c185 0 324 113 366 308l197 926h261l-209 -981c-65 -305 -292 -486 -643 -486zM1129 1546c-137 0 -166 140 -245 140
c-44 0 -83 -45 -100 -127h-145c31 166 129 268 251 268c143 0 169 -141 245 -141c42 0 79 44 98 130h146c-34 -164 -132 -270 -250 -270z" />
    <glyph glyph-name="Umacron" unicode="&#x16a;" horiz-adv-x="1453" 
d="M708 -24c-344 0 -537 199 -538 462c-1 41 4 85 13 128l184 877h261l-183 -868c-9 -40 -13 -79 -12 -113c5 -156 110 -253 303 -253c185 0 324 113 366 308l197 926h261l-209 -981c-65 -305 -292 -486 -643 -486zM1354 1763l-29 -139h-671l30 139h670z" />
    <glyph glyph-name="Umacrondieresis" unicode="&#x1e7a;" horiz-adv-x="1453" 
d="M708 -24c-344 0 -537 199 -538 462c-1 41 4 85 13 128l184 877h261l-183 -868c-9 -40 -13 -79 -12 -113c5 -156 110 -253 303 -253c185 0 324 113 366 308l197 926h261l-209 -981c-65 -305 -292 -486 -643 -486zM1318 1597h-670l29 138h670zM870 1868
c-69 0 -122 54 -122 121c0 68 53 122 122 122c68 0 121 -54 121 -122c0 -67 -53 -121 -121 -121zM1253 1868c-68 0 -121 54 -121 121c0 68 53 122 121 122c69 0 122 -54 122 -122c0 -67 -53 -121 -122 -121z" />
    <glyph glyph-name="Uring" unicode="&#x16e;" horiz-adv-x="1453" 
d="M708 -24c-344 0 -537 199 -538 462c-1 41 4 85 13 128l184 877h261l-183 -868c-9 -40 -13 -79 -12 -113c5 -156 110 -253 303 -253c185 0 324 113 366 308l197 926h261l-209 -981c-65 -305 -292 -486 -643 -486zM1018 1562c-111 0 -205 81 -205 201c0 122 94 212 211 212
c113 0 206 -81 205 -201c0 -122 -92 -212 -211 -212zM1018 1671c59 0 101 40 101 101c-1 56 -41 95 -95 95c-57 0 -100 -41 -100 -102c0 -56 41 -94 94 -94z" />
    <glyph glyph-name="Uogonek" unicode="&#x172;" horiz-adv-x="1453" 
d="M923 -428c-25 -13 -76 -22 -132 -22c-124 0 -211 67 -211 170c0 92 64 180 190 254v5c-9 -2 -36 -3 -58 -3c-344 0 -541 198 -542 462c-1 40 4 84 13 127l184 878h261l-183 -869c-9 -40 -13 -78 -12 -113c5 -155 110 -252 303 -252c185 0 323 112 366 308l197 926h261
l-209 -982c-41 -194 -152 -330 -311 -416c-164 -90 -259 -185 -259 -266c0 -47 36 -74 99 -74c29 0 56 4 73 12z" />
    <glyph glyph-name="Uhorn" unicode="&#x1af;" horiz-adv-x="1645" 
d="M709 -24c-342 0 -541 197 -542 462c-1 41 4 85 13 127l184 878h261l-183 -869c-9 -40 -12 -78 -12 -113c5 -152 108 -252 303 -252c185 0 324 112 366 308l197 926h269c56 0 89 26 101 80l36 175h205l-47 -224c-27 -129 -125 -205 -261 -205l-78 1l-173 -809
c-64 -303 -286 -485 -639 -485z" />
    <glyph glyph-name="Uhorngrave" unicode="&#x1eea;" horiz-adv-x="1645" 
d="M709 -24c-342 0 -541 197 -542 462c-1 41 4 85 13 127l184 878h261l-183 -869c-9 -40 -12 -78 -12 -113c5 -152 108 -252 303 -252c185 0 324 112 366 308l197 926h269c56 0 89 26 101 80l36 175h205l-47 -224c-27 -129 -125 -205 -261 -205l-78 1l-173 -809
c-64 -303 -286 -485 -639 -485zM880 1558l-201 300h229l161 -300h-189z" />
    <glyph glyph-name="Uhornacute" unicode="&#x1ee8;" horiz-adv-x="1645" 
d="M709 -24c-342 0 -541 197 -542 462c-1 41 4 85 13 127l184 878h261l-183 -869c-9 -40 -12 -78 -12 -113c5 -152 108 -252 303 -252c185 0 324 112 366 308l197 926h269c56 0 89 26 101 80l36 175h205l-47 -224c-27 -129 -125 -205 -261 -205l-78 1l-173 -809
c-64 -303 -286 -485 -639 -485zM1092 1558h-213l287 300h254z" />
    <glyph glyph-name="Uhorndotbelow" unicode="&#x1ef0;" horiz-adv-x="1645" 
d="M709 -24c-342 0 -541 197 -542 462c-1 41 4 85 13 127l184 878h261l-183 -869c-9 -40 -12 -78 -12 -113c5 -152 108 -252 303 -252c185 0 324 112 366 308l197 926h269c56 0 89 26 101 80l36 175h205l-47 -224c-27 -129 -125 -205 -261 -205l-78 1l-173 -809
c-64 -303 -286 -485 -639 -485zM598 -450c-79 0 -141 64 -141 141c0 78 62 142 141 142c78 0 140 -64 140 -142c0 -77 -62 -141 -140 -141z" />
    <glyph glyph-name="Uhornhookabove" unicode="&#x1eec;" horiz-adv-x="1645" 
d="M709 -24c-342 0 -541 197 -542 462c-1 41 4 85 13 127l184 878h261l-183 -869c-9 -40 -12 -78 -12 -113c5 -152 108 -252 303 -252c185 0 324 112 366 308l197 926h269c56 0 89 26 101 80l36 175h205l-47 -224c-27 -129 -125 -205 -261 -205l-78 1l-173 -809
c-64 -303 -286 -485 -639 -485zM837 1778l28 121c27 11 77 18 115 18c128 0 209 -63 209 -160c0 -105 -87 -198 -227 -239l-55 101c71 18 118 59 118 107c0 40 -36 65 -94 65c-32 0 -67 -5 -94 -13z" />
    <glyph glyph-name="Uhorntilde" unicode="&#x1eee;" horiz-adv-x="1645" 
d="M709 -24c-342 0 -541 197 -542 462c-1 41 4 85 13 127l184 878h261l-183 -869c-9 -40 -12 -78 -12 -113c5 -152 108 -252 303 -252c185 0 324 112 366 308l197 926h269c56 0 89 26 101 80l36 175h205l-47 -224c-27 -129 -125 -205 -261 -205l-78 1l-173 -809
c-64 -303 -286 -485 -639 -485zM1138 1546c-137 0 -166 140 -245 140c-44 0 -83 -45 -100 -127h-145c31 166 129 268 251 268c143 0 169 -141 245 -141c42 0 79 44 98 130h146c-34 -164 -132 -270 -250 -270z" />
    <glyph glyph-name="V" unicode="V" horiz-adv-x="1342" 
d="M751 0h-293l-200 1443h269l131 -1139h5l604 1139h291z" />
    <glyph glyph-name="Vtilde" unicode="&#x1e7c;" horiz-adv-x="1341" 
d="M751 0h-293l-200 1443h269l131 -1139h5l604 1139h291zM1083 1546c-137 0 -166 140 -245 140c-44 0 -83 -45 -100 -127h-145c31 166 129 268 251 268c143 0 169 -141 245 -141c42 0 79 44 98 130h146c-34 -164 -132 -270 -250 -270z" />
    <glyph glyph-name="Vdotbelow" unicode="&#x1e7e;" horiz-adv-x="1341" 
d="M751 0h-293l-200 1443h269l131 -1139h5l604 1139h291zM540 -450c-79 0 -141 64 -141 141c0 78 62 142 141 142c78 0 140 -64 140 -142c0 -77 -62 -141 -140 -141z" />
    <glyph glyph-name="W" unicode="W" horiz-adv-x="1934" 
d="M1113 1033l-510 -1033h-248l-80 1443h254l31 -1073h6l519 1073h220l76 -1072h6l479 1072h268l-686 -1443h-247l-83 1033h-5z" />
    <glyph glyph-name="Wgrave" unicode="&#x1e80;" horiz-adv-x="1934" 
d="M1113 1033l-510 -1033h-248l-80 1443h254l31 -1073h6l519 1073h220l76 -1072h6l479 1072h268l-686 -1443h-247l-83 1033h-5zM1116 1558l-201 300h229l161 -300h-189z" />
    <glyph glyph-name="Wacute" unicode="&#x1e82;" horiz-adv-x="1934" 
d="M1113 1033l-510 -1033h-248l-80 1443h254l31 -1073h6l519 1073h220l76 -1072h6l479 1072h268l-686 -1443h-247l-83 1033h-5zM1328 1558h-213l287 300h254z" />
    <glyph glyph-name="Wdotaccent" unicode="&#x1e86;" horiz-adv-x="1934" 
d="M1113 1033l-510 -1033h-248l-80 1443h254l31 -1073h6l519 1073h220l76 -1072h6l479 1072h268l-686 -1443h-247l-83 1033h-5zM1258 1608c-79 0 -141 64 -141 141c0 78 62 142 141 142c78 0 140 -64 140 -142c0 -77 -62 -141 -140 -141z" />
    <glyph glyph-name="Wdotbelow" unicode="&#x1e88;" horiz-adv-x="1934" 
d="M1113 1033l-510 -1033h-248l-80 1443h254l31 -1073h6l519 1073h220l76 -1072h6l479 1072h268l-686 -1443h-247l-83 1033h-5zM831 -450c-79 0 -141 64 -141 141c0 78 62 142 141 142c78 0 140 -64 140 -142c0 -77 -62 -141 -140 -141z" />
    <glyph glyph-name="Wdieresis" unicode="&#x1e84;" horiz-adv-x="1934" 
d="M1113 1033l-510 -1033h-248l-80 1443h254l31 -1073h6l519 1073h220l76 -1072h6l479 1072h268l-686 -1443h-247l-83 1033h-5zM1057 1597c-68 0 -122 54 -122 121s54 121 122 121c69 0 123 -54 123 -121s-54 -121 -123 -121zM1444 1597c-68 0 -122 54 -122 121
s54 121 122 121s122 -54 122 -121s-54 -121 -122 -121z" />
    <glyph glyph-name="Wcircumflex" unicode="&#x174;" horiz-adv-x="1934" 
d="M1113 1033l-510 -1033h-248l-80 1443h254l31 -1073h6l519 1073h220l76 -1072h6l479 1072h268l-686 -1443h-247l-83 1033h-5zM1372 1863l208 -311h-193l-124 192h-7l-206 -192h-209l340 311h191z" />
    <glyph glyph-name="X" unicode="X" horiz-adv-x="1359" 
d="M-34 0l638 732l-323 711h284l233 -522h8l441 522h314l-639 -730l324 -713h-285l-234 525h-8l-443 -525h-310z" />
    <glyph glyph-name="Xdotaccent" unicode="&#x1e8a;" horiz-adv-x="1359" 
d="M-34 0l638 732l-323 711h284l233 -522h8l441 522h314l-639 -730l324 -713h-285l-234 525h-8l-443 -525h-310zM972 1608c-79 0 -141 64 -141 141c0 78 62 142 141 142c78 0 140 -64 140 -142c0 -77 -62 -141 -140 -141z" />
    <glyph glyph-name="Xdieresis" unicode="&#x1e8c;" horiz-adv-x="1359" 
d="M-34 0l638 732l-323 711h284l233 -522h8l441 522h314l-639 -730l324 -713h-285l-234 525h-8l-443 -525h-310zM771 1597c-68 0 -122 54 -122 121s54 121 122 121c69 0 123 -54 123 -121s-54 -121 -123 -121zM1158 1597c-68 0 -122 54 -122 121s54 121 122 121
s122 -54 122 -121s-54 -121 -122 -121z" />
    <glyph glyph-name="Y" unicode="Y" horiz-adv-x="1312" 
d="M718 0h-261l121 569l-320 874h270l223 -632h6l483 632h288l-693 -890z" />
    <glyph glyph-name="Ygrave" unicode="&#x1ef2;" horiz-adv-x="1311" 
d="M718 0h-261l121 569l-320 874h270l223 -632h6l483 632h288l-693 -890zM812 1558l-201 300h229l161 -300h-189z" />
    <glyph glyph-name="Yacute" unicode="&#xdd;" horiz-adv-x="1311" 
d="M718 0h-261l121 569l-320 874h270l223 -632h6l483 632h288l-693 -890zM1024 1558h-213l287 300h254z" />
    <glyph glyph-name="Ydotaccent" unicode="&#x1e8e;" horiz-adv-x="1311" 
d="M718 0h-261l121 569l-320 874h270l223 -632h6l483 632h288l-693 -890zM953 1608c-79 0 -141 64 -141 141c0 78 62 142 141 142c78 0 140 -64 140 -142c0 -77 -62 -141 -140 -141z" />
    <glyph glyph-name="Ydotbelow" unicode="&#x1ef4;" horiz-adv-x="1311" 
d="M718 0h-261l121 569l-320 874h270l223 -632h6l483 632h288l-693 -890zM518 -450c-79 0 -141 64 -141 141c0 78 62 142 141 142c78 0 140 -64 140 -142c0 -77 -62 -141 -140 -141z" />
    <glyph glyph-name="Ydieresis" unicode="&#x178;" horiz-adv-x="1311" 
d="M718 0h-261l121 569l-320 874h270l223 -632h6l483 632h288l-693 -890zM753 1597c-68 0 -122 54 -122 121s54 121 122 121c69 0 123 -54 123 -121s-54 -121 -123 -121zM1140 1597c-68 0 -122 54 -122 121s54 121 122 121s122 -54 122 -121s-54 -121 -122 -121z" />
    <glyph glyph-name="Ytilde" unicode="&#x1ef8;" horiz-adv-x="1311" 
d="M718 0h-261l121 569l-320 874h270l223 -632h6l483 632h288l-693 -890zM1070 1546c-137 0 -166 140 -245 140c-44 0 -83 -45 -100 -127h-145c31 166 129 268 251 268c143 0 169 -141 245 -141c42 0 79 44 98 130h146c-34 -164 -132 -270 -250 -270z" />
    <glyph glyph-name="Ycircumflex" unicode="&#x176;" horiz-adv-x="1311" 
d="M718 0h-261l121 569l-320 874h270l223 -632h6l483 632h288l-693 -890zM1068 1863l208 -311h-193l-124 192h-7l-206 -192h-209l340 311h191z" />
    <glyph glyph-name="Ymacron" unicode="&#x232;" horiz-adv-x="1311" 
d="M718 0h-261l121 569l-320 874h270l223 -632h6l483 632h288l-693 -890zM1295 1763l-29 -139h-671l30 139h670z" />
    <glyph glyph-name="Yhookabove" unicode="&#x1ef6;" horiz-adv-x="1311" 
d="M718 0h-261l121 569l-320 874h270l223 -632h6l483 632h288l-693 -890zM769 1778l28 121c27 11 77 18 115 18c128 0 209 -63 209 -160c0 -105 -87 -198 -227 -239l-55 101c71 18 118 59 118 107c0 40 -36 65 -94 65c-32 0 -67 -5 -94 -13z" />
    <glyph glyph-name="Z" unicode="Z" horiz-adv-x="1269" 
d="M20 0l37 176l962 1039l1 5h-719l47 223h1049l-37 -176l-961 -1039l-1 -5h757l-46 -223h-1089z" />
    <glyph glyph-name="Zacute" unicode="&#x179;" horiz-adv-x="1269" 
d="M20 0l37 176l962 1039l1 5h-719l47 223h1049l-37 -176l-961 -1039l-1 -5h757l-46 -223h-1089zM997 1558h-213l287 300h254z" />
    <glyph glyph-name="Zcaron" unicode="&#x17d;" horiz-adv-x="1269" 
d="M20 0l37 176l962 1039l1 5h-719l47 223h1049l-37 -176l-961 -1039l-1 -5h757l-46 -223h-1089zM795 1552l-208 311h193l125 -192h7l205 192h210l-340 -311h-192z" />
    <glyph glyph-name="Zcircumflex" unicode="&#x1e90;" horiz-adv-x="1269" 
d="M20 0l37 176l962 1039l1 5h-719l47 223h1049l-37 -176l-961 -1039l-1 -5h757l-46 -223h-1089zM1041 1863l208 -311h-193l-124 192h-7l-206 -192h-209l340 311h191z" />
    <glyph glyph-name="Zlinebelow" unicode="&#x1e94;" horiz-adv-x="1269" 
d="M20 0l37 176l962 1039l1 5h-719l47 223h1049l-37 -176l-961 -1039l-1 -5h757l-46 -223h-1089zM884 -239l-29 -139h-671l30 139h670z" />
    <glyph glyph-name="Zdotbelow" unicode="&#x1e92;" horiz-adv-x="1269" 
d="M20 0l37 176l962 1039l1 5h-719l47 223h1049l-37 -176l-961 -1039l-1 -5h757l-46 -223h-1089zM531 -450c-79 0 -141 64 -141 141c0 78 62 142 141 142c78 0 140 -64 140 -142c0 -77 -62 -141 -140 -141z" />
    <glyph glyph-name="Zdotaccent" unicode="&#x17b;" horiz-adv-x="1269" 
d="M20 0l37 176l962 1039l1 5h-719l47 223h1049l-37 -176l-961 -1039l-1 -5h757l-46 -223h-1089zM927 1608c-79 0 -141 64 -141 141c0 78 62 142 141 142c78 0 140 -64 140 -142c0 -77 -62 -141 -140 -141z" />
    <glyph glyph-name="AE" unicode="&#xc6;" horiz-adv-x="1938" 
d="M1139 1235h-135l-406 -632h405zM875 0l86 398h-485l-258 -398h-268l923 1443h1204l-46 -223h-651l-84 -389h614l-44 -211h-613l-87 -397h650l-46 -223h-895z" />
    <glyph glyph-name="AEmacron" unicode="&#x1e2;" horiz-adv-x="1938" 
d="M1139 1235h-135l-406 -632h405zM875 0l86 398h-485l-258 -398h-268l923 1443h1204l-46 -223h-651l-84 -389h614l-44 -211h-613l-87 -397h650l-46 -223h-895zM1787 1763l-29 -139h-671l30 139h670z" />
    <glyph glyph-name="AEacute" unicode="&#x1fc;" horiz-adv-x="1938" 
d="M1139 1235h-135l-406 -632h405zM875 0l86 398h-485l-258 -398h-268l923 1443h1204l-46 -223h-651l-84 -389h614l-44 -211h-613l-87 -397h650l-46 -223h-895zM1516 1558h-213l287 300h254z" />
    <glyph glyph-name="OE" unicode="&#x152;" horiz-adv-x="2242" 
d="M1171 0l34 162h-5c-111 -120 -272 -186 -446 -186c-354 0 -590 250 -590 625c0 484 323 866 767 866c222 0 393 -99 488 -277h5l54 253h899l-47 -223h-674l-84 -383h638l-44 -210h-637l-88 -404h675l-45 -223h-900zM1287 830c0 251 -141 411 -360 411
c-291 0 -500 -283 -500 -628c0 -251 141 -411 360 -411c291 0 500 283 500 628z" />
    <glyph glyph-name="Eth" unicode="&#xd0;" horiz-adv-x="1438" 
d="M368 222h275c312 0 536 248 536 613c0 249 -135 387 -388 387h-208l-81 -378h281l-46 -223h-283zM367 1443h478c368 0 599 -213 599 -575c0 -511 -313 -868 -772 -868h-610l131 621h-130l47 223h130z" />
    <glyph glyph-name="Thorn" unicode="&#xde;" horiz-adv-x="1265" 
d="M69 0l307 1443h257l-53 -244h293c241 0 414 -159 414 -383c0 -291 -232 -505 -571 -505h-323l-67 -311h-257zM535 982l-98 -456h258c206 0 330 100 330 264c0 120 -80 192 -235 192h-255z" />
    <glyph glyph-name="Alphagreek" unicode="&#x391;" horiz-adv-x="1356" 
d="M867 1177l-330 -604h410l-75 604h-5zM1011 0l-45 369h-534l-204 -369h-277l822 1443h293l200 -1443h-255z" />
    <glyph glyph-name="Betagreek" unicode="&#x392;" horiz-adv-x="1328" 
d="M721 0h-661l307 1443h562c249 0 406 -128 406 -314s-136 -330 -322 -374l-1 -6c157 -28 254 -145 254 -290c0 -268 -222 -459 -545 -459zM583 1248l-86 -404h259c189 0 317 97 317 234c0 111 -83 170 -239 170h-251zM360 205h322c191 0 320 106 320 253
c0 126 -88 193 -259 193h-287z" />
    <glyph glyph-name="Gammagreek" unicode="&#x393;" horiz-adv-x="1091" 
d="M327 0h-267l307 1443h901l-47 -223h-634z" />
    <glyph glyph-name="Deltagreek" unicode="&#x394;" horiz-adv-x="1377" 
d="M1243 0h-1246l33 158l754 1285h293l199 -1286zM876 1188l-544 -960l-1 -5h687l1 4l-138 961h-5z" />
    <glyph glyph-name="Deltagreek" unicode="&#x2206;" horiz-adv-x="1377" 
d="M1243 0h-1246l33 158l754 1285h293l199 -1286zM876 1188l-544 -960l-1 -5h687l1 4l-138 961h-5z" />
    <glyph glyph-name="Epsilongreek" unicode="&#x395;" horiz-adv-x="1158" 
d="M1041 223l-46 -223h-935l307 1443h935l-47 -223h-673l-84 -383h637l-44 -210h-636l-88 -404h674z" />
    <glyph glyph-name="Zetagreek" unicode="&#x396;" horiz-adv-x="1269" 
d="M20 0l37 176l962 1039l1 5h-719l47 223h1049l-37 -176l-961 -1039l-1 -5h757l-46 -223h-1089z" />
    <glyph glyph-name="Etagreek" unicode="&#x397;" horiz-adv-x="1479" 
d="M1280 0h-264l134 624h-693l-133 -624h-264l307 1443h264l-128 -598h692l128 598h264z" />
    <glyph glyph-name="Thetagreek" unicode="&#x398;" horiz-adv-x="1573" 
d="M1120 609h-547l45 216h546zM789 -24c-379 0 -628 247 -628 630c0 486 329 860 790 860c380 0 629 -246 629 -629c0 -486 -330 -861 -791 -861zM1320 830c0 254 -147 415 -379 415c-304 0 -520 -282 -520 -633c0 -253 146 -413 378 -413c304 0 521 281 521 631z" />
    <glyph glyph-name="Iotagreek" unicode="&#x399;" horiz-adv-x="520" 
d="M321 0h-261l307 1443h261z" />
    <glyph glyph-name="Iotagreek.1" horiz-adv-x="961" 
d="M1075 1231h-272l-217 -1019h271l-44 -212h-272h-261h-271l45 212h271l217 1019h-270l44 212h271h261h272z" />
    <glyph glyph-name="Kappagreek" unicode="&#x39a;" horiz-adv-x="1322" 
d="M321 0h-261l307 1443h261l-142 -662h5l708 662h315l-692 -657l416 -786h-291l-334 629l-196 -179z" />
    <glyph glyph-name="Lambdagreek" unicode="&#x39b;" horiz-adv-x="1335" 
d="M857 1177l-619 -1177h-277l802 1443h293l180 -1443h-255l-119 1177h-5z" />
    <glyph glyph-name="Mugreek" unicode="&#x39c;" horiz-adv-x="1752" 
d="M295 0h-234l306 1443h293l203 -1107h6l669 1107h321l-307 -1443h-235l225 1048h-8l-637 -1041h-182l-190 1041h-7z" />
    <glyph glyph-name="Nugreek" unicode="&#x39d;" horiz-adv-x="1458" 
d="M315 0h-255l307 1443h228l488 -1040h5l223 1040h254l-307 -1443h-227l-488 1040h-6z" />
    <glyph glyph-name="Xigreek" unicode="&#x39e;" horiz-adv-x="1265" 
d="M331 1443h1077l-47 -230h-1077zM1147 622h-903l46 217h903zM72 230h1077l-47 -230h-1077z" />
    <glyph glyph-name="Omicrongreek" unicode="&#x39f;" horiz-adv-x="1540" 
d="M924 1241c-291 0 -500 -282 -500 -628c0 -251 140 -411 359 -411c291 0 501 281 501 628c0 251 -141 411 -360 411zM779 -24c-378 0 -618 255 -618 624c0 492 328 867 766 867c381 0 620 -255 620 -624c0 -493 -330 -867 -768 -867z" />
    <glyph glyph-name="Pigreek" unicode="&#x3a0;" horiz-adv-x="1459" 
d="M1260 0h-264l262 1220h-674l-261 -1220h-263l307 1443h1200z" />
    <glyph glyph-name="Rhogreek" unicode="&#x3a1;" horiz-adv-x="1266" 
d="M367 1443h520c265 0 452 -161 452 -411c0 -347 -256 -559 -613 -559h-303l-101 -473h-261zM583 1227l-116 -540h252c217 0 356 122 356 322c0 141 -97 218 -256 218h-236z" />
    <glyph glyph-name="Sigmagreek" unicode="&#x3a3;" horiz-adv-x="1275" 
d="M394 228l-1 -5h769l-46 -223h-1096l34 167l502 573l-241 517l38 186h1049l-46 -223h-727l-1 -5l208 -465l-5 -18z" />
    <glyph glyph-name="Taugreek" unicode="&#x3a4;" horiz-adv-x="1241" 
d="M682 0h-261l260 1220h-443l46 223h1147l-46 -223h-443z" />
    <glyph glyph-name="Upsilongreek" unicode="&#x3a5;" horiz-adv-x="1311" 
d="M718 0h-261l121 569l-320 874h270l223 -632h6l483 632h288l-693 -890z" />
    <glyph glyph-name="Phigreek" unicode="&#x3a6;" horiz-adv-x="1747" 
d="M662 -91l31 147c-349 39 -544 251 -544 560c0 423 322 740 824 759l31 149h245l-32 -152c346 -39 545 -245 545 -563c0 -421 -325 -737 -824 -756l-31 -144h-245zM739 272l188 887c-310 -15 -522 -219 -522 -531c0 -208 122 -335 334 -356zM983 269
c316 16 522 222 522 532c0 208 -123 334 -333 354z" />
    <glyph glyph-name="Chigreek" unicode="&#x3a7;" horiz-adv-x="1359" 
d="M-34 0l638 732l-323 711h284l233 -522h8l441 522h314l-639 -730l324 -713h-285l-234 525h-8l-443 -525h-310z" />
    <glyph glyph-name="Psigreek" unicode="&#x3a8;" horiz-adv-x="1667" 
d="M890 0h-251l68 318c-322 29 -485 175 -485 433c0 40 4 82 13 127l119 565h250l-114 -545c-12 -54 -17 -94 -17 -130c0 -150 94 -218 279 -229l194 904h251l-195 -909c251 8 369 130 414 343l120 566h252l-124 -587c-74 -346 -267 -522 -708 -543z" />
    <glyph glyph-name="Omegagreek" unicode="&#x3a9;" horiz-adv-x="1554" 
d="M857 0l54 262c255 131 397 340 397 602c0 226 -149 378 -383 378c-299 0 -498 -224 -498 -557c0 -186 84 -327 240 -423l-54 -262h-561l44 216h299v7c-145 106 -228 268 -228 463c0 474 329 782 787 782c374 0 611 -232 611 -573c0 -274 -152 -535 -395 -671l-1 -8h304
l-45 -216h-571z" />
    <glyph glyph-name="Omegagreek" unicode="&#x2126;" horiz-adv-x="1554" 
d="M857 0l54 262c255 131 397 340 397 602c0 226 -149 378 -383 378c-299 0 -498 -224 -498 -557c0 -186 84 -327 240 -423l-54 -262h-561l44 216h299v7c-145 106 -228 268 -228 463c0 474 329 782 787 782c374 0 611 -232 611 -573c0 -274 -152 -535 -395 -671l-1 -8h304
l-45 -216h-571z" />
    <glyph glyph-name="Alphatonosgreek" unicode="&#x386;" horiz-adv-x="1356" 
d="M867 1177l-330 -604h410l-75 604h-5zM1011 0l-45 369h-534l-204 -369h-277l822 1443h293l200 -1443h-255zM203 1129l144 314h276l-221 -314h-199z" />
    <glyph glyph-name="Epsilontonosgreek" unicode="&#x388;" horiz-adv-x="1494" 
d="M170 1129l144 314h276l-221 -314h-199zM1378 223l-46 -223h-935l307 1443h935l-47 -223h-673l-84 -383h637l-44 -210h-636l-88 -404h674z" />
    <glyph glyph-name="Etatonosgreek" unicode="&#x389;" horiz-adv-x="1816" 
d="M170 1129l144 314h276l-221 -314h-199zM1617 0h-264l134 624h-693l-133 -624h-264l307 1443h264l-128 -598h692l128 598h264z" />
    <glyph glyph-name="Iotatonosgreek" unicode="&#x38a;" horiz-adv-x="856" 
d="M170 1129l144 314h276l-221 -314h-199zM658 0h-261l307 1443h261z" />
    <glyph glyph-name="Iotadieresisgreek" unicode="&#x3aa;" horiz-adv-x="520" 
d="M321 0h-261l307 1443h261zM360 1597c-68 0 -122 54 -122 121s54 121 122 121c69 0 123 -54 123 -121s-54 -121 -123 -121zM747 1597c-68 0 -122 54 -122 121s54 121 122 121s122 -54 122 -121s-54 -121 -122 -121z" />
    <glyph glyph-name="Iotatonosgreek.1" horiz-adv-x="1323" 
d="M314 1443h276l-221 -314h-199zM1436 1231h-272l-217 -1019h271l-44 -212h-272h-261h-271l45 212h271l217 1019h-270l44 212h271h261h272z" />
    <glyph glyph-name="Iotadieresisgreek.1" horiz-adv-x="961" 
d="M966 1597c-68 0 -122 54 -122 121s54 121 122 121s122 -54 122 -121s-54 -121 -122 -121zM579 1597c-68 0 -122 54 -122 121s54 121 122 121c69 0 123 -54 123 -121s-54 -121 -123 -121zM1075 1231h-272l-217 -1019h271l-44 -212h-272h-261h-271l45 212h271l217 1019
h-270l44 212h271h261h272z" />
    <glyph glyph-name="Omicrontonosgreek" unicode="&#x38c;" horiz-adv-x="1765" 
d="M170 1129l144 314h276l-221 -314h-199zM1150 1241c-291 0 -500 -282 -500 -628c0 -251 140 -411 359 -411c291 0 501 281 501 628c0 251 -141 411 -360 411zM1005 -24c-378 0 -618 255 -618 624c0 492 328 867 766 867c381 0 620 -255 620 -624
c0 -493 -330 -867 -768 -867z" />
    <glyph glyph-name="Upsilontonosgreek" unicode="&#x38e;" horiz-adv-x="1806" 
d="M272 1129l144 314h276l-221 -314h-199zM1213 0h-261l121 569l-320 874h270l223 -632h6l483 632h288l-693 -890z" />
    <glyph glyph-name="Upsilondieresisgreek" unicode="&#x3ab;" horiz-adv-x="1311" 
d="M718 0h-261l121 569l-320 874h270l223 -632h6l483 632h288l-693 -890zM753 1597c-68 0 -122 54 -122 121s54 121 122 121c69 0 123 -54 123 -121s-54 -121 -123 -121zM1140 1597c-68 0 -122 54 -122 121s54 121 122 121s122 -54 122 -121s-54 -121 -122 -121z" />
    <glyph glyph-name="Omegatonosgreek" unicode="&#x38f;" horiz-adv-x="1827" 
d="M170 1129l144 314h276l-221 -314h-199zM1130 0l54 262c255 131 397 340 397 602c0 226 -149 378 -383 378c-299 0 -498 -224 -498 -557c0 -186 84 -327 240 -423l-54 -262h-561l44 216h299v7c-145 106 -228 268 -228 463c0 474 329 782 787 782c374 0 611 -232 611 -573
c0 -274 -152 -535 -395 -671l-1 -8h304l-45 -216h-571z" />
    <glyph glyph-name="Acyrillic" unicode="&#x410;" horiz-adv-x="1366" 
d="M872 1177l-330 -604h410l-75 604h-5zM1016 0l-45 369h-534l-204 -369h-277l822 1443h293l200 -1443h-255z" />
    <glyph glyph-name="uni04D0" unicode="&#x4d0;" horiz-adv-x="1366" 
d="M872 1177l-330 -604h410l-75 604h-5zM1016 0l-45 369h-534l-204 -369h-277l822 1443h293l200 -1443h-255zM648 1853h179c-21 -102 39 -165 140 -165c105 0 190 63 213 165h179c-40 -190 -187 -306 -402 -306c-217 0 -347 114 -309 306z" />
    <glyph glyph-name="uni04D2" unicode="&#x4d2;" horiz-adv-x="1366" 
d="M872 1177l-330 -604h410l-75 604h-5zM1016 0l-45 369h-534l-204 -369h-277l822 1443h293l200 -1443h-255zM783 1597c-68 0 -122 54 -122 121s54 121 122 121c69 0 123 -54 123 -121s-54 -121 -123 -121zM1170 1597c-68 0 -122 54 -122 121s54 121 122 121
s122 -54 122 -121s-54 -121 -122 -121z" />
    <glyph glyph-name="uniF50E" horiz-adv-x="1366" 
d="M872 1177l-330 -604h410l-75 604h-5zM1016 0l-45 369h-534l-204 -369h-277l822 1443h293l200 -1443h-255zM1325 1763l-29 -139h-671l30 139h670z" />
    <glyph glyph-name="uniF460" horiz-adv-x="1366" 
d="M872 1177l-330 -604h410l-75 604h-5zM1016 0l-45 369h-534l-204 -369h-277l822 1443h293l200 -1443h-255zM1054 1558h-213l287 300h254z" />
    <glyph glyph-name="Becyrillic" unicode="&#x411;" horiz-adv-x="1284" 
d="M654 0h-589l307 1443h925l-47 -223h-663l-72 -329h247c291 0 481 -146 481 -386c0 -275 -234 -505 -589 -505zM370 214h273c193 0 338 115 338 262c0 139 -105 206 -266 206h-243z" />
    <glyph glyph-name="Vecyrillic" unicode="&#x412;" horiz-adv-x="1338" 
d="M726 0h-661l307 1443h562c249 0 406 -128 406 -314s-136 -330 -322 -374l-1 -6c157 -28 254 -145 254 -290c0 -268 -222 -459 -545 -459zM588 1248l-86 -404h259c189 0 317 97 317 234c0 111 -83 170 -239 170h-251zM365 205h322c191 0 320 106 320 253
c0 126 -88 193 -259 193h-287z" />
    <glyph glyph-name="Gecyrillic" unicode="&#x413;" horiz-adv-x="1107" 
d="M325 0h-260l307 1443h911l-47 -223h-650z" />
    <glyph glyph-name="Gjecyrillic" unicode="&#x403;" horiz-adv-x="1107" 
d="M325 0h-260l307 1443h911l-47 -223h-650zM941 1558h-213l287 300h254z" />
    <glyph glyph-name="Geupturncyrillic" unicode="&#x490;" horiz-adv-x="1108" 
d="M587 1220l-261 -1220h-261l307 1443h670l60 285h242l-107 -508h-650z" />
    <glyph glyph-name="uni04F6" unicode="&#x4f6;" horiz-adv-x="1107" 
d="M372 1443h911l-47 -223h-650l-213 -997h178l-107 -508h-235l61 285h-205z" />
    <glyph glyph-name="uni0492" unicode="&#x492;" horiz-adv-x="1107" 
d="M1236 1220h-650l-90 -419h459l-39 -196h-462l-129 -605h-260l129 605h-134l40 196h135l137 642h911z" />
    <glyph glyph-name="uniF53C" horiz-adv-x="1121" 
d="M331 0h-266l307 1443h921l-47 -223h-654l-91 -420h598l-45 -215h-598z" />
    <glyph glyph-name="uni04FA" unicode="&#x4fa;" horiz-adv-x="1107" 
d="M1236 1220h-650l-90 -419h459l-39 -196h-462l-129 -605l-7 -34c-51 -246 -170 -339 -433 -339c-20 0 -62 3 -76 7l42 200c4 -1 31 -2 37 -2c103 0 150 38 174 155l6 29v0l126 589h-134l40 196h135l137 642h911z" />
    <glyph glyph-name="Decyrillic" unicode="&#x414;" horiz-adv-x="1491" 
d="M543 583c-44 -159 -87 -268 -168 -344l-3 -16h629l214 997h-493zM165 0l-61 -285h-234l107 508h103c116 66 174 183 227 377l232 843h983l-261 -1220h180l-107 -508h-235l61 285h-995z" />
    <glyph glyph-name="uni0414.BUL" horiz-adv-x="1550" 
d="M205 0l-61 -285h-235l107 508h148l696 1220h297l178 -1220h152l-107 -508h-235l61 285h-1001zM940 1157l-508 -927h642l-119 927h-15z" />
    <glyph glyph-name="Iecyrillic" unicode="&#x415;" horiz-adv-x="1168" 
d="M1046 223l-46 -223h-935l307 1443h935l-47 -223h-673l-84 -383h637l-44 -210h-636l-88 -404h674z" />
    <glyph glyph-name="Iocyrillic" unicode="&#x401;" horiz-adv-x="1168" 
d="M1046 223l-46 -223h-935l307 1443h935l-47 -223h-673l-84 -383h637l-44 -210h-636l-88 -404h674zM693 1597c-68 0 -122 54 -122 121s54 121 122 121c69 0 123 -54 123 -121s-54 -121 -123 -121zM1080 1597c-68 0 -122 54 -122 121s54 121 122 121s122 -54 122 -121
s-54 -121 -122 -121z" />
    <glyph glyph-name="uni04D6" unicode="&#x4d6;" horiz-adv-x="1168" 
d="M1046 223l-46 -223h-935l307 1443h935l-47 -223h-673l-84 -383h637l-44 -210h-636l-88 -404h674zM557 1853h179c-21 -102 39 -165 140 -165c105 0 190 63 213 165h179c-40 -190 -187 -306 -402 -306c-217 0 -347 114 -309 306z" />
    <glyph glyph-name="uniF510" horiz-adv-x="1168" 
d="M1046 223l-46 -223h-935l307 1443h935l-47 -223h-673l-84 -383h637l-44 -210h-636l-88 -404h674zM1235 1763l-29 -139h-671l30 139h670z" />
    <glyph glyph-name="uniF512" horiz-adv-x="1168" 
d="M1046 223l-46 -223h-935l307 1443h935l-47 -223h-673l-84 -383h637l-44 -210h-636l-88 -404h674zM683 1791c69 0 122 -54 122 -122c0 -67 -53 -121 -122 -121c-68 0 -121 54 -121 121c0 68 53 122 121 122zM1292 2058l-29 -138h-670l29 138h670zM1066 1791
c69 0 122 -54 122 -122c0 -67 -53 -121 -122 -121c-68 0 -121 54 -121 121c0 68 53 122 121 122z" />
    <glyph glyph-name="uni0400" unicode="&#x400;" horiz-adv-x="1168" 
d="M1046 223l-46 -223h-935l307 1443h935l-47 -223h-673l-84 -383h637l-44 -210h-636l-88 -404h674zM752 1558l-201 300h229l161 -300h-189z" />
    <glyph glyph-name="uniF461" horiz-adv-x="1168" 
d="M1046 223l-46 -223h-935l307 1443h935l-47 -223h-673l-84 -383h637l-44 -210h-636l-88 -404h674zM964 1558h-213l287 300h254z" />
    <glyph glyph-name="uniF469" horiz-adv-x="1168" 
d="M1046 223l-46 -223h-935l307 1443h935l-47 -223h-673l-84 -383h637l-44 -210h-636l-88 -404h674zM929 1600h-171l96 320h262zM1230 1600c-71 0 -127 57 -127 125c0 69 55 125 126 125c72 0 127 -56 128 -125c0 -68 -55 -125 -127 -125zM592 1600c-70 0 -126 57 -126 125
c-1 69 55 125 126 125s126 -56 127 -125c0 -68 -55 -125 -127 -125z" />
    <glyph glyph-name="uniF514" horiz-adv-x="1168" 
d="M635 2117h183c-1 -8 -2 -16 -2 -23c0 -59 47 -96 127 -96c90 0 159 46 176 119h183c-33 -158 -185 -263 -389 -263c-179 0 -285 81 -285 209c0 17 2 35 7 54zM517 1561c34 158 185 263 389 263c180 0 286 -81 286 -209c0 -17 -2 -35 -7 -54h-184c2 8 3 16 3 23
c0 59 -48 96 -128 96c-90 0 -158 -46 -175 -119h-184zM1046 223l-46 -223h-935l307 1443h935l-47 -223h-673l-84 -383h637l-44 -210h-636l-88 -404h674z" />
    <glyph glyph-name="Zhecyrillic" unicode="&#x416;" horiz-adv-x="2050" 
d="M972 647l-694 -647h-323l807 761l-425 682h274l394 -635h12l136 635h254l-136 -636h12l666 636h297l-756 -729l456 -714h-278l-417 645h-12l-139 -645h-254l138 647h-12z" />
    <glyph glyph-name="uni04C1" unicode="&#x4c1;" horiz-adv-x="2050" 
d="M972 647l-694 -647h-323l807 761l-425 682h274l394 -635h12l136 635h254l-136 -636h12l666 636h297l-756 -729l456 -714h-278l-417 645h-12l-139 -645h-254l138 647h-12zM1023 1856h159c-4 -13 -7 -29 -7 -45c0 -85 56 -136 151 -136c109 0 197 69 223 181h163
c-43 -190 -191 -316 -410 -316c-174 0 -288 102 -288 246c0 25 3 49 9 70z" />
    <glyph glyph-name="uni04DC" unicode="&#x4dc;" horiz-adv-x="2050" 
d="M972 647l-694 -647h-323l807 761l-425 682h274l394 -635h12l136 635h254l-136 -636h12l666 636h297l-756 -729l456 -714h-278l-417 645h-12l-139 -645h-254l138 647h-12zM1141 1597c-68 0 -122 54 -122 121s54 121 122 121c69 0 123 -54 123 -121s-54 -121 -123 -121z
M1528 1597c-68 0 -122 54 -122 121s54 121 122 121s122 -54 122 -121s-54 -121 -122 -121z" />
    <glyph glyph-name="uni0496" unicode="&#x496;" horiz-adv-x="2135" 
d="M1490 714l314 -491h246l-107 -508h-234l61 285h-102l-417 645h-12l-139 -645h-254l138 647h-12l-694 -647h-323l807 761l-425 682h274l394 -635h12l136 635h254l-136 -636h12l666 636h297z" />
    <glyph glyph-name="uni0416.BUL" horiz-adv-x="2067" 
d="M2263 1443l-651 -647l375 -796h-280l-294 634l-198 -183l-97 -451h-254l96 451l-117 177l-568 -628h-320l752 835l-370 608h284l389 -664h19l142 664h254l-142 -664h19l662 664h299z" />
    <glyph glyph-name="Zecyrillic" unicode="&#x417;" horiz-adv-x="1240" 
d="M471 637l42 208h194c184 0 306 86 306 215c0 116 -100 195 -247 195c-142 0 -257 -82 -277 -196h-240c32 242 251 408 539 408c278 0 477 -157 477 -375c0 -180 -142 -331 -337 -357l-1 -5c158 -38 252 -152 252 -306c0 -260 -240 -448 -571 -448
c-335 0 -558 189 -529 448h242c-2 -140 116 -234 297 -234c176 0 305 100 305 237c0 132 -102 210 -272 210h-180z" />
    <glyph glyph-name="uni04DE" unicode="&#x4de;" horiz-adv-x="1240" 
d="M471 637l42 208h194c184 0 306 86 306 215c0 116 -100 195 -247 195c-142 0 -257 -82 -277 -196h-240c32 242 251 408 539 408c278 0 477 -157 477 -375c0 -180 -142 -331 -337 -357l-1 -5c158 -38 252 -152 252 -306c0 -260 -240 -448 -571 -448
c-335 0 -558 189 -529 448h242c-2 -140 116 -234 297 -234c176 0 305 100 305 237c0 132 -102 210 -272 210h-180zM700 1597c-68 0 -122 54 -122 121s54 121 122 121c69 0 123 -54 123 -121s-54 -121 -123 -121zM1087 1597c-68 0 -122 54 -122 121s54 121 122 121
s122 -54 122 -121s-54 -121 -122 -121z" />
    <glyph glyph-name="uni0498" unicode="&#x498;" horiz-adv-x="1240" 
d="M928 735l-1 -5c158 -38 252 -152 252 -306c0 -229 -186 -402 -456 -440l-57 -269h-225l57 268c-273 37 -445 212 -419 441h242c-2 -140 116 -234 297 -234c176 0 305 100 305 237c0 132 -102 210 -272 210h-180l42 208h194c184 0 306 86 306 215c0 116 -100 195 -247 195
c-142 0 -257 -82 -277 -196h-240c32 242 251 408 539 408c278 0 477 -157 477 -375c0 -180 -142 -331 -337 -357z" />
    <glyph glyph-name="uniF50A" horiz-adv-x="1240" 
d="M928 735l-1 -5c158 -38 252 -152 252 -306c0 -245 -212 -425 -513 -446l-60 -96c110 -2 173 -55 173 -146c0 -125 -111 -211 -272 -211c-60 0 -127 10 -165 24l27 130c38 -13 84 -20 130 -20c78 0 121 22 121 61s-41 56 -141 56h-59l21 91l71 114
c-281 33 -459 210 -433 443h242c-2 -140 116 -234 297 -234c176 0 305 100 305 237c0 132 -102 210 -272 210h-180l42 208h194c184 0 306 86 306 215c0 116 -100 195 -247 195c-142 0 -257 -82 -277 -196h-240c32 242 251 408 539 408c278 0 477 -157 477 -375
c0 -180 -142 -331 -337 -357z" />
    <glyph glyph-name="uniF516" horiz-adv-x="1240" 
d="M471 637l42 208h194c184 0 306 86 306 215c0 116 -100 195 -247 195c-142 0 -257 -82 -277 -196h-240c32 242 251 408 539 408c278 0 477 -157 477 -375c0 -180 -142 -331 -337 -357l-1 -5c158 -38 252 -152 252 -306c0 -260 -240 -448 -571 -448
c-335 0 -558 189 -529 448h242c-2 -140 116 -234 297 -234c176 0 305 100 305 237c0 132 -102 210 -272 210h-180zM769 1552l-208 311h193l125 -192h7l205 192h210l-340 -311h-192z" />
    <glyph glyph-name="Iicyrillic" unicode="&#x418;" horiz-adv-x="1490" 
d="M1030 0l220 1022h-18l-914 -1022h-253l307 1443h256l-221 -1025h18l915 1025h252l-307 -1443h-255z" />
    <glyph glyph-name="Iishortcyrillic" unicode="&#x419;" horiz-adv-x="1490" 
d="M1030 0l220 1022h-18l-914 -1022h-253l307 1443h256l-221 -1025h18l915 1025h252l-307 -1443h-255zM708 1853h179c-21 -102 39 -165 140 -165c105 0 190 63 213 165h179c-40 -190 -187 -306 -402 -306c-217 0 -347 114 -309 306z" />
    <glyph glyph-name="uni040D" unicode="&#x40d;" horiz-adv-x="1490" 
d="M1030 0l220 1022h-18l-914 -1022h-253l307 1443h256l-221 -1025h18l915 1025h252l-307 -1443h-255zM902 1558l-201 300h229l161 -300h-189z" />
    <glyph glyph-name="uni04E2" unicode="&#x4e2;" horiz-adv-x="1490" 
d="M1030 0l220 1022h-18l-914 -1022h-253l307 1443h256l-221 -1025h18l915 1025h252l-307 -1443h-255zM1385 1763l-29 -139h-671l30 139h670z" />
    <glyph glyph-name="uni04E4" unicode="&#x4e4;" horiz-adv-x="1490" 
d="M1030 0l220 1022h-18l-914 -1022h-253l307 1443h256l-221 -1025h18l915 1025h252l-307 -1443h-255zM843 1597c-68 0 -122 54 -122 121s54 121 122 121c69 0 123 -54 123 -121s-54 -121 -123 -121zM1230 1597c-68 0 -122 54 -122 121s54 121 122 121s122 -54 122 -121
s-54 -121 -122 -121z" />
    <glyph glyph-name="uni048A" unicode="&#x48a;" horiz-adv-x="1602" 
d="M1240 1853h179c-40 -190 -187 -306 -402 -306c-217 0 -347 114 -309 306h179c-21 -102 39 -165 140 -165c105 0 190 63 213 165zM1592 1443l-260 -1220h196l-13 -59l-219 -449h-235l140 285h-171l46 223h2l172 799h-18l-914 -1022h-253l307 1443h256l-221 -1025h18
l915 1025h252z" />
    <glyph glyph-name="uniF462" horiz-adv-x="1490" 
d="M1030 0l220 1022h-18l-914 -1022h-253l307 1443h256l-221 -1025h18l915 1025h252l-307 -1443h-255zM1114 1558h-213l287 300h254z" />
    <glyph glyph-name="uniF532" horiz-adv-x="1490" 
d="M1240 1853h179c-40 -190 -187 -306 -402 -306c-217 0 -347 114 -309 306h179c-21 -102 39 -165 140 -165c105 0 190 63 213 165zM1592 1443l-307 -1443h7l-14 -34c-51 -246 -170 -339 -433 -339c-20 0 -62 3 -76 7l42 200c4 -1 29 -2 35 -2c106 0 153 38 177 155l10 29v0
l217 1006h-18l-914 -1022h-253l307 1443h256l-221 -1025h18l915 1025h252z" />
    <glyph glyph-name="Kacyrillic" unicode="&#x41a;" horiz-adv-x="1336" 
d="M1525 1443l-796 -723l513 -720h-300l-467 645h-11l-138 -645h-261l307 1443h261l-135 -635h10l698 635h319z" />
    <glyph glyph-name="Kjecyrillic" unicode="&#x40c;" horiz-adv-x="1336" 
d="M1334 1858l-328 -300h-213l287 300h254zM1525 1443l-796 -723l513 -720h-300l-467 645h-11l-138 -645h-261l307 1443h261l-135 -635h10l698 635h319z" />
    <glyph glyph-name="uni049A" unicode="&#x49a;" horiz-adv-x="1408" 
d="M729 720l354 -497h241l-107 -508h-235l61 285h-101l-467 645h-11l-138 -645h-261l307 1443h261l-135 -635h10l698 635h319z" />
    <glyph glyph-name="uni049C" unicode="&#x49c;" horiz-adv-x="1465" 
d="M1644 1443l-628 -730l333 -713h-287l-295 621h-34l-65 -307h-171l65 307h-106l-133 -621h-258l307 1443h258l-133 -624h107l64 301h171l-64 -301h32l539 624h298z" />
    <glyph glyph-name="uni049E" unicode="&#x49e;" horiz-adv-x="1336" 
d="M1525 1443l-796 -723l513 -720h-300l-467 645h-11l-138 -645h-261l240 1128h-143l39 185h143l28 130h261l-28 -130h210l-38 -185h-211l-68 -320h10l698 635h319z" />
    <glyph glyph-name="uni04A0" unicode="&#x4a0;" horiz-adv-x="1876" 
d="M2064 1443l-796 -723l513 -720h-300l-467 645h-11l-138 -645h-261l260 1220h-626l46 223h627h261l-47 -223v0l-88 -412h10l698 635h319z" />
    <glyph glyph-name="uni04C3" unicode="&#x4c3;" horiz-adv-x="1321" 
d="M489 -417c-40 0 -79 4 -101 9l44 215c22 -3 45 -4 78 -4c268 0 431 228 431 452c0 216 -168 345 -457 345h-29l-129 -600h-257l307 1443h257l-132 -620h11l698 620h320l-741 -657c260 -65 418 -254 418 -517c0 -344 -275 -686 -718 -686z" />
    <glyph glyph-name="uni041A.BUL" horiz-adv-x="1322" 
d="M321 0h-261l307 1443h261l-142 -662h5l708 662h315l-692 -657l416 -786h-291l-334 629l-196 -179z" />
    <glyph glyph-name="Elcyrillic" unicode="&#x41b;" horiz-adv-x="1404" 
d="M1200 0h-260l260 1220h-461l-180 -659c-97 -359 -224 -572 -530 -572c-41 0 -75 6 -92 12l48 231c13 -3 39 -7 61 -7c146 0 220 146 275 352l231 866h955z" />
    <glyph glyph-name="uni04C5" unicode="&#x4c5;" horiz-adv-x="1512" 
d="M1507 1443l-260 -1220h191l-13 -59l-219 -449h-235l140 285h-171l46 223h2l212 997h-461l-180 -659c-97 -359 -224 -572 -530 -572c-41 0 -75 6 -92 12l48 231c13 -3 39 -7 61 -7c146 0 220 146 275 352l231 866h955z" />
    <glyph glyph-name="uniF530" horiz-adv-x="1521" 
d="M1507 1443l-260 -1220h178l-107 -508h-234l61 285h-205l260 1220h-461l-180 -659c-97 -359 -224 -572 -530 -572c-41 0 -75 6 -92 12l48 231c13 -3 39 -7 61 -7c146 0 220 146 275 352l231 866h955z" />
    <glyph glyph-name="uni052E" unicode="&#x52e;" horiz-adv-x="1521" 
d="M1507 1443l-260 -1220h178l-107 -508h-234l61 285h-205l260 1220h-461l-180 -659c-97 -359 -224 -572 -530 -572c-41 0 -75 6 -92 12l48 231c13 -3 39 -7 61 -7c146 0 220 146 275 352l231 866h955z" />
    <glyph glyph-name="uni0512" unicode="&#x512;" horiz-adv-x="1404" 
d="M1507 1443l-307 -1443h3l-10 -34c-52 -246 -171 -339 -433 -339c-20 0 -63 3 -77 7l42 200c4 -1 29 -2 35 -2c105 0 151 38 175 155l8 29v0l257 1204h-461l-180 -659c-97 -359 -224 -572 -530 -572c-41 0 -75 6 -92 12l48 231c13 -3 39 -7 61 -7c146 0 220 146 275 352
l231 866h955z" />
    <glyph glyph-name="uni041B.BUL" horiz-adv-x="1331" 
d="M-41 0l791 1443h299l183 -1443h-276l-115 1140h-9l-589 -1140h-284z" />
    <glyph glyph-name="Emcyrillic" unicode="&#x41c;" horiz-adv-x="1762" 
d="M300 0h-234l306 1443h293l203 -1107h6l669 1107h321l-307 -1443h-235l225 1048h-8l-637 -1041h-182l-190 1041h-7z" />
    <glyph glyph-name="uni04CD" unicode="&#x4cd;" horiz-adv-x="1895" 
d="M1864 1443l-260 -1220h216l-12 -59l-219 -449h-236l140 285h-171l46 223h2l177 825h-8l-637 -1041h-182l-190 1041h-7l-223 -1048h-234l306 1443h293l203 -1107h6l669 1107h321z" />
    <glyph glyph-name="Encyrillic" unicode="&#x41d;" horiz-adv-x="1489" 
d="M1285 0h-264l134 624h-693l-133 -624h-264l307 1443h264l-128 -598h692l128 598h264z" />
    <glyph glyph-name="uni04C7" unicode="&#x4c7;" horiz-adv-x="1489" 
d="M1328 1443h264l-307 -1443h-3l-7 -34c-52 -246 -170 -339 -433 -339c-20 0 -63 3 -77 7l42 200c5 -1 30 -2 36 -2c103 0 148 38 173 155l6 29h2l131 608h-693l-133 -624h-264l307 1443h264l-128 -598h692z" />
    <glyph glyph-name="uni04A2" unicode="&#x4a2;" horiz-adv-x="1603" 
d="M1592 1443l-260 -1220h175l-107 -508h-235l61 285h-205l134 624h-693l-133 -624h-264l307 1443h264l-128 -598h692l128 598h264z" />
    <glyph glyph-name="uni04C9" unicode="&#x4c9;" horiz-adv-x="1594" 
d="M1592 1443l-260 -1220h187l-12 -59l-219 -449h-236l140 285h-171l46 223h2l86 401h-693l-133 -624h-264l307 1443h264l-128 -598h692l128 598h264z" />
    <glyph glyph-name="uni04A4" unicode="&#x4a4;" horiz-adv-x="2008" 
d="M2184 1443l-46 -223h-593l-260 -1220h-264l134 624h-693l-133 -624h-264l307 1443h264l-128 -598h692l128 598h264h592z" />
    <glyph glyph-name="Ocyrillic" unicode="&#x41e;" horiz-adv-x="1550" 
d="M929 1241c-291 0 -500 -282 -500 -628c0 -251 140 -411 359 -411c291 0 501 281 501 628c0 251 -141 411 -360 411zM784 -24c-378 0 -618 255 -618 624c0 492 328 867 766 867c381 0 620 -255 620 -624c0 -493 -330 -867 -768 -867z" />
    <glyph glyph-name="uni04E6" unicode="&#x4e6;" horiz-adv-x="1550" 
d="M929 1241c-291 0 -500 -282 -500 -628c0 -251 140 -411 359 -411c291 0 501 281 501 628c0 251 -141 411 -360 411zM784 -24c-378 0 -618 255 -618 624c0 492 328 867 766 867c381 0 620 -255 620 -624c0 -493 -330 -867 -768 -867zM811 1597c-68 0 -122 54 -122 121
s54 121 122 121c69 0 123 -54 123 -121s-54 -121 -123 -121zM1198 1597c-68 0 -122 54 -122 121s54 121 122 121s122 -54 122 -121s-54 -121 -122 -121z" />
    <glyph glyph-name="uniF518" horiz-adv-x="1550" 
d="M929 1241c-291 0 -500 -282 -500 -628c0 -251 140 -411 359 -411c291 0 501 281 501 628c0 251 -141 411 -360 411zM784 -24c-378 0 -618 255 -618 624c0 492 328 867 766 867c381 0 620 -255 620 -624c0 -493 -330 -867 -768 -867zM1353 1763l-29 -139h-671l30 139h670z
" />
    <glyph glyph-name="uniF463" horiz-adv-x="1550" 
d="M929 1241c-291 0 -500 -282 -500 -628c0 -251 140 -411 359 -411c291 0 501 281 501 628c0 251 -141 411 -360 411zM784 -24c-378 0 -618 255 -618 624c0 492 328 867 766 867c381 0 620 -255 620 -624c0 -493 -330 -867 -768 -867zM1082 1558h-213l287 300h254z" />
    <glyph glyph-name="uniF4D2" horiz-adv-x="1550" 
d="M929 1241c-291 0 -500 -282 -500 -628c0 -251 140 -411 359 -411c291 0 501 281 501 628c0 251 -141 411 -360 411zM784 -24c-378 0 -618 255 -618 624c0 492 328 867 766 867c381 0 620 -255 620 -624c0 -493 -330 -867 -768 -867zM870 1558l-201 300h229l161 -300h-189
z" />
    <glyph glyph-name="uniF51A" horiz-adv-x="1550" 
d="M929 1241c-291 0 -500 -282 -500 -628c0 -251 140 -411 359 -411c291 0 501 281 501 628c0 251 -141 411 -360 411zM784 -24c-378 0 -618 255 -618 624c0 492 328 867 766 867c381 0 620 -255 620 -624c0 -493 -330 -867 -768 -867zM675 1853h179
c-21 -102 39 -165 140 -165c105 0 190 63 213 165h179c-40 -190 -187 -306 -402 -306c-217 0 -347 114 -309 306z" />
    <glyph glyph-name="uni04E8" unicode="&#x4e8;" horiz-adv-x="1550" 
d="M1266 633h-839v-20c0 -251 141 -411 361 -411c234 0 415 181 478 431zM458 836h832c-2 248 -143 405 -361 405c-226 0 -403 -169 -471 -405zM932 1467c381 0 620 -255 620 -624c0 -493 -330 -867 -768 -867c-378 0 -618 255 -618 624c0 492 328 867 766 867z" />
    <glyph glyph-name="uniF49A" horiz-adv-x="1550" 
d="M1415 1763l-29 -139h-671l30 139h670zM1266 633h-839v-20c0 -251 141 -411 361 -411c234 0 415 181 478 431zM458 836h832c-2 248 -143 405 -361 405c-226 0 -403 -169 -471 -405zM932 1467c381 0 620 -255 620 -624c0 -493 -330 -867 -768 -867
c-378 0 -618 255 -618 624c0 492 328 867 766 867z" />
    <glyph glyph-name="uniF51C" horiz-adv-x="1550" 
d="M1269 1853h179c-40 -190 -187 -306 -402 -306c-217 0 -347 114 -309 306h179c-21 -102 39 -165 140 -165c105 0 190 63 213 165zM1266 633h-839v-20c0 -251 141 -411 361 -411c234 0 415 181 478 431zM458 836h832c-2 248 -143 405 -361 405c-226 0 -403 -169 -471 -405z
M932 1467c381 0 620 -255 620 -624c0 -493 -330 -867 -768 -867c-378 0 -618 255 -618 624c0 492 328 867 766 867z" />
    <glyph glyph-name="uniF51E" horiz-adv-x="1550" 
d="M1303 2117h184c-33 -158 -185 -263 -389 -263c-179 0 -285 81 -285 209c0 17 2 35 6 54h184c-2 -8 -2 -16 -2 -23c0 -59 47 -96 126 -96c91 0 159 46 176 119zM1370 1561h-184c2 8 2 16 2 23c0 59 -47 96 -127 96c-90 0 -158 -46 -175 -119h-184c33 158 185 263 389 263
c179 0 285 -81 285 -209c0 -17 -2 -35 -6 -54zM1266 633h-839v-20c0 -251 141 -411 361 -411c234 0 415 181 478 431zM458 836h832c-2 248 -143 405 -361 405c-226 0 -403 -169 -471 -405zM932 1467c381 0 620 -255 620 -624c0 -493 -330 -867 -768 -867
c-378 0 -618 255 -618 624c0 492 328 867 766 867z" />
    <glyph glyph-name="uni04EA" unicode="&#x4ea;" horiz-adv-x="1550" 
d="M1260 1597c-68 0 -122 54 -122 121s54 121 122 121s122 -54 122 -121s-54 -121 -122 -121zM873 1597c-68 0 -122 54 -122 121s54 121 122 121c69 0 123 -54 123 -121s-54 -121 -123 -121zM1266 633h-839v-20c0 -251 141 -411 361 -411c234 0 415 181 478 431zM458 836
h832c-2 248 -143 405 -361 405c-226 0 -403 -169 -471 -405zM932 1467c381 0 620 -255 620 -624c0 -493 -330 -867 -768 -867c-378 0 -618 255 -618 624c0 492 328 867 766 867z" />
    <glyph glyph-name="uni0472" unicode="&#x472;" horiz-adv-x="1550" 
d="M788 202c240 0 424 189 483 449c-62 -49 -138 -76 -223 -75c-204 0 -284 100 -442 100c-84 0 -141 -23 -179 -54v-9c0 -251 141 -411 361 -411zM929 1241c-234 0 -415 -181 -478 -430c57 41 126 65 204 65c200 0 279 -100 444 -100c92 0 152 28 191 62
c-3 246 -143 403 -361 403zM932 1467c381 0 620 -255 620 -624c0 -493 -330 -867 -768 -867c-378 0 -618 255 -618 624c0 492 328 867 766 867z" />
    <glyph glyph-name="Pecyrillic" unicode="&#x41f;" horiz-adv-x="1469" 
d="M1265 0h-258l260 1219h-682l-260 -1219h-260l307 1443h1200z" />
    <glyph glyph-name="uni0524" unicode="&#x524;" horiz-adv-x="1589" 
d="M1572 1443l-260 -1220h180l-106 -508h-235l61 285h-205l260 1219h-682l-260 -1219h-260l307 1443h1200z" />
    <glyph glyph-name="Dzhecyrillic" unicode="&#x40f;" horiz-adv-x="1469" 
d="M1265 0h-460l-61 -285h-224l61 285h-516l307 1443h258l-260 -1219h682l260 1219h260z" />
    <glyph glyph-name="Ercyrillic" unicode="&#x420;" horiz-adv-x="1276" 
d="M372 1443h520c265 0 452 -161 452 -411c0 -347 -256 -559 -613 -559h-303l-101 -473h-261zM588 1227l-116 -540h252c217 0 356 122 356 322c0 141 -97 218 -256 218h-236z" />
    <glyph glyph-name="uni048E" unicode="&#x48e;" horiz-adv-x="1276" 
d="M833 954l98 -218c94 53 149 148 149 273c0 141 -98 218 -256 218h-237l-116 -540h253c10 0 19 0 29 1l-84 196zM372 1443h519c266 0 452 -161 452 -411c0 -236 -118 -409 -305 -496l84 -186l-203 -96l-95 224c-30 -3 -62 -5 -94 -5h-303l-101 -473h-261z" />
    <glyph glyph-name="uniF4D4" horiz-adv-x="1276" 
d="M372 1443h520c265 0 452 -161 452 -411c0 -347 -256 -559 -613 -559h-303l-101 -473h-261zM588 1227l-116 -540h252c217 0 356 122 356 322c0 141 -97 218 -256 218h-236zM700 1552l-208 311h193l125 -192h7l205 192h210l-340 -311h-192z" />
    <glyph glyph-name="Escyrillic" unicode="&#x421;" horiz-adv-x="1456" 
d="M1253 937c0 6 -1 14 -1 30c-14 167 -149 273 -328 273c-292 0 -493 -265 -493 -631c0 -251 135 -405 354 -405c176 0 319 99 379 262h254c-69 -296 -324 -490 -644 -490c-371 0 -608 242 -608 620c0 507 316 871 773 871c324 0 557 -195 570 -490c0 -18 0 -29 -1 -40
h-255z" />
    <glyph glyph-name="uni04AA" unicode="&#x4aa;" horiz-adv-x="1456" 
d="M1508 937h-255c0 6 -1 14 -1 30c-14 167 -149 273 -328 273c-292 0 -493 -265 -493 -631c0 -251 135 -405 354 -405c176 0 319 99 379 262h254c-65 -280 -297 -469 -593 -488l-60 -96c110 -2 173 -55 173 -146c0 -125 -111 -211 -272 -211c-60 0 -127 10 -165 24l27 130
c38 -13 84 -20 130 -20c78 0 121 22 121 61s-41 56 -141 56h-59l21 91l71 116c-311 40 -505 271 -505 613c0 507 316 871 773 871c324 0 557 -195 570 -490c0 -18 0 -29 -1 -40z" />
    <glyph glyph-name="uniF53E" horiz-adv-x="1456" 
d="M1508 937h-255c0 6 -1 14 -1 30c-14 167 -149 273 -328 273c-292 0 -493 -265 -493 -631c0 -251 135 -405 354 -405c176 0 319 99 379 262h254c-62 -266 -274 -449 -548 -484l-57 -267h-225l58 271c-297 50 -480 278 -480 610c0 507 316 871 773 871
c324 0 557 -195 570 -490c0 -18 0 -29 -1 -40z" />
    <glyph glyph-name="Tecyrillic" unicode="&#x422;" horiz-adv-x="1251" 
d="M687 0h-261l260 1220h-443l46 223h1147l-46 -223h-443z" />
    <glyph glyph-name="uni04AC" unicode="&#x4ac;" horiz-adv-x="1251" 
d="M289 1443h1147l-46 -223h-443l-212 -997h177l-107 -508h-235l61 285h-205l260 1220h-443z" />
    <glyph glyph-name="Ucyrillic" unicode="&#x423;" horiz-adv-x="1313" 
d="M258 -12c-56 0 -95 10 -102 14l46 221c7 -2 33 -9 82 -9c94 0 171 35 239 119l-245 1110h270l158 -838h17l506 838h285l-679 -1057c-164 -255 -309 -398 -577 -398z" />
    <glyph glyph-name="Ushortcyrillic" unicode="&#x40e;" horiz-adv-x="1313" 
d="M258 -12c-56 0 -95 10 -102 14l46 221c7 -2 33 -9 82 -9c94 0 171 35 239 119l-245 1110h270l158 -838h17l506 838h285l-679 -1057c-164 -255 -309 -398 -577 -398zM610 1853h179c-21 -102 39 -165 140 -165c105 0 190 63 213 165h179c-40 -190 -187 -306 -402 -306
c-217 0 -347 114 -309 306z" />
    <glyph glyph-name="uni04EE" unicode="&#x4ee;" horiz-adv-x="1313" 
d="M258 -12c-56 0 -95 10 -102 14l46 221c7 -2 33 -9 82 -9c94 0 171 35 239 119l-245 1110h270l158 -838h17l506 838h285l-679 -1057c-164 -255 -309 -398 -577 -398zM1288 1763l-29 -139h-671l30 139h670z" />
    <glyph glyph-name="uni04F0" unicode="&#x4f0;" horiz-adv-x="1313" 
d="M258 -12c-56 0 -95 10 -102 14l46 221c7 -2 33 -9 82 -9c94 0 171 35 239 119l-245 1110h270l158 -838h17l506 838h285l-679 -1057c-164 -255 -309 -398 -577 -398zM746 1597c-68 0 -122 54 -122 121s54 121 122 121c69 0 123 -54 123 -121s-54 -121 -123 -121z
M1133 1597c-68 0 -122 54 -122 121s54 121 122 121s122 -54 122 -121s-54 -121 -122 -121z" />
    <glyph glyph-name="uni04F2" unicode="&#x4f2;" horiz-adv-x="1313" 
d="M258 -12c-56 0 -95 10 -102 14l46 221c7 -2 33 -9 82 -9c94 0 171 35 239 119l-245 1110h270l158 -838h17l506 838h285l-679 -1057c-164 -255 -309 -398 -577 -398zM1207 1558h-207l287 300h248zM823 1558h-207l287 300h248z" />
    <glyph glyph-name="uniF4CC" horiz-adv-x="1313" 
d="M258 -12c-56 0 -95 10 -102 14l46 221c7 -2 33 -9 82 -9c94 0 171 35 239 119l-245 1110h270l158 -838h17l506 838h285l-679 -1057c-164 -255 -309 -398 -577 -398zM1017 1558h-213l287 300h254z" />
    <glyph glyph-name="uniF464" horiz-adv-x="1313" 
d="M258 -12c-56 0 -95 10 -102 14l46 221c7 -2 33 -9 82 -9c94 0 171 35 239 119l-245 1110h270l158 -838h17l506 838h285l-679 -1057c-164 -255 -309 -398 -577 -398zM1017 1558h-213l287 300h254z" />
    <glyph glyph-name="Efcyrillic" unicode="&#x424;" horiz-adv-x="1725" 
d="M914 -27h-255l33 153c-334 14 -540 208 -540 505c0 395 325 678 794 692l31 147h255l-31 -147c334 -13 540 -207 540 -506c0 -393 -325 -676 -794 -691zM415 640c0 -177 120 -287 323 -296l164 761c-281 -13 -487 -207 -487 -465zM1478 806c0 180 -120 291 -323 299
l-164 -761c282 13 487 207 487 462z" />
    <glyph glyph-name="Xacyrillic" unicode="&#x425;" horiz-adv-x="1369" 
d="M-29 0l638 732l-323 711h284l233 -522h8l441 522h314l-639 -730l324 -713h-285l-234 525h-8l-443 -525h-310z" />
    <glyph glyph-name="uni04B2" unicode="&#x4b2;" horiz-adv-x="1436" 
d="M926 713l223 -490h203l-107 -508h-235l61 285h-101h-5l-234 525h-8l-443 -525h-310l638 732l-323 711h284l233 -522h8l441 522h314z" />
    <glyph glyph-name="uni04FE" unicode="&#x4fe;" horiz-adv-x="1369" 
d="M1566 1443l-547 -625h280l-40 -193h-292l284 -625h-285l-234 525h-8l-443 -525h-310l545 625h-288l40 193h302l-284 625h284l233 -522h8l441 522h314z" />
    <glyph glyph-name="uni04FC" unicode="&#x4fc;" horiz-adv-x="1371" 
d="M284 1443h285l232 -522h8l441 522h314l-639 -730l168 -367c37 -82 63 -146 83 -210c18 -59 24 -104 24 -161c0 -223 -168 -377 -413 -377c-52 0 -96 3 -121 8l43 206c16 -3 36 -5 63 -5c100 0 173 66 173 158c0 29 -4 56 -14 88c-14 47 -33 98 -60 157l-140 315h-8
l-443 -525h-310l638 731z" />
    <glyph glyph-name="Tsecyrillic" unicode="&#x426;" horiz-adv-x="1569" 
d="M1388 -285h-234l61 285h-1146l308 1443h260l-260 -1219h677l260 1219h262l-261 -1220h180z" />
    <glyph glyph-name="uni04B4" unicode="&#x4b4;" horiz-adv-x="1881" 
d="M1888 1443l-261 -1220h180l-107 -508h-234l61 285h-1146l260 1220h-398l46 223h400h260h399l-46 -223h-401l-212 -996h676l261 1219h262z" />
    <glyph glyph-name="Checyrillic" unicode="&#x427;" horiz-adv-x="1389" 
d="M1185 0h-260l130 611h-13c-92 -62 -215 -102 -363 -102c-332 0 -495 240 -426 564l79 370h260l-79 -373c-42 -193 33 -329 247 -329c154 0 278 51 345 110l127 592h260z" />
    <glyph glyph-name="uni04F4" unicode="&#x4f4;" horiz-adv-x="1389" 
d="M1185 0h-260l130 611h-13c-92 -62 -215 -102 -363 -102c-332 0 -495 240 -426 564l79 370h260l-79 -373c-42 -193 33 -329 247 -329c154 0 278 51 345 110l127 592h260zM792 1597c-68 0 -122 54 -122 121s54 121 122 121c69 0 123 -54 123 -121s-54 -121 -123 -121z
M1179 1597c-68 0 -122 54 -122 121s54 121 122 121s122 -54 122 -121s-54 -121 -122 -121z" />
    <glyph glyph-name="uni04B6" unicode="&#x4b6;" horiz-adv-x="1506" 
d="M1492 1443l-260 -1220h178l-107 -508h-234l61 285h-205l130 611h-13c-92 -62 -215 -102 -363 -102c-332 0 -495 240 -426 564l79 370h260l-79 -373c-42 -193 33 -329 247 -329c154 0 278 51 345 110l127 592h260z" />
    <glyph glyph-name="uni04CB" unicode="&#x4cb;" horiz-adv-x="1389" 
d="M1492 1443l-260 -1220h1l-48 -223h-205l-66 -285h-235l117 508h176l83 388h-13c-92 -62 -215 -102 -363 -102c-332 0 -495 240 -426 564l79 370h260l-79 -373c-42 -193 33 -329 247 -329c154 0 278 51 345 110l127 592h260z" />
    <glyph glyph-name="uniF4C6" horiz-adv-x="1389" 
d="M1492 1443l-307 -1443h3l-11 -34c-51 -246 -170 -339 -432 -339c-20 0 -63 3 -77 7l42 200c4 -1 29 -2 35 -2c105 0 151 38 175 155l8 29v0l127 595h-13c-92 -62 -215 -102 -363 -102c-332 0 -495 240 -426 564l79 370h260l-79 -373c-42 -193 33 -329 247 -329
c154 0 278 51 345 110l127 592h260z" />
    <glyph glyph-name="uni04B8" unicode="&#x4b8;" horiz-adv-x="1398" 
d="M1240 1443h261l-307 -1443h-261l131 610h-14c-62 -42 -139 -73 -229 -89l-54 -252h-181l51 241c-306 18 -454 251 -388 563l79 370h260l-79 -373c-37 -171 17 -297 179 -324l65 305h180l-64 -301c107 17 193 56 245 101z" />
    <glyph glyph-name="uni04BA" unicode="&#x4ba;" horiz-adv-x="1399" 
d="M372 1443h261l-128 -597h17c94 63 222 107 360 107c349 0 497 -226 433 -533l-90 -420h-260l86 404c43 198 -46 318 -255 318c-140 0 -263 -52 -343 -129l-127 -593h-261z" />
    <glyph glyph-name="uniF49E" horiz-adv-x="1399" 
d="M505 846h17c94 63 222 107 360 107c349 0 497 -226 433 -533l-90 -420h-260l86 404c43 198 -46 318 -255 318c-140 0 -263 -52 -343 -129l-127 -593h-261l239 1122h-151l41 197h152l26 124h261l-27 -124h401l-42 -197h-401z" />
    <glyph glyph-name="uni0526" unicode="&#x526;" horiz-adv-x="1547" 
d="M1273 223h177l-106 -508h-235l61 285h-205l86 404c43 198 -46 318 -255 318c-140 0 -263 -52 -343 -129l-127 -593h-261l307 1443h261l-128 -597h17c94 63 222 107 360 107c349 0 497 -226 433 -533z" />
    <glyph glyph-name="Tshecyrillic" unicode="&#x40b;" horiz-adv-x="1714" 
d="M1136 678c-140 0 -270 -79 -342 -177l-107 -501h-261l260 1220h-436l46 223h1134l-46 -223h-437l-95 -441h13c84 69 204 128 349 128c311 0 466 -205 397 -530l-81 -377h-260l81 381c40 185 -36 297 -215 297z" />
    <glyph glyph-name="Shacyrillic" unicode="&#x428;" horiz-adv-x="1947" 
d="M65 0l307 1443h261l-262 -1220h448l262 1220h260l-261 -1220h448l261 1220h260l-307 -1443h-1677z" />
    <glyph glyph-name="Shchacyrillic" unicode="&#x429;" horiz-adv-x="2019" 
d="M1861 -285h-234l61 285h-1623l307 1443h261l-262 -1220h448l262 1220h260l-261 -1220h448l261 1220h260l-261 -1220h180z" />
    <glyph glyph-name="Hardsigncyrillic" unicode="&#x42a;" horiz-adv-x="1492" 
d="M878 0h-588l261 1220h-333l46 223h593l-106 -493h233c290 0 481 -158 481 -423c0 -317 -248 -527 -587 -527zM931 734h-224l-113 -520h273c192 0 336 121 336 294c0 152 -109 226 -272 226z" />
    <glyph glyph-name="Yericyrillic" unicode="&#x42b;" horiz-adv-x="1788" 
d="M706 734h-223l-113 -520h273c192 0 335 121 335 294c0 152 -108 226 -272 226zM65 0l307 1443h261l-106 -493h233c290 0 481 -158 481 -423c0 -317 -249 -527 -587 -527h-589zM1589 0h-261l307 1443h261z" />
    <glyph glyph-name="uni04F8" unicode="&#x4f8;" horiz-adv-x="1788" 
d="M706 734h-223l-113 -520h273c192 0 335 121 335 294c0 152 -108 226 -272 226zM65 0l307 1443h261l-106 -493h233c290 0 481 -158 481 -423c0 -317 -249 -527 -587 -527h-589zM1589 0h-261l307 1443h261zM937 1597c-68 0 -122 54 -122 121s54 121 122 121
c69 0 123 -54 123 -121s-54 -121 -123 -121zM1324 1597c-68 0 -122 54 -122 121s54 121 122 121s122 -54 122 -121s-54 -121 -122 -121z" />
    <glyph glyph-name="uniF520" horiz-adv-x="1788" 
d="M706 734h-223l-113 -520h273c192 0 335 121 335 294c0 152 -108 226 -272 226zM65 0l307 1443h261l-106 -493h233c290 0 481 -158 481 -423c0 -317 -249 -527 -587 -527h-589zM1589 0h-261l307 1443h261zM1479 1763l-29 -139h-671l30 139h670z" />
    <glyph glyph-name="uniF536" horiz-adv-x="1788" 
d="M706 734h-223l-113 -520h273c192 0 335 121 335 294c0 152 -108 226 -272 226zM65 0l307 1443h261l-106 -493h233c290 0 481 -158 481 -423c0 -317 -249 -527 -587 -527h-589zM1589 0h-261l307 1443h261zM801 1853h179c-21 -102 39 -165 140 -165c105 0 190 63 213 165
h179c-40 -190 -187 -306 -402 -306c-217 0 -347 114 -309 306z" />
    <glyph glyph-name="uniF465" horiz-adv-x="1788" 
d="M706 734h-223l-113 -520h273c192 0 335 121 335 294c0 152 -108 226 -272 226zM65 0l307 1443h261l-106 -493h233c290 0 481 -158 481 -423c0 -317 -249 -527 -587 -527h-589zM1589 0h-261l307 1443h261zM1208 1558h-213l287 300h254z" />
    <glyph glyph-name="uni048C" unicode="&#x48c;" horiz-adv-x="1397" 
d="M500 214h272c192 0 335 118 335 286c0 145 -110 216 -275 216h-223zM652 929h233c292 0 484 -153 484 -409c0 -313 -248 -520 -585 -520h-589l238 1126h-262l40 190h262l43 201h261l-43 -201h371l-39 -190h-372z" />
    <glyph glyph-name="uni0462" unicode="&#x462;" horiz-adv-x="1397" 
d="M500 214h272c192 0 335 118 335 286c0 145 -110 216 -275 216h-223zM652 929h233c292 0 484 -153 484 -409c0 -313 -248 -520 -585 -520h-589l238 1126h-262l40 190h262l43 201h261l-43 -201h371l-39 -190h-372z" />
    <glyph glyph-name="Softsigncyrillic" unicode="&#x42c;" horiz-adv-x="1268" 
d="M706 734h-223l-113 -520h273c192 0 335 121 335 294c0 152 -108 226 -272 226zM65 0l307 1443h261l-106 -493h233c290 0 481 -158 481 -423c0 -317 -249 -527 -587 -527h-589z" />
    <glyph glyph-name="Ljecyrillic" unicode="&#x409;" horiz-adv-x="2138" 
d="M559 561c-98 -363 -223 -572 -530 -572c-41 0 -75 6 -92 12l48 231c13 -3 39 -7 61 -7c148 0 220 148 275 352l231 866h948l-103 -480h233c290 0 481 -161 481 -426c0 -292 -235 -537 -589 -537h-589l261 1220h-455zM1577 747h-224l-115 -533h272c194 0 339 128 339 294
c0 162 -109 239 -272 239z" />
    <glyph glyph-name="Njecyrillic" unicode="&#x40a;" horiz-adv-x="2141" 
d="M957 0l135 633h-628l-136 -633h-259l307 1443h260l-127 -590h629l126 590h261l-127 -591h256c277 0 459 -144 459 -372c0 -261 -218 -480 -567 -480h-589zM1262 214h275c193 0 313 102 313 239c0 127 -99 187 -245 187h-251z" />
    <glyph glyph-name="Ereversedcyrillic" unicode="&#x42d;" horiz-adv-x="1431" 
d="M680 -24c-312 0 -543 200 -555 480h257c27 -156 146 -249 318 -249c223 0 390 157 452 422h-592l44 208h575c7 246 -118 399 -326 399c-166 0 -306 -101 -376 -270h-255c82 313 328 501 655 501c394 0 611 -305 544 -761c-58 -449 -340 -730 -741 -730z" />
    <glyph glyph-name="uni04EC" unicode="&#x4ec;" horiz-adv-x="1431" 
d="M680 -24c-312 0 -543 200 -555 480h257c27 -156 146 -249 318 -249c223 0 390 157 452 422h-592l44 208h575c7 246 -118 399 -326 399c-166 0 -306 -101 -376 -270h-255c82 313 328 501 655 501c394 0 611 -305 544 -761c-58 -449 -340 -730 -741 -730zM736 1597
c-68 0 -122 54 -122 121s54 121 122 121c69 0 123 -54 123 -121s-54 -121 -123 -121zM1123 1597c-68 0 -122 54 -122 121s54 121 122 121s122 -54 122 -121s-54 -121 -122 -121z" />
    <glyph glyph-name="uniF522" horiz-adv-x="1431" 
d="M680 -24c-312 0 -543 200 -555 480h257c27 -156 146 -249 318 -249c223 0 390 157 452 422h-592l44 208h575c7 246 -118 399 -326 399c-166 0 -306 -101 -376 -270h-255c82 313 328 501 655 501c394 0 611 -305 544 -761c-58 -449 -340 -730 -741 -730zM1278 1763
l-29 -139h-671l30 139h670z" />
    <glyph glyph-name="uniF466" horiz-adv-x="1431" 
d="M680 -24c-312 0 -543 200 -555 480h257c27 -156 146 -249 318 -249c223 0 390 157 452 422h-592l44 208h575c7 246 -118 399 -326 399c-166 0 -306 -101 -376 -270h-255c82 313 328 501 655 501c394 0 611 -305 544 -761c-58 -449 -340 -730 -741 -730zM1007 1558h-213
l287 300h254z" />
    <glyph glyph-name="uniF524" horiz-adv-x="1431" 
d="M680 -24c-312 0 -543 200 -555 480h257c27 -156 146 -249 318 -249c223 0 390 157 452 422h-592l44 208h575c7 246 -118 399 -326 399c-166 0 -306 -101 -376 -270h-255c82 313 328 501 655 501c394 0 611 -305 544 -761c-58 -449 -340 -730 -741 -730zM601 1853h179
c-21 -102 39 -165 140 -165c105 0 190 63 213 165h179c-40 -190 -187 -306 -402 -306c-217 0 -347 114 -309 306z" />
    <glyph glyph-name="uniF4D6" horiz-adv-x="1431" 
d="M680 -24c-312 0 -543 200 -555 480h257c27 -156 146 -249 318 -249c223 0 390 157 452 422h-592l44 208h575c7 246 -118 399 -326 399c-166 0 -306 -101 -376 -270h-255c82 313 328 501 655 501c394 0 611 -305 544 -761c-58 -449 -340 -730 -741 -730zM937 1608
c-79 0 -141 64 -141 141c0 78 62 142 141 142c78 0 140 -64 140 -142c0 -77 -62 -141 -140 -141z" />
    <glyph glyph-name="IUcyrillic" unicode="&#x42e;" horiz-adv-x="2076" 
d="M1321 202c287 0 494 281 494 628c0 251 -138 411 -354 411c-287 0 -493 -282 -493 -628c0 -251 138 -411 353 -411zM505 846h231c88 366 370 621 729 621c377 0 613 -255 613 -624c0 -493 -327 -867 -761 -867c-374 0 -609 255 -609 624v23h-250l-133 -623h-260l307 1443
h261z" />
    <glyph glyph-name="uniF52C" horiz-adv-x="2076" 
d="M1474 1763l-29 -139h-671l30 139h670zM1321 202c287 0 494 281 494 628c0 251 -138 411 -354 411c-287 0 -493 -282 -493 -628c0 -251 138 -411 353 -411zM505 846h231c88 366 370 621 729 621c377 0 613 -255 613 -624c0 -493 -327 -867 -761 -867
c-374 0 -609 255 -609 624v23h-250l-133 -623h-260l307 1443h261z" />
    <glyph glyph-name="uniF467" horiz-adv-x="2076" 
d="M1531 1858l-328 -300h-213l287 300h254zM1321 202c287 0 494 281 494 628c0 251 -138 411 -354 411c-287 0 -493 -282 -493 -628c0 -251 138 -411 353 -411zM505 846h231c88 366 370 621 729 621c377 0 613 -255 613 -624c0 -493 -327 -867 -761 -867
c-374 0 -609 255 -609 624v23h-250l-133 -623h-260l307 1443h261z" />
    <glyph glyph-name="uniF52E" horiz-adv-x="2076" 
d="M1328 1853h179c-40 -190 -187 -306 -402 -306c-217 0 -347 114 -309 306h179c-21 -102 39 -165 140 -165c105 0 190 63 213 165zM1321 202c287 0 494 281 494 628c0 251 -138 411 -354 411c-287 0 -493 -282 -493 -628c0 -251 138 -411 353 -411zM505 846h231
c88 366 370 621 729 621c377 0 613 -255 613 -624c0 -493 -327 -867 -761 -867c-374 0 -609 255 -609 624v23h-250l-133 -623h-260l307 1443h261z" />
    <glyph glyph-name="uniF498" horiz-adv-x="2076" 
d="M1319 1597c-68 0 -122 54 -122 121s54 121 122 121s122 -54 122 -121s-54 -121 -122 -121zM932 1597c-68 0 -122 54 -122 121s54 121 122 121c69 0 123 -54 123 -121s-54 -121 -123 -121zM1321 202c287 0 494 281 494 628c0 251 -138 411 -354 411
c-287 0 -493 -282 -493 -628c0 -251 138 -411 353 -411zM505 846h231c88 366 370 621 729 621c377 0 613 -255 613 -624c0 -493 -327 -867 -761 -867c-374 0 -609 255 -609 624v23h-250l-133 -623h-260l307 1443h261z" />
    <glyph glyph-name="IAcyrillic" unicode="&#x42f;" horiz-adv-x="1326" 
d="M781 723h236l109 503h-278c-197 0 -339 -118 -339 -273s110 -230 272 -230zM766 517l-468 -517h-315l508 563c-152 60 -247 195 -247 372c0 276 234 508 589 508h596l-307 -1443h-261l111 517h-206v0z" />
    <glyph glyph-name="uniF528" horiz-adv-x="1326" 
d="M781 723h236l109 503h-278c-197 0 -339 -118 -339 -273s110 -230 272 -230zM766 517l-468 -517h-315l508 563c-152 60 -247 195 -247 372c0 276 234 508 589 508h596l-307 -1443h-261l111 517h-206v0zM1359 1763l-29 -139h-671l30 139h670z" />
    <glyph glyph-name="uniF468" horiz-adv-x="1326" 
d="M781 723h236l109 503h-278c-197 0 -339 -118 -339 -273s110 -230 272 -230zM766 517l-468 -517h-315l508 563c-152 60 -247 195 -247 372c0 276 234 508 589 508h596l-307 -1443h-261l111 517h-206v0zM1088 1558h-213l287 300h254z" />
    <glyph glyph-name="uniF4D9" horiz-adv-x="1326" 
d="M781 723h236l109 503h-278c-197 0 -339 -118 -339 -273s110 -230 272 -230zM766 517l-468 -517h-315l508 563c-152 60 -247 195 -247 372c0 276 234 508 589 508h596l-307 -1443h-261l111 517h-206v0zM817 1597c-68 0 -122 54 -122 121s54 121 122 121
c69 0 123 -54 123 -121s-54 -121 -123 -121zM1204 1597c-68 0 -122 54 -122 121s54 121 122 121s122 -54 122 -121s-54 -121 -122 -121z" />
    <glyph glyph-name="uniF52A" horiz-adv-x="1326" 
d="M781 723h236l109 503h-278c-197 0 -339 -118 -339 -273s110 -230 272 -230zM766 517l-468 -517h-315l508 563c-152 60 -247 195 -247 372c0 276 234 508 589 508h596l-307 -1443h-261l111 517h-206v0zM681 1853h179c-21 -102 39 -165 140 -165c105 0 190 63 213 165h179
c-40 -190 -187 -306 -402 -306c-217 0 -347 114 -309 306z" />
    <glyph glyph-name="uni0494" unicode="&#x494;" horiz-adv-x="1348" 
d="M1241 1443l-47 -223h-611l-95 -442h17c88 73 210 129 373 129c248 0 405 -150 405 -378c0 -307 -218 -581 -582 -581c-87 0 -141 11 -156 18l45 214c16 -6 62 -14 119 -14c195 0 307 158 307 315c0 122 -83 197 -227 197s-287 -74 -359 -177l-107 -501h-258l307 1443h869
z" />
    <glyph glyph-name="uni04A6" unicode="&#x4a6;" horiz-adv-x="2232" 
d="M371 1443h1143l-142 -665h17c90 75 212 129 370 129c257 0 408 -152 408 -382c0 -295 -209 -577 -582 -577c-73 0 -131 8 -156 18l45 214c22 -8 71 -14 119 -14c195 0 307 158 307 315c0 124 -83 197 -227 197c-142 0 -286 -73 -359 -177l-107 -501h-256l260 1219h-628
l-260 -1219h-259z" />
    <glyph glyph-name="Ecyrillic" unicode="&#x404;" horiz-adv-x="1447" 
d="M1391 451c-85 -299 -335 -487 -657 -487c-393 0 -626 283 -548 774c57 436 342 741 761 741c301 0 548 -199 553 -487v-21h-256c-9 171 -140 277 -317 277c-221 0 -399 -164 -465 -408h602l-44 -213h-589c-24 -270 104 -433 330 -433c180 0 315 110 374 257h256z" />
    <glyph glyph-name="uniF526" horiz-adv-x="1447" 
d="M1391 451c-85 -299 -335 -487 -657 -487c-393 0 -626 283 -548 774c57 436 342 741 761 741c301 0 548 -199 553 -487v-21h-256c-9 171 -140 277 -317 277c-221 0 -399 -164 -465 -408h602l-44 -213h-589c-24 -270 104 -433 330 -433c180 0 315 110 374 257h256z
M809 1597c-68 0 -122 54 -122 121s54 121 122 121c69 0 123 -54 123 -121s-54 -121 -123 -121zM1196 1597c-68 0 -122 54 -122 121s54 121 122 121s122 -54 122 -121s-54 -121 -122 -121z" />
    <glyph glyph-name="uni04C0" unicode="&#x4c0;" horiz-adv-x="530" 
d="M326 0h-261l307 1443h261z" />
    <glyph glyph-name="Icyrillic" unicode="&#x406;" horiz-adv-x="530" 
d="M326 0h-261l307 1443h261z" />
    <glyph glyph-name="Yicyrillic" unicode="&#x407;" horiz-adv-x="530" 
d="M326 0h-261l307 1443h261zM365 1597c-68 0 -122 54 -122 121s54 121 122 121c69 0 123 -54 123 -121s-54 -121 -123 -121zM752 1597c-68 0 -122 54 -122 121s54 121 122 121s122 -54 122 -121s-54 -121 -122 -121z" />
    <glyph glyph-name="uni04C0.1" horiz-adv-x="981" 
d="M1085 1231h-272l-217 -1019h271l-44 -212h-272h-261h-271l45 212h271l217 1019h-270l44 212h271h261h272z" />
    <glyph glyph-name="Icyrillic.1" horiz-adv-x="981" 
d="M1085 1231h-272l-217 -1019h271l-44 -212h-272h-261h-271l45 212h271l217 1019h-270l44 212h271h261h272z" />
    <glyph glyph-name="Yicyrillic.1" horiz-adv-x="981" 
d="M976 1597c-68 0 -122 54 -122 121s54 121 122 121s122 -54 122 -121s-54 -121 -122 -121zM589 1597c-68 0 -122 54 -122 121s54 121 122 121c69 0 123 -54 123 -121s-54 -121 -123 -121zM1085 1231h-272l-217 -1019h271l-44 -212h-272h-261h-271l45 212h271l217 1019
h-270l44 212h271h261h272z" />
    <glyph glyph-name="uni04A8" unicode="&#x4a8;" horiz-adv-x="1962" 
d="M1430 1079c-173 0 -307 -186 -307 -413c0 -145 59 -280 158 -369c211 111 349 322 349 537c0 155 -73 245 -200 245zM992 1487l-51 -244c-321 -56 -513 -286 -513 -592c0 -261 185 -454 450 -454c58 0 111 5 162 15c-107 117 -173 276 -173 440c0 359 245 650 581 650
c283 0 441 -161 441 -441c0 -275 -164 -528 -400 -668c25 -3 53 -5 84 -5c96 0 189 26 253 66l50 -198c-98 -57 -206 -84 -331 -84c-131 0 -232 27 -322 85c-113 -57 -241 -85 -380 -85c-412 0 -682 262 -682 681c0 431 327 798 831 834z" />
    <glyph glyph-name="uni04AE" unicode="&#x4ae;" horiz-adv-x="1321" 
d="M723 0h-261l121 569l-320 874h270l223 -632h6l483 632h288l-693 -890z" />
    <glyph glyph-name="uniF43A" horiz-adv-x="1321" 
d="M723 0h-261l121 569l-320 874h270l223 -632h6l483 632h288l-693 -890zM1300 1763l-29 -139h-671l30 139h670z" />
    <glyph glyph-name="uni04B0" unicode="&#x4b0;" horiz-adv-x="1311" 
d="M1528 1443l-611 -785h329l-43 -202h-389l-96 -456h-261l97 456h-380l42 202h329l-287 785h270l223 -632h6l483 632h288z" />
    <glyph glyph-name="uni04BC" unicode="&#x4bc;" horiz-adv-x="1778" 
d="M763 878h773c1 10 2 15 2 40c0 203 -128 327 -337 327c-201 0 -378 -148 -438 -367zM1767 678h-1049c-3 -14 -5 -41 -5 -69c-12 -246 123 -407 346 -407c166 0 297 70 371 197h267c-102 -260 -354 -423 -655 -423c-362 0 -582 228 -582 603c0 33 1 66 4 98h-19
c-187 0 -300 98 -300 257c0 80 27 162 78 232h206c-43 -69 -64 -129 -64 -178c0 -71 37 -106 115 -106h22c100 349 374 585 717 585c365 0 576 -212 576 -574c0 -75 -12 -159 -28 -215z" />
    <glyph glyph-name="uni04BE" unicode="&#x4be;" horiz-adv-x="1778" 
d="M763 878h773c1 10 2 15 2 40c0 203 -128 327 -337 327c-201 0 -378 -148 -438 -367zM1767 678h-1049c-3 -14 -5 -41 -5 -69c-12 -246 123 -407 346 -407c166 0 297 70 371 197h267c-91 -231 -300 -385 -556 -417l-57 -267h-224l58 271c-288 47 -458 263 -458 593
c0 33 1 66 4 98h-19c-187 0 -300 98 -300 257c0 80 27 162 78 232h206c-43 -69 -64 -129 -64 -178c0 -71 37 -106 115 -106h22c100 349 374 585 717 585c365 0 576 -212 576 -574c0 -75 -12 -159 -28 -215z" />
    <glyph glyph-name="uni04D4" unicode="&#x4d4;" horiz-adv-x="1948" 
d="M1144 1235h-135l-406 -632h405zM880 0l86 398h-485l-258 -398h-268l923 1443h1204l-46 -223h-651l-84 -389h614l-44 -211h-613l-87 -397h650l-46 -223h-895z" />
    <glyph glyph-name="uni04D8" unicode="&#x18f;" horiz-adv-x="1505" 
d="M744 -24c-363 0 -586 224 -586 587c0 71 11 145 27 206h1049c4 27 6 51 6 68c10 249 -122 404 -346 404c-164 0 -291 -68 -367 -197h-271c102 261 351 423 653 423c366 0 590 -228 590 -602c0 -528 -307 -889 -755 -889zM757 202c210 0 381 143 440 370h-772
c-2 -10 -2 -15 -2 -41c0 -205 126 -329 334 -329z" />
    <glyph glyph-name="uni04D8" unicode="&#x4d8;" horiz-adv-x="1505" 
d="M744 -24c-363 0 -586 224 -586 587c0 71 11 145 27 206h1049c4 27 6 51 6 68c10 249 -122 404 -346 404c-164 0 -291 -68 -367 -197h-271c102 261 351 423 653 423c366 0 590 -228 590 -602c0 -528 -307 -889 -755 -889zM757 202c210 0 381 143 440 370h-772
c-2 -10 -2 -15 -2 -41c0 -205 126 -329 334 -329z" />
    <glyph glyph-name="uni04DA" unicode="&#x4da;" horiz-adv-x="1505" 
d="M744 -24c-363 0 -586 224 -586 587c0 71 11 145 27 206h1049c4 27 6 51 6 68c10 249 -122 404 -346 404c-164 0 -291 -68 -367 -197h-271c102 261 351 423 653 423c366 0 590 -228 590 -602c0 -528 -307 -889 -755 -889zM757 202c210 0 381 143 440 370h-772
c-2 -10 -2 -15 -2 -41c0 -205 126 -329 334 -329zM777 1597c-68 0 -122 54 -122 121s54 121 122 121c69 0 123 -54 123 -121s-54 -121 -123 -121zM1164 1597c-68 0 -122 54 -122 121s54 121 122 121s122 -54 122 -121s-54 -121 -122 -121z" />
    <glyph glyph-name="uniF49C" horiz-adv-x="1505" 
d="M744 -24c-363 0 -586 224 -586 587c0 71 11 145 27 206h1049c4 27 6 51 6 68c10 249 -122 404 -346 404c-164 0 -291 -68 -367 -197h-271c102 261 351 423 653 423c366 0 590 -228 590 -602c0 -528 -307 -889 -755 -889zM757 202c210 0 381 143 440 370h-772
c-2 -10 -2 -15 -2 -41c0 -205 126 -329 334 -329zM1319 1763l-29 -139h-671l30 139h670z" />
    <glyph glyph-name="uni04E0" unicode="&#x4e0;" horiz-adv-x="1236" 
d="M610 -24c-324 0 -534 172 -522 427c0 16 0 23 2 29h241c-8 -146 106 -242 290 -242c173 0 300 112 300 263c0 143 -112 227 -301 227h-133l34 181l433 346l3 13h-642l47 223h983l-39 -190l-509 -401l-1 -7c242 -19 377 -168 377 -367c0 -297 -230 -502 -563 -502z" />
    <glyph glyph-name="uni0510" unicode="&#x510;" horiz-adv-x="1250" 
d="M883 637h-189c-207 0 -332 -85 -335 -229c-3 -127 110 -218 275 -218c177 0 291 81 316 222h252c-43 -277 -252 -436 -578 -436c-319 0 -527 165 -522 408c5 204 158 355 381 375l1 5c-126 36 -207 153 -202 295c7 244 224 408 535 408c320 0 522 -171 487 -416h-234
c6 128 -99 209 -264 209c-159 0 -277 -85 -281 -206c-3 -125 98 -209 254 -209h147z" />
    <glyph glyph-name="uniF538" horiz-adv-x="1250" 
d="M883 637h-189c-207 0 -332 -85 -335 -229c-3 -127 110 -218 275 -218c177 0 291 81 316 222h252c-43 -277 -252 -436 -578 -436c-319 0 -527 165 -522 408c5 204 158 355 381 375l1 5c-126 36 -207 153 -202 295c7 244 224 408 535 408c320 0 522 -171 487 -416h-234
c6 128 -99 209 -264 209c-159 0 -277 -85 -281 -206c-3 -125 98 -209 254 -209h147zM717 1599c-68 0 -122 54 -122 121s54 121 122 121c69 0 123 -54 123 -121s-54 -121 -123 -121zM1104 1599c-68 0 -122 54 -122 121s54 121 122 121s122 -54 122 -121s-54 -121 -122 -121z
" />
    <glyph glyph-name="uni0474" unicode="&#x474;" horiz-adv-x="1522" 
d="M767 0h-300l-196 1443h276l129 -1139h9l461 847c59 124 117 205 185 253c59 41 124 60 204 60s161 -20 210 -53l-115 -212c-30 12 -59 19 -83 19c-34 0 -62 -9 -88 -31c-28 -24 -56 -61 -92 -124z" />
    <glyph glyph-name="uni051C" unicode="&#x51c;" horiz-adv-x="1944" 
d="M1118 1033l-510 -1033h-248l-80 1443h254l31 -1073h6l519 1073h220l76 -1072h6l479 1072h268l-686 -1443h-247l-83 1033h-5z" />
    <glyph glyph-name="Djecyrillic" unicode="&#x402;" horiz-adv-x="1709" 
d="M426 0l260 1220h-436l46 223h1134l-46 -223h-437l-95 -442h14c77 77 201 129 334 129c282 0 444 -170 444 -424c0 -312 -221 -535 -562 -535c-88 0 -158 11 -174 18l45 214c15 -6 66 -14 129 -14c172 0 296 116 296 279c0 147 -90 233 -243 233
c-130 0 -271 -76 -341 -177l-107 -501h-261z" />
    <glyph glyph-name="Dzecyrillic" unicode="&#x405;" horiz-adv-x="1287" 
d="M93 424h251c17 -136 144 -232 332 -232c165 0 287 74 287 202c0 103 -61 157 -226 208l-113 35c-240 75 -360 195 -360 391c0 263 220 439 532 439c318 0 536 -163 537 -432h-246c-6 128 -114 216 -289 216c-177 0 -271 -93 -271 -195c0 -93 66 -151 222 -199l116 -36
c246 -75 364 -190 364 -382c0 -254 -203 -463 -557 -463c-329 0 -572 167 -579 448z" />
    <glyph glyph-name="Jecyrillic" unicode="&#x408;" horiz-adv-x="1110" 
d="M61 366c0 12 1 29 1 40h253v-8c0 -115 75 -186 195 -186c122 0 196 76 229 230l213 1001h261l-222 -1044c-57 -271 -227 -423 -494 -423c-257 0 -436 162 -436 390z" />
    <glyph glyph-name="a" unicode="a" horiz-adv-x="1070" 
d="M473 173c129 0 241 82 267 198l23 101l-248 -12c-135 -5 -216 -62 -216 -152c0 -82 71 -135 174 -135zM383 -17c-181 0 -325 122 -325 292c0 213 169 338 450 350l289 12l14 64c4 17 4 30 4 44c0 86 -67 140 -184 140c-120 0 -194 -55 -214 -140h-238
c35 202 216 339 471 339c244 0 407 -127 407 -311c0 -31 -3 -65 -8 -88l-145 -685h-236l27 128h-4c-66 -88 -177 -145 -308 -145z" />
    <glyph glyph-name="agrave" unicode="&#xe0;" horiz-adv-x="1070" 
d="M473 173c129 0 241 82 267 198l23 101l-248 -12c-135 -5 -216 -62 -216 -152c0 -82 71 -135 174 -135zM383 -17c-181 0 -325 122 -325 292c0 213 169 338 450 350l289 12l14 64c4 17 4 30 4 44c0 86 -67 140 -184 140c-120 0 -194 -55 -214 -140h-238
c35 202 216 339 471 339c244 0 407 -127 407 -311c0 -31 -3 -65 -8 -88l-145 -685h-236l27 128h-4c-66 -88 -177 -145 -308 -145zM793 1231h-195l-187 308h231z" />
    <glyph glyph-name="aacute" unicode="&#xe1;" horiz-adv-x="1070" 
d="M473 173c129 0 241 82 267 198l23 101l-248 -12c-135 -5 -216 -62 -216 -152c0 -82 71 -135 174 -135zM383 -17c-181 0 -325 122 -325 292c0 213 169 338 450 350l289 12l14 64c4 17 4 30 4 44c0 86 -67 140 -184 140c-120 0 -194 -55 -214 -140h-238
c35 202 216 339 471 339c244 0 407 -127 407 -311c0 -31 -3 -65 -8 -88l-145 -685h-236l27 128h-4c-66 -88 -177 -145 -308 -145zM817 1231h-209l283 308h244z" />
    <glyph glyph-name="adieresis" unicode="&#xe4;" horiz-adv-x="1070" 
d="M473 173c129 0 241 82 267 198l23 101l-248 -12c-135 -5 -216 -62 -216 -152c0 -82 71 -135 174 -135zM383 -17c-181 0 -325 122 -325 292c0 213 169 338 450 350l289 12l14 64c4 17 4 30 4 44c0 86 -67 140 -184 140c-120 0 -194 -55 -214 -140h-238
c35 202 216 339 471 339c244 0 407 -127 407 -311c0 -31 -3 -65 -8 -88l-145 -685h-236l27 128h-4c-66 -88 -177 -145 -308 -145zM530 1229c-68 0 -122 54 -122 121s54 121 122 121c69 0 123 -54 123 -121s-54 -121 -123 -121zM917 1229c-68 0 -122 54 -122 121
s54 121 122 121s122 -54 122 -121s-54 -121 -122 -121z" />
    <glyph glyph-name="adieresismacron" unicode="&#x1df;" horiz-adv-x="1070" 
d="M473 173c129 0 241 82 267 198l23 101l-248 -12c-135 -5 -216 -62 -216 -152c0 -82 71 -135 174 -135zM383 -17c-181 0 -325 122 -325 292c0 213 169 338 450 350l289 12l14 64c4 17 4 30 4 44c0 86 -67 140 -184 140c-120 0 -194 -55 -214 -140h-238
c35 202 216 339 471 339c244 0 407 -127 407 -311c0 -31 -3 -65 -8 -88l-145 -685h-236l27 128h-4c-66 -88 -177 -145 -308 -145zM525 1216c-68 0 -123 53 -123 120s55 121 123 121s122 -54 122 -121s-54 -120 -122 -120zM911 1216c-68 0 -122 53 -122 120s54 121 122 121
c69 0 123 -54 123 -121s-54 -120 -123 -120zM1119 1746l-29 -138h-615l29 138h615z" />
    <glyph glyph-name="aring" unicode="&#xe5;" horiz-adv-x="1070" 
d="M473 173c129 0 241 82 267 198l23 101l-248 -12c-135 -5 -216 -62 -216 -152c0 -82 71 -135 174 -135zM383 -17c-181 0 -325 122 -325 292c0 213 169 338 450 350l289 12l14 64c4 17 4 30 4 44c0 86 -67 140 -184 140c-120 0 -194 -55 -214 -140h-238
c35 202 216 339 471 339c244 0 407 -127 407 -311c0 -31 -3 -65 -8 -88l-145 -685h-236l27 128h-4c-66 -88 -177 -145 -308 -145zM727 1181c-111 0 -205 81 -205 201c0 122 94 212 211 212c113 0 206 -81 205 -201c0 -122 -92 -212 -211 -212zM727 1290c59 0 101 40 101 101
c-1 56 -41 95 -95 95c-57 0 -100 -41 -100 -102c0 -56 41 -94 94 -94z" />
    <glyph glyph-name="aringacute" unicode="&#x1fb;" horiz-adv-x="1070" 
d="M473 173c129 0 241 82 267 198l23 101l-248 -12c-135 -5 -216 -62 -216 -152c0 -82 71 -135 174 -135zM383 -17c-181 0 -325 122 -325 292c0 213 169 338 450 350l289 12l14 64c4 17 4 30 4 44c0 86 -67 140 -184 140c-120 0 -194 -55 -214 -140h-238
c35 202 216 339 471 339c244 0 407 -127 407 -311c0 -31 -3 -65 -8 -88l-145 -685h-236l27 128h-4c-66 -88 -177 -145 -308 -145zM697 1672l173 208h212l-200 -208h-185zM725 1187c-114 0 -203 78 -203 199c0 122 89 209 208 209c116 0 205 -77 204 -198
c-1 -123 -88 -210 -209 -210zM634 1387c0 -55 38 -91 91 -91c58 0 98 39 97 99c-1 56 -38 92 -92 92c-56 0 -96 -39 -96 -100z" />
    <glyph glyph-name="atilde" unicode="&#xe3;" horiz-adv-x="1070" 
d="M473 173c129 0 241 82 267 198l23 101l-248 -12c-135 -5 -216 -62 -216 -152c0 -82 71 -135 174 -135zM383 -17c-181 0 -325 122 -325 292c0 213 169 338 450 350l289 12l14 64c4 17 4 30 4 44c0 86 -67 140 -184 140c-120 0 -194 -55 -214 -140h-238
c35 202 216 339 471 339c244 0 407 -127 407 -311c0 -31 -3 -65 -8 -88l-145 -685h-236l27 128h-4c-66 -88 -177 -145 -308 -145zM847 1230c-137 0 -166 140 -245 140c-44 0 -83 -45 -100 -127h-145c31 166 129 268 251 268c143 0 169 -141 245 -141c42 0 79 44 98 130h146
c-34 -164 -132 -270 -250 -270z" />
    <glyph glyph-name="abrevegrave" unicode="&#x1eb1;" horiz-adv-x="1070" 
d="M473 173c129 0 241 82 267 198l23 101l-248 -12c-135 -5 -216 -62 -216 -152c0 -82 71 -135 174 -135zM383 -17c-181 0 -325 122 -325 292c0 213 169 338 450 350l289 12l14 64c4 17 4 30 4 44c0 86 -67 140 -184 140c-120 0 -194 -55 -214 -140h-238
c35 202 216 339 471 339c244 0 407 -127 407 -311c0 -31 -3 -65 -8 -88l-145 -685h-236l27 128h-4c-66 -88 -177 -145 -308 -145zM867 1563h-171l-170 293h207zM1104 1530c-43 -190 -190 -319 -409 -319c-174 0 -289 104 -289 249c0 25 4 49 9 70h159c-3 -13 -6 -29 -6 -45
c0 -85 56 -138 150 -138c109 0 198 71 223 183h163z" />
    <glyph glyph-name="adotmacron" unicode="&#x1e1;" horiz-adv-x="1070" 
d="M473 173c129 0 241 82 267 198l23 101l-248 -12c-135 -5 -216 -62 -216 -152c0 -82 71 -135 174 -135zM383 -17c-181 0 -325 122 -325 292c0 213 169 338 450 350l289 12l14 64c4 17 4 30 4 44c0 86 -67 140 -184 140c-120 0 -194 -55 -214 -140h-238
c35 202 216 339 471 339c244 0 407 -127 407 -311c0 -31 -3 -65 -8 -88l-145 -685h-236l27 128h-4c-66 -88 -177 -145 -308 -145zM720 1204c-78 0 -138 62 -138 138c0 77 60 138 138 138c77 0 137 -61 137 -138c0 -76 -60 -138 -137 -138zM1119 1746l-29 -138h-615l29 138
h615z" />
    <glyph glyph-name="aringbelow" unicode="&#x1e01;" horiz-adv-x="1070" 
d="M473 173c129 0 241 82 267 198l23 101l-248 -12c-135 -5 -216 -62 -216 -152c0 -82 71 -135 174 -135zM383 -17c-181 0 -325 122 -325 292c0 213 169 338 450 350l289 12l14 64c4 17 4 30 4 44c0 86 -67 140 -184 140c-120 0 -194 -55 -214 -140h-238
c35 202 216 339 471 339c244 0 407 -127 407 -311c0 -31 -3 -65 -8 -88l-145 -685h-236l27 128h-4c-66 -88 -177 -145 -308 -145zM437 -516c-111 0 -205 81 -205 201c0 122 94 212 211 212c113 0 206 -81 205 -201c0 -122 -92 -212 -211 -212zM437 -407c59 0 101 40 101 101
c-1 56 -41 95 -95 95c-57 0 -100 -41 -100 -102c0 -56 41 -94 94 -94z" />
    <glyph glyph-name="acircumflex" unicode="&#xe2;" horiz-adv-x="1070" 
d="M473 173c129 0 241 82 267 198l23 101l-248 -12c-135 -5 -216 -62 -216 -152c0 -82 71 -135 174 -135zM383 -17c-181 0 -325 122 -325 292c0 213 169 338 450 350l289 12l14 64c4 17 4 30 4 44c0 86 -67 140 -184 140c-120 0 -194 -55 -214 -140h-238
c35 202 216 339 471 339c244 0 407 -127 407 -311c0 -31 -3 -65 -8 -88l-145 -685h-236l27 128h-4c-66 -88 -177 -145 -308 -145zM863 1537l200 -312h-194l-117 188h-7l-198 -188h-209l334 312h191z" />
    <glyph glyph-name="acircumflexdotbelow" unicode="&#x1ead;" horiz-adv-x="1070" 
d="M473 173c129 0 241 82 267 198l23 101l-248 -12c-135 -5 -216 -62 -216 -152c0 -82 71 -135 174 -135zM383 -17c-181 0 -325 122 -325 292c0 213 169 338 450 350l289 12l14 64c4 17 4 30 4 44c0 86 -67 140 -184 140c-120 0 -194 -55 -214 -140h-238
c35 202 216 339 471 339c244 0 407 -127 407 -311c0 -31 -3 -65 -8 -88l-145 -685h-236l27 128h-4c-66 -88 -177 -145 -308 -145zM863 1537l200 -312h-194l-117 188h-7l-198 -188h-209l334 312h191zM437 -450c-79 0 -141 64 -141 141c0 78 62 142 141 142
c78 0 140 -64 140 -142c0 -77 -62 -141 -140 -141z" />
    <glyph glyph-name="acircumflexacute" unicode="&#x1ea5;" horiz-adv-x="1070" 
d="M473 173c129 0 241 82 267 198l23 101l-248 -12c-135 -5 -216 -62 -216 -152c0 -82 71 -135 174 -135zM383 -17c-181 0 -325 122 -325 292c0 213 169 338 450 350l289 12l14 64c4 17 4 30 4 44c0 86 -67 140 -184 140c-120 0 -194 -55 -214 -140h-238
c35 202 216 339 471 339c244 0 407 -127 407 -311c0 -31 -3 -65 -8 -88l-145 -685h-236l27 128h-4c-66 -88 -177 -145 -308 -145zM841 1517l203 -299h-190l-119 179h-7l-195 -179h-215l331 299h192zM925 1565l268 291h220l-295 -291h-193z" />
    <glyph glyph-name="acircumflextilde" unicode="&#x1eab;" horiz-adv-x="1070" 
d="M473 173c129 0 241 82 267 198l23 101l-248 -12c-135 -5 -216 -62 -216 -152c0 -82 71 -135 174 -135zM383 -17c-181 0 -325 122 -325 292c0 213 169 338 450 350l289 12l14 64c4 17 4 30 4 44c0 86 -67 140 -184 140c-120 0 -194 -55 -214 -140h-238
c35 202 216 339 471 339c244 0 407 -127 407 -311c0 -31 -3 -65 -8 -88l-145 -685h-236l27 128h-4c-66 -88 -177 -145 -308 -145zM840 1510l204 -292h-190l-121 173h-6l-195 -173h-214l329 292h193zM914 1593c-138 0 -170 139 -247 139c-44 0 -82 -45 -96 -120h-144
c31 162 127 258 249 258c137 0 168 -138 247 -138c43 0 77 43 95 122h144c-30 -161 -129 -261 -248 -261z" />
    <glyph glyph-name="acircumflexgrave" unicode="&#x1ea7;" horiz-adv-x="1070" 
d="M473 173c129 0 241 82 267 198l23 101l-248 -12c-135 -5 -216 -62 -216 -152c0 -82 71 -135 174 -135zM383 -17c-181 0 -325 122 -325 292c0 213 169 338 450 350l289 12l14 64c4 17 4 30 4 44c0 86 -67 140 -184 140c-120 0 -194 -55 -214 -140h-238
c35 202 216 339 471 339c244 0 407 -127 407 -311c0 -31 -3 -65 -8 -88l-145 -685h-236l27 128h-4c-66 -88 -177 -145 -308 -145zM1150 1563h-172l-169 293h206zM841 1517l203 -299h-190l-119 179h-7l-195 -179h-215l331 299h192z" />
    <glyph glyph-name="acircumflexhookabove" unicode="&#x1ea9;" horiz-adv-x="1070" 
d="M473 173c129 0 241 82 267 198l23 101l-248 -12c-135 -5 -216 -62 -216 -152c0 -82 71 -135 174 -135zM383 -17c-181 0 -325 122 -325 292c0 213 169 338 450 350l289 12l14 64c4 17 4 30 4 44c0 86 -67 140 -184 140c-120 0 -194 -55 -214 -140h-238
c35 202 216 339 471 339c244 0 407 -127 407 -311c0 -31 -3 -65 -8 -88l-145 -685h-236l27 128h-4c-66 -88 -177 -145 -308 -145zM862 1745l27 126c32 13 83 23 124 23c114 0 187 -60 187 -153c0 -108 -88 -213 -208 -253l-62 97c65 24 113 73 113 116c0 37 -31 61 -79 61
c-36 0 -69 -5 -102 -17zM841 1517l203 -299h-190l-119 179h-7l-195 -179h-215l331 299h192z" />
    <glyph glyph-name="abreve" unicode="&#x103;" horiz-adv-x="1070" 
d="M473 173c129 0 241 82 267 198l23 101l-248 -12c-135 -5 -216 -62 -216 -152c0 -82 71 -135 174 -135zM383 -17c-181 0 -325 122 -325 292c0 213 169 338 450 350l289 12l14 64c4 17 4 30 4 44c0 86 -67 140 -184 140c-120 0 -194 -55 -214 -140h-238
c35 202 216 339 471 339c244 0 407 -127 407 -311c0 -31 -3 -65 -8 -88l-145 -685h-236l27 128h-4c-66 -88 -177 -145 -308 -145zM421 1537h159c-3 -13 -6 -29 -6 -45c0 -86 58 -138 150 -138c108 0 198 69 224 183h162c-43 -197 -193 -319 -410 -319
c-164 0 -288 103 -288 251c0 24 4 46 9 68z" />
    <glyph glyph-name="abreveacute" unicode="&#x1eaf;" horiz-adv-x="1070" 
d="M473 173c129 0 241 82 267 198l23 101l-248 -12c-135 -5 -216 -62 -216 -152c0 -82 71 -135 174 -135zM383 -17c-181 0 -325 122 -325 292c0 213 169 338 450 350l289 12l14 64c4 17 4 30 4 44c0 86 -67 140 -184 140c-120 0 -194 -55 -214 -140h-238
c35 202 216 339 471 339c244 0 407 -127 407 -311c0 -31 -3 -65 -8 -88l-145 -685h-236l27 128h-4c-66 -88 -177 -145 -308 -145zM658 1565l269 291h220l-296 -291h-193zM1104 1530c-43 -190 -190 -319 -409 -319c-174 0 -289 104 -289 249c0 25 4 49 9 70h159
c-3 -13 -6 -29 -6 -45c0 -85 56 -138 150 -138c109 0 198 71 223 183h163z" />
    <glyph glyph-name="abrevetilde" unicode="&#x1eb5;" horiz-adv-x="1070" 
d="M473 173c129 0 241 82 267 198l23 101l-248 -12c-135 -5 -216 -62 -216 -152c0 -82 71 -135 174 -135zM383 -17c-181 0 -325 122 -325 292c0 213 169 338 450 350l289 12l14 64c4 17 4 30 4 44c0 86 -67 140 -184 140c-120 0 -194 -55 -214 -140h-238
c35 202 216 339 471 339c244 0 407 -127 407 -311c0 -31 -3 -65 -8 -88l-145 -685h-236l27 128h-4c-66 -88 -177 -145 -308 -145zM1104 1530c-43 -190 -190 -319 -409 -319c-174 0 -289 104 -289 249c0 25 4 49 9 70h159c-3 -13 -6 -29 -6 -45c0 -85 56 -138 150 -138
c109 0 198 71 223 183h163zM929 1593c-138 0 -170 139 -247 139c-44 0 -82 -45 -96 -120h-144c31 162 127 258 249 258c137 0 168 -138 247 -138c43 0 77 43 95 122h144c-30 -161 -129 -261 -248 -261z" />
    <glyph glyph-name="abrevehookabove" unicode="&#x1eb3;" horiz-adv-x="1070" 
d="M473 173c129 0 241 82 267 198l23 101l-248 -12c-135 -5 -216 -62 -216 -152c0 -82 71 -135 174 -135zM383 -17c-181 0 -325 122 -325 292c0 213 169 338 450 350l289 12l14 64c4 17 4 30 4 44c0 86 -67 140 -184 140c-120 0 -194 -55 -214 -140h-238
c35 202 216 339 471 339c244 0 407 -127 407 -311c0 -31 -3 -65 -8 -88l-145 -685h-236l27 128h-4c-66 -88 -177 -145 -308 -145zM613 1756l26 116c32 13 82 22 122 22c112 0 182 -56 182 -145c0 -96 -88 -200 -197 -236l-62 92c60 22 106 68 106 109c0 35 -31 58 -78 58
c-34 0 -66 -5 -99 -16zM1104 1530c-43 -190 -190 -319 -409 -319c-174 0 -289 104 -289 249c0 25 4 49 9 70h159c-3 -13 -6 -29 -6 -45c0 -85 56 -138 150 -138c109 0 198 71 223 183h163z" />
    <glyph glyph-name="abrevedotbelow" unicode="&#x1eb7;" horiz-adv-x="1070" 
d="M473 173c129 0 241 82 267 198l23 101l-248 -12c-135 -5 -216 -62 -216 -152c0 -82 71 -135 174 -135zM383 -17c-181 0 -325 122 -325 292c0 213 169 338 450 350l289 12l14 64c4 17 4 30 4 44c0 86 -67 140 -184 140c-120 0 -194 -55 -214 -140h-238
c35 202 216 339 471 339c244 0 407 -127 407 -311c0 -31 -3 -65 -8 -88l-145 -685h-236l27 128h-4c-66 -88 -177 -145 -308 -145zM421 1537h159c-3 -13 -6 -29 -6 -45c0 -86 58 -138 150 -138c108 0 198 69 224 183h162c-43 -197 -193 -319 -410 -319
c-164 0 -288 103 -288 251c0 24 4 46 9 68zM437 -450c-79 0 -141 64 -141 141c0 78 62 142 141 142c78 0 140 -64 140 -142c0 -77 -62 -141 -140 -141z" />
    <glyph glyph-name="ainvertedbreve" unicode="&#x203;" horiz-adv-x="1070" 
d="M473 173c129 0 241 82 267 198l23 101l-248 -12c-135 -5 -216 -62 -216 -152c0 -82 71 -135 174 -135zM383 -17c-181 0 -325 122 -325 292c0 213 169 338 450 350l289 12l14 64c4 17 4 30 4 44c0 86 -67 140 -184 140c-120 0 -194 -55 -214 -140h-238
c35 202 216 339 471 339c244 0 407 -127 407 -311c0 -31 -3 -65 -8 -88l-145 -685h-236l27 128h-4c-66 -88 -177 -145 -308 -145zM1035 1211h-160c3 13 7 29 7 45c0 86 -58 138 -151 138c-107 0 -197 -69 -223 -183h-162c43 197 192 319 409 319c164 0 288 -103 288 -251
c0 -24 -3 -46 -8 -68z" />
    <glyph glyph-name="acaron" unicode="&#x1ce;" horiz-adv-x="1070" 
d="M473 173c129 0 241 82 267 198l23 101l-248 -12c-135 -5 -216 -62 -216 -152c0 -82 71 -135 174 -135zM383 -17c-181 0 -325 122 -325 292c0 213 169 338 450 350l289 12l14 64c4 17 4 30 4 44c0 86 -67 140 -184 140c-120 0 -194 -55 -214 -140h-238
c35 202 216 339 471 339c244 0 407 -127 407 -311c0 -31 -3 -65 -8 -88l-145 -685h-236l27 128h-4c-66 -88 -177 -145 -308 -145zM803 1225h-192l-200 312h190l117 -190h6l199 190h212z" />
    <glyph glyph-name="adotaccent" unicode="&#x227;" horiz-adv-x="1070" 
d="M473 173c129 0 241 82 267 198l23 101l-248 -12c-135 -5 -216 -62 -216 -152c0 -82 71 -135 174 -135zM383 -17c-181 0 -325 122 -325 292c0 213 169 338 450 350l289 12l14 64c4 17 4 30 4 44c0 86 -67 140 -184 140c-120 0 -194 -55 -214 -140h-238
c35 202 216 339 471 339c244 0 407 -127 407 -311c0 -31 -3 -65 -8 -88l-145 -685h-236l27 128h-4c-66 -88 -177 -145 -308 -145zM722 1228c-78 0 -141 63 -141 141c0 77 63 141 141 141s141 -64 141 -141c0 -78 -63 -141 -141 -141z" />
    <glyph glyph-name="adotbelow" unicode="&#x1ea1;" horiz-adv-x="1070" 
d="M473 173c129 0 241 82 267 198l23 101l-248 -12c-135 -5 -216 -62 -216 -152c0 -82 71 -135 174 -135zM383 -17c-181 0 -325 122 -325 292c0 213 169 338 450 350l289 12l14 64c4 17 4 30 4 44c0 86 -67 140 -184 140c-120 0 -194 -55 -214 -140h-238
c35 202 216 339 471 339c244 0 407 -127 407 -311c0 -31 -3 -65 -8 -88l-145 -685h-236l27 128h-4c-66 -88 -177 -145 -308 -145zM437 -450c-79 0 -141 64 -141 141c0 78 62 142 141 142c78 0 140 -64 140 -142c0 -77 -62 -141 -140 -141z" />
    <glyph glyph-name="ahookabove" unicode="&#x1ea3;" horiz-adv-x="1070" 
d="M473 173c129 0 241 82 267 198l23 101l-248 -12c-135 -5 -216 -62 -216 -152c0 -82 71 -135 174 -135zM383 -17c-181 0 -325 122 -325 292c0 213 169 338 450 350l289 12l14 64c4 17 4 30 4 44c0 86 -67 140 -184 140c-120 0 -194 -55 -214 -140h-238
c35 202 216 339 471 339c244 0 407 -127 407 -311c0 -31 -3 -65 -8 -88l-145 -685h-236l27 128h-4c-66 -88 -177 -145 -308 -145zM578 1461l28 128c31 14 79 23 129 23c110 0 191 -68 191 -162c0 -114 -88 -215 -222 -257l-56 105c77 26 115 69 115 117c0 38 -35 66 -83 66
c-36 0 -73 -7 -102 -20z" />
    <glyph glyph-name="adblgrave" unicode="&#x201;" horiz-adv-x="1070" 
d="M473 173c129 0 241 82 267 198l23 101l-248 -12c-135 -5 -216 -62 -216 -152c0 -82 71 -135 174 -135zM383 -17c-181 0 -325 122 -325 292c0 213 169 338 450 350l289 12l14 64c4 17 4 30 4 44c0 86 -67 140 -184 140c-120 0 -194 -55 -214 -140h-238
c35 202 216 339 471 339c244 0 407 -127 407 -311c0 -31 -3 -65 -8 -88l-145 -685h-236l27 128h-4c-66 -88 -177 -145 -308 -145zM632 1232h-176l-189 307h217zM982 1232h-175l-189 307h216z" />
    <glyph glyph-name="amacron" unicode="&#x101;" horiz-adv-x="1070" 
d="M473 173c129 0 241 82 267 198l23 101l-248 -12c-135 -5 -216 -62 -216 -152c0 -82 71 -135 174 -135zM383 -17c-181 0 -325 122 -325 292c0 213 169 338 450 350l289 12l14 64c4 17 4 30 4 44c0 86 -67 140 -184 140c-120 0 -194 -55 -214 -140h-238
c35 202 216 339 471 339c244 0 407 -127 407 -311c0 -31 -3 -65 -8 -88l-145 -685h-236l27 128h-4c-66 -88 -177 -145 -308 -145zM1050 1418l-29 -138h-615l29 138h615z" />
    <glyph glyph-name="aogonek" unicode="&#x105;" horiz-adv-x="1070" 
d="M472 179c135 0 244 78 269 192l23 101l-251 -12c-132 -5 -213 -63 -213 -152c0 -78 69 -129 172 -129zM791 -416c-23 -12 -74 -22 -132 -22c-128 0 -210 69 -210 168c0 107 79 194 220 272l27 126h-4c-66 -88 -175 -139 -310 -139c-184 0 -323 123 -323 286
c0 210 165 338 453 350l286 12l14 64c3 15 4 25 4 44c0 83 -72 134 -189 134c-111 0 -189 -49 -209 -134h-238c35 203 219 333 466 333c245 0 412 -124 412 -305c0 -35 -3 -66 -8 -88l-146 -687l-17 -5c-134 -45 -238 -131 -238 -203c0 -46 40 -73 98 -73c29 0 55 4 73 11z
" />
    <glyph glyph-name="a.1" horiz-adv-x="1199" 
d="M572 188c185 0 323 187 323 427c0 151 -93 256 -233 256c-180 0 -313 -182 -313 -419c0 -161 86 -264 223 -264zM1024 0h-240l36 167h-8c-70 -111 -195 -184 -329 -184c-235 0 -383 174 -383 443c0 370 227 654 530 654c165 0 292 -91 329 -224h10l43 206h238z" />
    <glyph glyph-name="agrave.1" horiz-adv-x="1199" 
d="M572 188c185 0 323 187 323 427c0 151 -93 256 -233 256c-180 0 -313 -182 -313 -419c0 -161 86 -264 223 -264zM1024 0h-240l36 167h-8c-70 -111 -195 -184 -329 -184c-235 0 -383 174 -383 443c0 370 227 654 530 654c165 0 292 -91 329 -224h10l43 206h238zM871 1231
h-195l-187 308h231z" />
    <glyph glyph-name="aacute.1" horiz-adv-x="1199" 
d="M572 188c185 0 323 187 323 427c0 151 -93 256 -233 256c-180 0 -313 -182 -313 -419c0 -161 86 -264 223 -264zM1024 0h-240l36 167h-8c-70 -111 -195 -184 -329 -184c-235 0 -383 174 -383 443c0 370 227 654 530 654c165 0 292 -91 329 -224h10l43 206h238zM895 1231
h-209l283 308h244z" />
    <glyph glyph-name="adieresis.1" horiz-adv-x="1199" 
d="M572 188c185 0 323 187 323 427c0 151 -93 256 -233 256c-180 0 -313 -182 -313 -419c0 -161 86 -264 223 -264zM1024 0h-240l36 167h-8c-70 -111 -195 -184 -329 -184c-235 0 -383 174 -383 443c0 370 227 654 530 654c165 0 292 -91 329 -224h10l43 206h238zM608 1229
c-68 0 -122 54 -122 121s54 121 122 121c69 0 123 -54 123 -121s-54 -121 -123 -121zM995 1229c-68 0 -122 54 -122 121s54 121 122 121s122 -54 122 -121s-54 -121 -122 -121z" />
    <glyph glyph-name="adieresismacron.1" horiz-adv-x="1199" 
d="M572 188c185 0 323 187 323 427c0 151 -93 256 -233 256c-180 0 -313 -182 -313 -419c0 -161 86 -264 223 -264zM1024 0h-240l36 167h-8c-70 -111 -195 -184 -329 -184c-235 0 -383 174 -383 443c0 370 227 654 530 654c165 0 292 -91 329 -224h10l43 206h238zM603 1216
c-68 0 -123 53 -123 120s55 121 123 121s122 -54 122 -121s-54 -120 -122 -120zM989 1216c-68 0 -122 53 -122 120s54 121 122 121c69 0 123 -54 123 -121s-54 -120 -123 -120zM1197 1746l-29 -138h-615l29 138h615z" />
    <glyph glyph-name="aring.1" horiz-adv-x="1199" 
d="M572 188c185 0 323 187 323 427c0 151 -93 256 -233 256c-180 0 -313 -182 -313 -419c0 -161 86 -264 223 -264zM1024 0h-240l36 167h-8c-70 -111 -195 -184 -329 -184c-235 0 -383 174 -383 443c0 370 227 654 530 654c165 0 292 -91 329 -224h10l43 206h238zM805 1181
c-111 0 -205 81 -205 201c0 122 94 212 211 212c113 0 206 -81 205 -201c0 -122 -92 -212 -211 -212zM805 1290c59 0 101 40 101 101c-1 56 -41 95 -95 95c-57 0 -100 -41 -100 -102c0 -56 41 -94 94 -94z" />
    <glyph glyph-name="aringacute.1" horiz-adv-x="1199" 
d="M572 188c185 0 323 187 323 427c0 151 -93 256 -233 256c-180 0 -313 -182 -313 -419c0 -161 86 -264 223 -264zM1024 0h-240l36 167h-8c-70 -111 -195 -184 -329 -184c-235 0 -383 174 -383 443c0 370 227 654 530 654c165 0 292 -91 329 -224h10l43 206h238zM775 1672
l173 208h212l-200 -208h-185zM803 1187c-114 0 -203 78 -203 199c0 122 89 209 208 209c116 0 205 -77 204 -198c-1 -123 -88 -210 -209 -210zM712 1387c0 -55 38 -91 91 -91c58 0 98 39 97 99c-1 56 -38 92 -92 92c-56 0 -96 -39 -96 -100z" />
    <glyph glyph-name="atilde.1" horiz-adv-x="1199" 
d="M572 188c185 0 323 187 323 427c0 151 -93 256 -233 256c-180 0 -313 -182 -313 -419c0 -161 86 -264 223 -264zM1024 0h-240l36 167h-8c-70 -111 -195 -184 -329 -184c-235 0 -383 174 -383 443c0 370 227 654 530 654c165 0 292 -91 329 -224h10l43 206h238zM925 1231
c-137 0 -166 140 -245 140c-44 0 -83 -45 -100 -127h-145c31 166 129 268 251 268c143 0 169 -141 245 -141c42 0 79 44 98 130h146c-34 -164 -132 -270 -250 -270z" />
    <glyph glyph-name="abrevegrave.1" horiz-adv-x="1199" 
d="M572 188c185 0 323 187 323 427c0 151 -93 256 -233 256c-180 0 -313 -182 -313 -419c0 -161 86 -264 223 -264zM1024 0h-240l36 167h-8c-70 -111 -195 -184 -329 -184c-235 0 -383 174 -383 443c0 370 227 654 530 654c165 0 292 -91 329 -224h10l43 206h238zM945 1563
h-171l-170 293h207zM1182 1530c-43 -190 -190 -319 -409 -319c-174 0 -289 104 -289 249c0 25 4 49 9 70h159c-3 -13 -6 -29 -6 -45c0 -85 56 -138 150 -138c109 0 198 71 223 183h163z" />
    <glyph glyph-name="adotmacron.1" horiz-adv-x="1199" 
d="M572 188c185 0 323 187 323 427c0 151 -93 256 -233 256c-180 0 -313 -182 -313 -419c0 -161 86 -264 223 -264zM1024 0h-240l36 167h-8c-70 -111 -195 -184 -329 -184c-235 0 -383 174 -383 443c0 370 227 654 530 654c165 0 292 -91 329 -224h10l43 206h238zM798 1204
c-78 0 -138 62 -138 138c0 77 60 138 138 138c77 0 137 -61 137 -138c0 -76 -60 -138 -137 -138zM1197 1746l-29 -138h-615l29 138h615z" />
    <glyph glyph-name="aringbelow.1" horiz-adv-x="1199" 
d="M572 188c185 0 323 187 323 427c0 151 -93 256 -233 256c-180 0 -313 -182 -313 -419c0 -161 86 -264 223 -264zM1024 0h-240l36 167h-8c-70 -111 -195 -184 -329 -184c-235 0 -383 174 -383 443c0 370 227 654 530 654c165 0 292 -91 329 -224h10l43 206h238zM463 -516
c-111 0 -205 81 -205 201c0 122 94 212 211 212c113 0 206 -81 205 -201c0 -122 -92 -212 -211 -212zM463 -407c59 0 101 40 101 101c-1 56 -41 95 -95 95c-57 0 -100 -41 -100 -102c0 -56 41 -94 94 -94z" />
    <glyph glyph-name="acircumflex.1" horiz-adv-x="1199" 
d="M572 188c185 0 323 187 323 427c0 151 -93 256 -233 256c-180 0 -313 -182 -313 -419c0 -161 86 -264 223 -264zM1024 0h-240l36 167h-8c-70 -111 -195 -184 -329 -184c-235 0 -383 174 -383 443c0 370 227 654 530 654c165 0 292 -91 329 -224h10l43 206h238zM941 1537
l200 -312h-194l-117 188h-7l-198 -188h-209l334 312h191z" />
    <glyph glyph-name="acircumflexdotbelow.1" horiz-adv-x="1199" 
d="M572 188c185 0 323 187 323 427c0 151 -93 256 -233 256c-180 0 -313 -182 -313 -419c0 -161 86 -264 223 -264zM1024 0h-240l36 167h-8c-70 -111 -195 -184 -329 -184c-235 0 -383 174 -383 443c0 370 227 654 530 654c165 0 292 -91 329 -224h10l43 206h238zM941 1537
l200 -312h-194l-117 188h-7l-198 -188h-209l334 312h191zM463 -450c-79 0 -141 64 -141 141c0 78 62 142 141 142c78 0 140 -64 140 -142c0 -77 -62 -141 -140 -141z" />
    <glyph glyph-name="acircumflexacute.1" horiz-adv-x="1199" 
d="M572 188c185 0 323 187 323 427c0 151 -93 256 -233 256c-180 0 -313 -182 -313 -419c0 -161 86 -264 223 -264zM1024 0h-240l36 167h-8c-70 -111 -195 -184 -329 -184c-235 0 -383 174 -383 443c0 370 227 654 530 654c165 0 292 -91 329 -224h10l43 206h238zM919 1517
l203 -299h-190l-119 179h-7l-195 -179h-215l331 299h192zM1003 1565l268 291h220l-295 -291h-193z" />
    <glyph glyph-name="acircumflextilde.1" horiz-adv-x="1199" 
d="M572 188c185 0 323 187 323 427c0 151 -93 256 -233 256c-180 0 -313 -182 -313 -419c0 -161 86 -264 223 -264zM1024 0h-240l36 167h-8c-70 -111 -195 -184 -329 -184c-235 0 -383 174 -383 443c0 370 227 654 530 654c165 0 292 -91 329 -224h10l43 206h238zM918 1510
l204 -292h-190l-121 173h-6l-195 -173h-214l329 292h193zM992 1593c-138 0 -170 139 -247 139c-44 0 -82 -45 -96 -120h-144c31 162 127 258 249 258c137 0 168 -138 247 -138c43 0 77 43 95 122h144c-30 -161 -129 -261 -248 -261z" />
    <glyph glyph-name="acircumflexgrave.1" horiz-adv-x="1199" 
d="M572 188c185 0 323 187 323 427c0 151 -93 256 -233 256c-180 0 -313 -182 -313 -419c0 -161 86 -264 223 -264zM1024 0h-240l36 167h-8c-70 -111 -195 -184 -329 -184c-235 0 -383 174 -383 443c0 370 227 654 530 654c165 0 292 -91 329 -224h10l43 206h238zM1228 1563
h-172l-169 293h206zM919 1517l203 -299h-190l-119 179h-7l-195 -179h-215l331 299h192z" />
    <glyph glyph-name="acircumflexhookabove.1" horiz-adv-x="1199" 
d="M572 188c185 0 323 187 323 427c0 151 -93 256 -233 256c-180 0 -313 -182 -313 -419c0 -161 86 -264 223 -264zM1024 0h-240l36 167h-8c-70 -111 -195 -184 -329 -184c-235 0 -383 174 -383 443c0 370 227 654 530 654c165 0 292 -91 329 -224h10l43 206h238zM940 1745
l27 126c32 13 83 23 124 23c114 0 187 -60 187 -153c0 -108 -88 -213 -208 -253l-62 97c65 24 113 73 113 116c0 37 -31 61 -79 61c-36 0 -69 -5 -102 -17zM919 1517l203 -299h-190l-119 179h-7l-195 -179h-215l331 299h192z" />
    <glyph glyph-name="abreve.1" horiz-adv-x="1199" 
d="M572 188c185 0 323 187 323 427c0 151 -93 256 -233 256c-180 0 -313 -182 -313 -419c0 -161 86 -264 223 -264zM1024 0h-240l36 167h-8c-70 -111 -195 -184 -329 -184c-235 0 -383 174 -383 443c0 370 227 654 530 654c165 0 292 -91 329 -224h10l43 206h238zM499 1537
h159c-3 -13 -6 -29 -6 -45c0 -86 58 -138 150 -138c108 0 198 69 224 183h162c-43 -197 -193 -319 -410 -319c-164 0 -288 103 -288 251c0 24 4 46 9 68z" />
    <glyph glyph-name="abreveacute.1" horiz-adv-x="1199" 
d="M572 188c185 0 323 187 323 427c0 151 -93 256 -233 256c-180 0 -313 -182 -313 -419c0 -161 86 -264 223 -264zM1024 0h-240l36 167h-8c-70 -111 -195 -184 -329 -184c-235 0 -383 174 -383 443c0 370 227 654 530 654c165 0 292 -91 329 -224h10l43 206h238zM736 1565
l269 291h220l-296 -291h-193zM1182 1530c-43 -190 -190 -319 -409 -319c-174 0 -289 104 -289 249c0 25 4 49 9 70h159c-3 -13 -6 -29 -6 -45c0 -85 56 -138 150 -138c109 0 198 71 223 183h163z" />
    <glyph glyph-name="abrevetilde.1" horiz-adv-x="1199" 
d="M572 188c185 0 323 187 323 427c0 151 -93 256 -233 256c-180 0 -313 -182 -313 -419c0 -161 86 -264 223 -264zM1024 0h-240l36 167h-8c-70 -111 -195 -184 -329 -184c-235 0 -383 174 -383 443c0 370 227 654 530 654c165 0 292 -91 329 -224h10l43 206h238zM1182 1530
c-43 -190 -190 -319 -409 -319c-174 0 -289 104 -289 249c0 25 4 49 9 70h159c-3 -13 -6 -29 -6 -45c0 -85 56 -138 150 -138c109 0 198 71 223 183h163zM1007 1593c-138 0 -170 139 -247 139c-44 0 -82 -45 -96 -120h-144c31 162 127 258 249 258c137 0 168 -138 247 -138
c43 0 77 43 95 122h144c-30 -161 -129 -261 -248 -261z" />
    <glyph glyph-name="abrevehookabove.1" horiz-adv-x="1199" 
d="M572 188c185 0 323 187 323 427c0 151 -93 256 -233 256c-180 0 -313 -182 -313 -419c0 -161 86 -264 223 -264zM1024 0h-240l36 167h-8c-70 -111 -195 -184 -329 -184c-235 0 -383 174 -383 443c0 370 227 654 530 654c165 0 292 -91 329 -224h10l43 206h238zM691 1756
l26 116c32 13 82 22 122 22c112 0 182 -56 182 -145c0 -96 -88 -200 -197 -236l-62 92c60 22 106 68 106 109c0 35 -31 58 -78 58c-34 0 -66 -5 -99 -16zM1182 1530c-43 -190 -190 -319 -409 -319c-174 0 -289 104 -289 249c0 25 4 49 9 70h159c-3 -13 -6 -29 -6 -45
c0 -85 56 -138 150 -138c109 0 198 71 223 183h163z" />
    <glyph glyph-name="abrevedotbelow.1" horiz-adv-x="1199" 
d="M572 188c185 0 323 187 323 427c0 151 -93 256 -233 256c-180 0 -313 -182 -313 -419c0 -161 86 -264 223 -264zM1024 0h-240l36 167h-8c-70 -111 -195 -184 -329 -184c-235 0 -383 174 -383 443c0 370 227 654 530 654c165 0 292 -91 329 -224h10l43 206h238zM499 1537
h159c-3 -13 -6 -29 -6 -45c0 -86 58 -138 150 -138c108 0 198 69 224 183h162c-43 -197 -193 -319 -410 -319c-164 0 -288 103 -288 251c0 24 4 46 9 68zM463 -450c-79 0 -141 64 -141 141c0 78 62 142 141 142c78 0 140 -64 140 -142c0 -77 -62 -141 -140 -141z" />
    <glyph glyph-name="ainvertedbreve.1" horiz-adv-x="1199" 
d="M572 188c185 0 323 187 323 427c0 151 -93 256 -233 256c-180 0 -313 -182 -313 -419c0 -161 86 -264 223 -264zM1024 0h-240l36 167h-8c-70 -111 -195 -184 -329 -184c-235 0 -383 174 -383 443c0 370 227 654 530 654c165 0 292 -91 329 -224h10l43 206h238zM1113 1211
h-160c3 13 7 29 7 45c0 86 -58 138 -151 138c-107 0 -197 -69 -223 -183h-162c43 197 192 319 409 319c164 0 288 -103 288 -251c0 -24 -3 -46 -8 -68z" />
    <glyph glyph-name="acaron.1" horiz-adv-x="1199" 
d="M572 188c185 0 323 187 323 427c0 151 -93 256 -233 256c-180 0 -313 -182 -313 -419c0 -161 86 -264 223 -264zM1024 0h-240l36 167h-8c-70 -111 -195 -184 -329 -184c-235 0 -383 174 -383 443c0 370 227 654 530 654c165 0 292 -91 329 -224h10l43 206h238zM881 1225
h-192l-200 312h190l117 -190h6l199 190h212z" />
    <glyph glyph-name="adotaccent.1" horiz-adv-x="1199" 
d="M572 188c185 0 323 187 323 427c0 151 -93 256 -233 256c-180 0 -313 -182 -313 -419c0 -161 86 -264 223 -264zM1024 0h-240l36 167h-8c-70 -111 -195 -184 -329 -184c-235 0 -383 174 -383 443c0 370 227 654 530 654c165 0 292 -91 329 -224h10l43 206h238zM800 1228
c-78 0 -141 63 -141 141c0 77 63 141 141 141s141 -64 141 -141c0 -78 -63 -141 -141 -141z" />
    <glyph glyph-name="adotbelow.1" horiz-adv-x="1199" 
d="M572 188c185 0 323 187 323 427c0 151 -93 256 -233 256c-180 0 -313 -182 -313 -419c0 -161 86 -264 223 -264zM1024 0h-240l36 167h-8c-70 -111 -195 -184 -329 -184c-235 0 -383 174 -383 443c0 370 227 654 530 654c165 0 292 -91 329 -224h10l43 206h238zM463 -450
c-79 0 -141 64 -141 141c0 78 62 142 141 142c78 0 140 -64 140 -142c0 -77 -62 -141 -140 -141z" />
    <glyph glyph-name="ahookabove.1" horiz-adv-x="1199" 
d="M572 188c185 0 323 187 323 427c0 151 -93 256 -233 256c-180 0 -313 -182 -313 -419c0 -161 86 -264 223 -264zM1024 0h-240l36 167h-8c-70 -111 -195 -184 -329 -184c-235 0 -383 174 -383 443c0 370 227 654 530 654c165 0 292 -91 329 -224h10l43 206h238zM656 1461
l28 128c31 14 79 23 129 23c110 0 191 -68 191 -162c0 -114 -88 -215 -222 -257l-56 105c77 26 115 69 115 117c0 38 -35 66 -83 66c-36 0 -73 -7 -102 -20z" />
    <glyph glyph-name="adblgrave.1" horiz-adv-x="1199" 
d="M572 188c185 0 323 187 323 427c0 151 -93 256 -233 256c-180 0 -313 -182 -313 -419c0 -161 86 -264 223 -264zM1024 0h-240l36 167h-8c-70 -111 -195 -184 -329 -184c-235 0 -383 174 -383 443c0 370 227 654 530 654c165 0 292 -91 329 -224h10l43 206h238zM710 1232
h-176l-189 307h217zM1060 1232h-175l-189 307h216z" />
    <glyph glyph-name="amacron.1" horiz-adv-x="1199" 
d="M572 188c185 0 323 187 323 427c0 151 -93 256 -233 256c-180 0 -313 -182 -313 -419c0 -161 86 -264 223 -264zM1024 0h-240l36 167h-8c-70 -111 -195 -184 -329 -184c-235 0 -383 174 -383 443c0 370 227 654 530 654c165 0 292 -91 329 -224h10l43 206h238zM1128 1418
l-29 -138h-615l29 138h615z" />
    <glyph glyph-name="aogonek.1" horiz-adv-x="1199" 
d="M572 188c185 0 323 187 323 427c0 151 -93 256 -233 256c-180 0 -313 -182 -313 -419c0 -161 86 -264 223 -264zM910 -416c-23 -12 -73 -22 -132 -22c-128 0 -210 69 -210 168c0 104 78 192 216 269l36 168h-8c-70 -111 -195 -184 -329 -184c-235 0 -383 174 -383 443
c0 370 227 654 530 654c165 0 292 -91 329 -224h10l43 206h238l-226 -1064l-18 -5c-140 -47 -237 -134 -237 -203c0 -46 39 -73 98 -73c28 0 54 4 73 11z" />
    <glyph glyph-name="b" unicode="b" horiz-adv-x="1198" 
d="M661 -17c-163 0 -301 94 -338 226h-5l-45 -209h-235l308 1443h243l-115 -541h5c60 106 186 178 322 178c233 0 382 -165 382 -443c0 -346 -204 -654 -522 -654zM625 192c184 0 309 188 309 419c0 163 -82 264 -223 264c-188 0 -322 -196 -322 -428
c0 -151 94 -255 236 -255z" />
    <glyph glyph-name="blinebelow" unicode="&#x1e07;" horiz-adv-x="1198" 
d="M661 -17c-163 0 -301 94 -338 226h-5l-45 -209h-235l308 1443h243l-115 -541h5c60 106 186 178 322 178c233 0 382 -165 382 -443c0 -346 -204 -654 -522 -654zM625 192c184 0 309 188 309 419c0 163 -82 264 -223 264c-188 0 -322 -196 -322 -428
c0 -151 94 -255 236 -255zM809 -237l-29 -139h-671l30 139h670z" />
    <glyph glyph-name="bdotbelow" unicode="&#x1e05;" horiz-adv-x="1198" 
d="M661 -17c-163 0 -301 94 -338 226h-5l-45 -209h-235l308 1443h243l-115 -541h5c60 106 186 178 322 178c233 0 382 -165 382 -443c0 -346 -204 -654 -522 -654zM625 192c184 0 309 188 309 419c0 163 -82 264 -223 264c-188 0 -322 -196 -322 -428
c0 -151 94 -255 236 -255zM456 -448c-79 0 -141 64 -141 141c0 78 62 142 141 142c78 0 140 -64 140 -142c0 -77 -62 -141 -140 -141z" />
    <glyph glyph-name="bdotaccent" unicode="&#x1e03;" horiz-adv-x="1198" 
d="M661 -17c-163 0 -301 94 -338 226h-5l-45 -209h-235l308 1443h243l-115 -541h5c60 106 186 178 322 178c233 0 382 -165 382 -443c0 -346 -204 -654 -522 -654zM625 192c184 0 309 188 309 419c0 163 -82 264 -223 264c-188 0 -322 -196 -322 -428
c0 -151 94 -255 236 -255zM531 1608c-79 0 -141 64 -141 141c0 78 62 142 141 142c78 0 140 -64 140 -142c0 -77 -62 -141 -140 -141z" />
    <glyph glyph-name="c" unicode="c" horiz-adv-x="1085" 
d="M666 1084c278 0 440 -176 440 -379v-24h-236c-3 109 -80 193 -212 193c-181 0 -308 -174 -308 -424c0 -162 86 -262 216 -262c120 0 209 70 246 181h236c-44 -226 -242 -391 -489 -391c-291 0 -456 189 -456 462c0 375 226 644 563 644z" />
    <glyph glyph-name="cacute" unicode="&#x107;" horiz-adv-x="1085" 
d="M666 1084c278 0 440 -176 440 -379v-24h-236c-3 109 -80 193 -212 193c-181 0 -308 -174 -308 -424c0 -162 86 -262 216 -262c120 0 209 70 246 181h236c-44 -226 -242 -391 -489 -391c-291 0 -456 189 -456 462c0 375 226 644 563 644zM833 1231h-209l283 308h244z" />
    <glyph glyph-name="ccaron" unicode="&#x10d;" horiz-adv-x="1085" 
d="M666 1084c278 0 440 -176 440 -379v-24h-236c-3 109 -80 193 -212 193c-181 0 -308 -174 -308 -424c0 -162 86 -262 216 -262c120 0 209 70 246 181h236c-44 -226 -242 -391 -489 -391c-291 0 -456 189 -456 462c0 375 226 644 563 644zM819 1225h-192l-200 312h190
l117 -190h6l199 190h212z" />
    <glyph glyph-name="ccircumflex" unicode="&#x109;" horiz-adv-x="1085" 
d="M666 1084c278 0 440 -176 440 -379v-24h-236c-3 109 -80 193 -212 193c-181 0 -308 -174 -308 -424c0 -162 86 -262 216 -262c120 0 209 70 246 181h236c-44 -226 -242 -391 -489 -391c-291 0 -456 189 -456 462c0 375 226 644 563 644zM879 1537l200 -312h-194l-117 188
h-7l-198 -188h-209l334 312h191z" />
    <glyph glyph-name="cdotaccent" unicode="&#x10b;" horiz-adv-x="1085" 
d="M666 1084c278 0 440 -176 440 -379v-24h-236c-3 109 -80 193 -212 193c-181 0 -308 -174 -308 -424c0 -162 86 -262 216 -262c120 0 209 70 246 181h236c-44 -226 -242 -391 -489 -391c-291 0 -456 189 -456 462c0 375 226 644 563 644zM738 1228c-78 0 -141 63 -141 141
c0 77 63 141 141 141s141 -64 141 -141c0 -78 -63 -141 -141 -141z" />
    <glyph glyph-name="ccedilla" unicode="&#xe7;" horiz-adv-x="1085" 
d="M1106 681h-236c-3 109 -80 193 -212 193c-181 0 -308 -174 -308 -424c0 -162 86 -262 216 -262c120 0 209 70 246 181h236c-40 -206 -208 -361 -424 -387l-63 -100c110 -2 173 -55 173 -146c0 -125 -111 -211 -272 -211c-60 0 -127 10 -165 24l27 130
c38 -13 84 -20 130 -20c78 0 121 22 121 61s-41 56 -141 56h-59l21 91l73 118c-235 35 -366 212 -366 455c0 375 226 644 563 644c278 0 440 -176 440 -379v-24z" />
    <glyph glyph-name="ccedillaacute" unicode="&#x1e09;" horiz-adv-x="1085" 
d="M1151 1539l-318 -308h-209l283 308h244zM396 -133l73 118c-235 35 -366 212 -366 455c0 375 226 644 563 644c278 0 440 -176 440 -379v-24h-236c-3 109 -80 193 -212 193c-181 0 -308 -174 -308 -424c0 -162 86 -262 216 -262c120 0 209 70 246 181h236
c-40 -206 -208 -361 -424 -387l-63 -100c110 -2 173 -55 173 -146c0 -125 -111 -211 -272 -211c-60 0 -127 10 -165 24l27 130c38 -13 84 -20 130 -20c78 0 121 22 121 61s-41 56 -141 56h-59z" />
    <glyph glyph-name="d" unicode="d" horiz-adv-x="1206" 
d="M482 -17c-234 0 -381 171 -381 438c0 377 230 659 531 659c164 0 293 -93 327 -219h6l126 582h244l-307 -1443h-242l34 162h-5c-69 -108 -193 -179 -333 -179zM572 188c183 0 324 187 324 428c0 150 -91 255 -232 255c-177 0 -314 -178 -314 -421
c0 -161 84 -262 222 -262z" />
    <glyph glyph-name="ddotaccent" unicode="&#x1e0b;" horiz-adv-x="1206" 
d="M482 -17c-234 0 -381 171 -381 438c0 377 230 659 531 659c164 0 293 -93 327 -219h6l126 582h244l-307 -1443h-242l34 162h-5c-69 -108 -193 -179 -333 -179zM572 188c183 0 324 187 324 428c0 150 -91 255 -232 255c-177 0 -314 -178 -314 -421
c0 -161 84 -262 222 -262zM1282 1608c-79 0 -141 64 -141 141c0 78 62 142 141 142c78 0 140 -64 140 -142c0 -77 -62 -141 -140 -141z" />
    <glyph glyph-name="dcircumflexbelow" unicode="&#x1e13;" horiz-adv-x="1206" 
d="M482 -17c-234 0 -381 171 -381 438c0 377 230 659 531 659c164 0 293 -93 327 -219h6l126 582h244l-307 -1443h-242l34 162h-5c-69 -108 -193 -179 -333 -179zM572 188c183 0 324 187 324 428c0 150 -91 255 -232 255c-177 0 -314 -178 -314 -421
c0 -161 84 -262 222 -262zM653 -165l208 -311h-193l-124 192h-7l-206 -192h-209l340 311h191z" />
    <glyph glyph-name="dcommaaccent" unicode="&#x1e11;" horiz-adv-x="1206" 
d="M482 -17c-234 0 -381 171 -381 438c0 377 230 659 531 659c164 0 293 -93 327 -219h6l126 582h244l-307 -1443h-242l34 162h-5c-69 -108 -193 -179 -333 -179zM572 188c183 0 324 187 324 428c0 150 -91 255 -232 255c-177 0 -314 -178 -314 -421
c0 -161 84 -262 222 -262zM445 -476h-189l194 346h226z" />
    <glyph glyph-name="dlinebelow" unicode="&#x1e0f;" horiz-adv-x="1206" 
d="M482 -17c-234 0 -381 171 -381 438c0 377 230 659 531 659c164 0 293 -93 327 -219h6l126 582h244l-307 -1443h-242l34 162h-5c-69 -108 -193 -179 -333 -179zM572 188c183 0 324 187 324 428c0 150 -91 255 -232 255c-177 0 -314 -178 -314 -421
c0 -161 84 -262 222 -262zM886 -239l-29 -139h-671l30 139h670z" />
    <glyph glyph-name="dcaron" unicode="&#x10f;" horiz-adv-x="1451" 
d="M1470 1443h218l-156 -498h-168zM482 -17c-234 0 -381 171 -381 438c0 377 230 659 531 659c164 0 293 -93 327 -219h6l126 582h244l-307 -1443h-242l34 162h-5c-69 -108 -193 -179 -333 -179zM572 188c183 0 324 187 324 428c0 150 -91 255 -232 255
c-177 0 -314 -178 -314 -421c0 -161 84 -262 222 -262z" />
    <glyph glyph-name="ddotbelow" unicode="&#x1e0d;" horiz-adv-x="1206" 
d="M482 -17c-234 0 -381 171 -381 438c0 377 230 659 531 659c164 0 293 -93 327 -219h6l126 582h244l-307 -1443h-242l34 162h-5c-69 -108 -193 -179 -333 -179zM572 188c183 0 324 187 324 428c0 150 -91 255 -232 255c-177 0 -314 -178 -314 -421
c0 -161 84 -262 222 -262zM533 -450c-79 0 -141 64 -141 141c0 78 62 142 141 142c78 0 140 -64 140 -142c0 -77 -62 -141 -140 -141z" />
    <glyph glyph-name="dcroat" unicode="&#x111;" horiz-adv-x="1206" 
d="M572 188c183 0 324 187 324 428c0 150 -91 255 -232 255c-177 0 -314 -178 -314 -421c0 -161 84 -262 222 -262zM1422 1345l-33 -160h-109l-252 -1185h-242l34 162h-5c-69 -108 -193 -179 -333 -179c-234 0 -381 171 -381 438c0 377 230 659 531 659
c164 0 293 -93 327 -219h6l70 324h-236l34 160h237l21 98h244l-21 -98h108z" />
    <glyph glyph-name="e" unicode="e" horiz-adv-x="1117" 
d="M365 640h499c1 8 1 20 1 30c0 115 -68 219 -218 219c-143 0 -245 -107 -282 -249zM562 -22c-294 0 -458 191 -458 474c0 355 225 632 550 632c271 0 446 -175 446 -452c0 -49 -3 -109 -12 -158h-750c-1 -11 -1 -23 -1 -34c0 -161 90 -265 232 -265c124 0 212 63 251 159
h233c-55 -206 -246 -356 -491 -356z" />
    <glyph glyph-name="egrave" unicode="&#xe8;" horiz-adv-x="1117" 
d="M365 640h499c1 8 1 20 1 30c0 115 -68 219 -218 219c-143 0 -245 -107 -282 -249zM562 -22c-294 0 -458 191 -458 474c0 355 225 632 550 632c271 0 446 -175 446 -452c0 -49 -3 -109 -12 -158h-750c-1 -11 -1 -23 -1 -34c0 -161 90 -265 232 -265c124 0 212 63 251 159
h233c-55 -206 -246 -356 -491 -356zM795 1231h-195l-187 308h231z" />
    <glyph glyph-name="edblgrave" unicode="&#x205;" horiz-adv-x="1117" 
d="M365 640h499c1 8 1 20 1 30c0 115 -68 219 -218 219c-143 0 -245 -107 -282 -249zM562 -22c-294 0 -458 191 -458 474c0 355 225 632 550 632c271 0 446 -175 446 -452c0 -49 -3 -109 -12 -158h-750c-1 -11 -1 -23 -1 -34c0 -161 90 -265 232 -265c124 0 212 63 251 159
h233c-55 -206 -246 -356 -491 -356zM634 1232h-176l-189 307h217zM984 1232h-175l-189 307h216z" />
    <glyph glyph-name="eacute" unicode="&#xe9;" horiz-adv-x="1117" 
d="M365 640h499c1 8 1 20 1 30c0 115 -68 219 -218 219c-143 0 -245 -107 -282 -249zM562 -22c-294 0 -458 191 -458 474c0 355 225 632 550 632c271 0 446 -175 446 -452c0 -49 -3 -109 -12 -158h-750c-1 -11 -1 -23 -1 -34c0 -161 90 -265 232 -265c124 0 212 63 251 159
h233c-55 -206 -246 -356 -491 -356zM819 1231h-209l283 308h244z" />
    <glyph glyph-name="ecircumflex" unicode="&#xea;" horiz-adv-x="1117" 
d="M365 640h499c1 8 1 20 1 30c0 115 -68 219 -218 219c-143 0 -245 -107 -282 -249zM562 -22c-294 0 -458 191 -458 474c0 355 225 632 550 632c271 0 446 -175 446 -452c0 -49 -3 -109 -12 -158h-750c-1 -11 -1 -23 -1 -34c0 -161 90 -265 232 -265c124 0 212 63 251 159
h233c-55 -206 -246 -356 -491 -356zM865 1537l200 -312h-194l-117 188h-7l-198 -188h-209l334 312h191z" />
    <glyph glyph-name="ecircumflexhookabove" unicode="&#x1ec3;" horiz-adv-x="1117" 
d="M365 640h499c1 8 1 20 1 30c0 115 -68 219 -218 219c-143 0 -245 -107 -282 -249zM562 -22c-294 0 -458 191 -458 474c0 355 225 632 550 632c271 0 446 -175 446 -452c0 -49 -3 -109 -12 -158h-750c-1 -11 -1 -23 -1 -34c0 -161 90 -265 232 -265c124 0 212 63 251 159
h233c-55 -206 -246 -356 -491 -356zM864 1745l27 126c32 13 83 23 124 23c114 0 187 -60 187 -153c0 -108 -88 -213 -208 -253l-62 97c65 24 113 73 113 116c0 37 -31 61 -79 61c-36 0 -69 -5 -102 -17zM843 1517l203 -299h-190l-119 179h-7l-195 -179h-215l331 299h192z
" />
    <glyph glyph-name="ecircumflexgrave" unicode="&#x1ec1;" horiz-adv-x="1117" 
d="M365 640h499c1 8 1 20 1 30c0 115 -68 219 -218 219c-143 0 -245 -107 -282 -249zM562 -22c-294 0 -458 191 -458 474c0 355 225 632 550 632c271 0 446 -175 446 -452c0 -49 -3 -109 -12 -158h-750c-1 -11 -1 -23 -1 -34c0 -161 90 -265 232 -265c124 0 212 63 251 159
h233c-55 -206 -246 -356 -491 -356zM1152 1563h-172l-169 293h206zM843 1517l203 -299h-190l-119 179h-7l-195 -179h-215l331 299h192z" />
    <glyph glyph-name="ecircumflextilde" unicode="&#x1ec5;" horiz-adv-x="1117" 
d="M365 640h499c1 8 1 20 1 30c0 115 -68 219 -218 219c-143 0 -245 -107 -282 -249zM562 -22c-294 0 -458 191 -458 474c0 355 225 632 550 632c271 0 446 -175 446 -452c0 -49 -3 -109 -12 -158h-750c-1 -11 -1 -23 -1 -34c0 -161 90 -265 232 -265c124 0 212 63 251 159
h233c-55 -206 -246 -356 -491 -356zM842 1510l204 -292h-190l-121 173h-6l-195 -173h-214l329 292h193zM916 1593c-138 0 -170 139 -247 139c-44 0 -82 -45 -96 -120h-144c31 162 127 258 249 258c137 0 168 -138 247 -138c43 0 77 43 95 122h144
c-30 -161 -129 -261 -248 -261z" />
    <glyph glyph-name="ecircumflexdotbelow" unicode="&#x1ec7;" horiz-adv-x="1117" 
d="M365 640h499c1 8 1 20 1 30c0 115 -68 219 -218 219c-143 0 -245 -107 -282 -249zM562 -22c-294 0 -458 191 -458 474c0 355 225 632 550 632c271 0 446 -175 446 -452c0 -49 -3 -109 -12 -158h-750c-1 -11 -1 -23 -1 -34c0 -161 90 -265 232 -265c124 0 212 63 251 159
h233c-55 -206 -246 -356 -491 -356zM865 1537l200 -312h-194l-117 188h-7l-198 -188h-209l334 312h191zM495 -450c-79 0 -141 64 -141 141c0 78 62 142 141 142c78 0 140 -64 140 -142c0 -77 -62 -141 -140 -141z" />
    <glyph glyph-name="ecircumflexacute" unicode="&#x1ebf;" horiz-adv-x="1117" 
d="M365 640h499c1 8 1 20 1 30c0 115 -68 219 -218 219c-143 0 -245 -107 -282 -249zM562 -22c-294 0 -458 191 -458 474c0 355 225 632 550 632c271 0 446 -175 446 -452c0 -49 -3 -109 -12 -158h-750c-1 -11 -1 -23 -1 -34c0 -161 90 -265 232 -265c124 0 212 63 251 159
h233c-55 -206 -246 -356 -491 -356zM843 1517l203 -299h-190l-119 179h-7l-195 -179h-215l331 299h192zM927 1565l268 291h220l-295 -291h-193z" />
    <glyph glyph-name="edieresis" unicode="&#xeb;" horiz-adv-x="1117" 
d="M365 640h499c1 8 1 20 1 30c0 115 -68 219 -218 219c-143 0 -245 -107 -282 -249zM562 -22c-294 0 -458 191 -458 474c0 355 225 632 550 632c271 0 446 -175 446 -452c0 -49 -3 -109 -12 -158h-750c-1 -11 -1 -23 -1 -34c0 -161 90 -265 232 -265c124 0 212 63 251 159
h233c-55 -206 -246 -356 -491 -356zM532 1229c-68 0 -122 54 -122 121s54 121 122 121c69 0 123 -54 123 -121s-54 -121 -123 -121zM919 1229c-68 0 -122 54 -122 121s54 121 122 121s122 -54 122 -121s-54 -121 -122 -121z" />
    <glyph glyph-name="edotbelow" unicode="&#x1eb9;" horiz-adv-x="1117" 
d="M365 640h499c1 8 1 20 1 30c0 115 -68 219 -218 219c-143 0 -245 -107 -282 -249zM562 -22c-294 0 -458 191 -458 474c0 355 225 632 550 632c271 0 446 -175 446 -452c0 -49 -3 -109 -12 -158h-750c-1 -11 -1 -23 -1 -34c0 -161 90 -265 232 -265c124 0 212 63 251 159
h233c-55 -206 -246 -356 -491 -356zM495 -450c-79 0 -141 64 -141 141c0 78 62 142 141 142c78 0 140 -64 140 -142c0 -77 -62 -141 -140 -141z" />
    <glyph glyph-name="einvertedbreve" unicode="&#x207;" horiz-adv-x="1117" 
d="M365 640h499c1 8 1 20 1 30c0 115 -68 219 -218 219c-143 0 -245 -107 -282 -249zM562 -22c-294 0 -458 191 -458 474c0 355 225 632 550 632c271 0 446 -175 446 -452c0 -49 -3 -109 -12 -158h-750c-1 -11 -1 -23 -1 -34c0 -161 90 -265 232 -265c124 0 212 63 251 159
h233c-55 -206 -246 -356 -491 -356zM1037 1211h-160c3 13 7 29 7 45c0 86 -58 138 -151 138c-107 0 -197 -69 -223 -183h-162c43 197 192 319 409 319c164 0 288 -103 288 -251c0 -24 -3 -46 -8 -68z" />
    </font>
</defs>
</svg>
