<?xml version="1.0" standalone="no"?>
<!DOCTYPE svg PUBLIC "-//W3C//DTD SVG 1.1//EN" "http://www.w3.org/Graphics/SVG/1.1/DTD/svg11.dtd" >
<svg xmlns="http://www.w3.org/2000/svg" xmlns:xlink="http://www.w3.org/1999/xlink" version="1.1">
<metadata>
Created by FontForge 20201107 at Wed May 31 04:49:42 2017
 By Jimmy Wärting
(c) 2015-2017 Apple Inc. All rights reserved.
</metadata>
<defs>
<font id="SFProDisplay-LightItalic" horiz-adv-x="1219" >
  <font-face 
    font-family="SF Pro Display"
    font-weight="300"
    font-style="italic"
    font-stretch="normal"
    units-per-em="2048"
    panose-1="0 0 4 0 0 0 0 0 0 0"
    ascent="1638"
    descent="-410"
    x-height="1040"
    cap-height="1443"
    bbox="-574 -494 2767 2095"
    underline-thickness="95"
    underline-position="-369"
    slope="-12"
    stemh="120"
    stemv="134"
    unicode-range="U+0020-FB02"
  />
<missing-glyph horiz-adv-x="2048" 
d="M-62 -494l65 308h1848l-66 -308h-1847zM29 -67l65 308h1847l-65 -308h-1847zM120 361l65 307h1847l-65 -307h-1847zM210 788l66 307h1847l-65 -307h-1848zM301 1215l66 308h1847l-65 -308h-1848zM392 1642l65 308h1848l-66 -308h-1847z" />
    <glyph glyph-name=".notdef" horiz-adv-x="2048" 
d="M-62 -494l65 308h1848l-66 -308h-1847zM29 -67l65 308h1847l-65 -308h-1847zM120 361l65 307h1847l-65 -307h-1847zM210 788l66 307h1847l-65 -307h-1848zM301 1215l66 308h1847l-65 -308h-1848zM392 1642l65 308h1848l-66 -308h-1847z" />
    <glyph glyph-name=".null" horiz-adv-x="0" 
 />
    <glyph glyph-name="nonmarkingreturn" horiz-adv-x="0" 
 />
    <glyph glyph-name="space" unicode=" " horiz-adv-x="479" 
 />
    <glyph glyph-name="A" unicode="A" horiz-adv-x="1261" 
d="M848 1274l-408 -714h525l-113 714h-4zM1051 0l-68 443h-609l-256 -443h-151l844 1443h138l232 -1443h-130z" />
    <glyph glyph-name="Agrave" unicode="&#xc0;" horiz-adv-x="1261" 
d="M848 1274l-408 -714h525l-113 714h-4zM1051 0l-68 443h-609l-256 -443h-151l844 1443h138l232 -1443h-130zM832 1558l-192 288h140l164 -288h-112z" />
    <glyph glyph-name="Aacute" unicode="&#xc1;" horiz-adv-x="1261" 
d="M848 1274l-408 -714h525l-113 714h-4zM1051 0l-68 443h-609l-256 -443h-151l844 1443h138l232 -1443h-130zM965 1558h-129l304 288h158z" />
    <glyph glyph-name="Adieresis" unicode="&#xc4;" horiz-adv-x="1261" 
d="M848 1274l-408 -714h525l-113 714h-4zM1051 0l-68 443h-609l-256 -443h-151l844 1443h138l232 -1443h-130zM759 1612c-49 0 -91 41 -91 91c0 51 42 91 91 91c50 0 92 -40 92 -91c0 -50 -42 -91 -92 -91zM1100 1612c-50 0 -92 41 -92 91c0 51 42 91 92 91s91 -40 91 -91
c0 -50 -41 -91 -91 -91z" />
    <glyph glyph-name="Adieresismacron" unicode="&#x1de;" horiz-adv-x="1261" 
d="M848 1274l-408 -714h525l-113 714h-4zM1051 0l-68 443h-609l-256 -443h-151l844 1443h138l232 -1443h-130zM756 1730c47 0 87 -39 87 -88s-40 -88 -87 -88c-49 0 -88 39 -88 88s39 88 88 88zM1300 1979l-20 -91h-617l20 91h617zM1084 1730c48 0 88 -39 88 -88
s-40 -88 -88 -88s-88 39 -88 88s40 88 88 88z" />
    <glyph glyph-name="Aring" unicode="&#xc5;" horiz-adv-x="1261" 
d="M848 1274l-408 -714h525l-113 714h-4zM1051 0l-68 443h-609l-256 -443h-151l844 1443h138l232 -1443h-130zM934 1559c-98 0 -180 70 -180 176c0 109 82 188 185 188c100 0 181 -69 180 -176c-1 -109 -80 -188 -185 -188zM934 1629c66 0 113 47 112 116
c-1 64 -44 108 -107 108c-65 0 -112 -46 -112 -116c0 -64 46 -108 107 -108z" />
    <glyph glyph-name="Aringacute" unicode="&#x1fa;" horiz-adv-x="1261" 
d="M848 1274l-408 -714h525l-113 714h-4zM1051 0l-68 443h-609l-256 -443h-151l844 1443h138l232 -1443h-130zM926 1514c-96 0 -176 67 -176 169c0 105 80 181 181 181c97 0 177 -67 177 -169c-1 -105 -80 -181 -182 -181zM926 1584c64 0 109 44 109 109
c-1 60 -44 101 -104 101c-63 0 -108 -44 -108 -109c0 -60 44 -101 103 -101zM1086 2095h132l-175 -168h-118z" />
    <glyph glyph-name="Atilde" unicode="&#xc3;" horiz-adv-x="1261" 
d="M848 1274l-408 -714h525l-113 714h-4zM1051 0l-68 443h-609l-256 -443h-151l844 1443h138l232 -1443h-130zM1047 1549c-132 0 -156 157 -246 157c-51 0 -97 -52 -114 -147h-93c26 149 109 237 214 237c138 0 160 -157 246 -157c47 0 92 49 112 147h93
c-30 -148 -111 -237 -212 -237z" />
    <glyph glyph-name="Abrevegrave" unicode="&#x1eb0;" horiz-adv-x="1261" 
d="M848 1274l-408 -714h525l-113 714h-4zM1051 0l-68 443h-609l-256 -443h-151l844 1443h138l232 -1443h-130zM1018 1805h-109l-159 211h126zM648 1804h93c-1 -6 -1 -13 -1 -21c0 -90 68 -149 173 -149c109 0 201 68 226 170h107c-34 -151 -173 -258 -344 -258
c-157 0 -257 90 -257 221c0 13 1 26 3 37z" />
    <glyph glyph-name="Adotmacron" unicode="&#x1e0;" horiz-adv-x="1261" 
d="M848 1274l-408 -714h525l-113 714h-4zM1051 0l-68 443h-609l-256 -443h-151l844 1443h138l232 -1443h-130zM925 1570c-56 0 -101 45 -101 100c0 56 45 101 101 101c55 0 101 -45 101 -101c0 -55 -46 -100 -101 -100zM1300 1979l-21 -91h-616l20 91h617z" />
    <glyph glyph-name="Aringbelow" unicode="&#x1e00;" horiz-adv-x="1261" 
d="M848 1274l-408 -714h525l-113 714h-4zM1051 0l-68 443h-609l-256 -443h-151l844 1443h138l232 -1443h-130zM508 -476c-98 0 -180 70 -180 176c0 109 82 188 185 188c100 0 181 -69 180 -176c-1 -109 -80 -188 -185 -188zM508 -406c66 0 113 47 112 116
c-1 64 -44 108 -107 108c-65 0 -112 -46 -112 -116c0 -64 46 -108 107 -108z" />
    <glyph glyph-name="Acircumflex" unicode="&#xc2;" horiz-adv-x="1261" 
d="M848 1274l-408 -714h525l-113 714h-4zM1051 0l-68 443h-609l-256 -443h-151l844 1443h138l232 -1443h-130zM1006 1852l212 -294h-121l-148 210h-5l-238 -210h-140l337 294h103z" />
    <glyph glyph-name="Acircumflexdotbelow" unicode="&#x1eac;" horiz-adv-x="1261" 
d="M848 1274l-408 -714h525l-113 714h-4zM1051 0l-68 443h-609l-256 -443h-151l844 1443h138l232 -1443h-130zM1006 1852l212 -294h-121l-148 210h-5l-238 -210h-140l337 294h103zM515 -380c-57 0 -104 47 -104 104s47 104 104 104s104 -47 104 -104s-47 -104 -104 -104z
" />
    <glyph glyph-name="Acircumflexacute" unicode="&#x1ea4;" horiz-adv-x="1261" 
d="M848 1274l-408 -714h525l-113 714h-4zM1051 0l-68 443h-609l-256 -443h-151l844 1443h138l232 -1443h-130zM887 1785h116l224 -241h-129l-157 168h-5l-228 -168h-148zM1112 1805l227 211h141l-243 -211h-125z" />
    <glyph glyph-name="Acircumflextilde" unicode="&#x1eaa;" horiz-adv-x="1261" 
d="M848 1274l-408 -714h525l-113 714h-4zM1051 0l-68 443h-609l-256 -443h-151l844 1443h138l232 -1443h-130zM1092 1830c-120 0 -156 123 -236 123c-49 0 -89 -38 -99 -107h-92c20 126 99 194 201 194c119 0 155 -122 236 -122c48 0 84 37 98 108h92
c-19 -124 -100 -196 -200 -196zM885 1778h116l226 -234h-129l-158 163h-5l-227 -163h-148z" />
    <glyph glyph-name="Acircumflexgrave" unicode="&#x1ea6;" horiz-adv-x="1261" 
d="M848 1274l-408 -714h525l-113 714h-4zM1051 0l-68 443h-609l-256 -443h-151l844 1443h138l232 -1443h-130zM887 1785h116l224 -241h-129l-157 168h-5l-228 -168h-148zM1304 1805h-109l-159 211h126z" />
    <glyph glyph-name="Acircumflexhookabove" unicode="&#x1ea8;" horiz-adv-x="1261" 
d="M848 1274l-408 -714h525l-113 714h-4zM1051 0l-68 443h-609l-256 -443h-151l844 1443h138l232 -1443h-130zM887 1785h116l224 -241h-129l-157 168h-5l-228 -168h-148zM1053 1933l19 73c17 8 56 15 88 15c102 0 168 -52 168 -131c0 -74 -51 -132 -139 -161l-49 57
c54 16 92 48 92 92c0 42 -36 69 -93 69c-30 0 -61 -6 -86 -14z" />
    <glyph glyph-name="Abreve" unicode="&#x102;" horiz-adv-x="1261" 
d="M848 1274l-408 -714h525l-113 714h-4zM1051 0l-68 443h-609l-256 -443h-151l844 1443h138l232 -1443h-130zM649 1822h100c-3 -9 -6 -25 -6 -38c0 -96 68 -152 173 -152c115 0 210 71 232 190h100c-32 -173 -162 -276 -348 -276c-147 0 -258 87 -258 222c0 19 3 40 7 54z
" />
    <glyph glyph-name="Abreveacute" unicode="&#x1eae;" horiz-adv-x="1261" 
d="M848 1274l-408 -714h525l-113 714h-4zM1051 0l-68 443h-609l-256 -443h-151l844 1443h138l232 -1443h-130zM858 1805l227 211h141l-244 -211h-124zM902 1546c-158 0 -256 90 -256 224c0 10 0 23 2 34h93c-1 -6 -1 -13 -1 -18c0 -93 68 -152 173 -152
c109 0 200 67 227 170h106c-36 -152 -174 -258 -344 -258z" />
    <glyph glyph-name="Abrevetilde" unicode="&#x1eb4;" horiz-adv-x="1261" 
d="M848 1274l-408 -714h525l-113 714h-4zM1051 0l-68 443h-609l-256 -443h-151l844 1443h138l232 -1443h-130zM1096 1829c-128 0 -146 133 -232 133c-47 0 -90 -41 -102 -115h-94c23 129 104 202 207 202c126 0 144 -132 231 -132c47 0 86 40 101 115h94
c-23 -127 -105 -203 -205 -203zM902 1546c-158 0 -256 90 -256 224c0 10 0 23 2 34h93c-1 -6 -1 -13 -1 -18c0 -93 68 -152 173 -152c109 0 200 67 227 170h106c-36 -152 -174 -258 -344 -258z" />
    <glyph glyph-name="Abrevehookabove" unicode="&#x1eb2;" horiz-adv-x="1261" 
d="M848 1274l-408 -714h525l-113 714h-4zM1051 0l-68 443h-609l-256 -443h-151l844 1443h138l232 -1443h-130zM787 1985l20 80c19 8 62 15 94 15c108 0 179 -58 179 -141c0 -79 -55 -143 -147 -173l-56 62c61 15 102 51 102 98c0 44 -36 73 -99 73c-34 0 -66 -6 -93 -14z
M902 1546c-158 0 -256 90 -256 224c0 10 0 23 2 34h93c-1 -6 -1 -13 -1 -18c0 -93 68 -152 173 -152c109 0 200 67 227 170h106c-36 -152 -174 -258 -344 -258z" />
    <glyph glyph-name="Abrevedotbelow" unicode="&#x1eb6;" horiz-adv-x="1261" 
d="M848 1274l-408 -714h525l-113 714h-4zM1051 0l-68 443h-609l-256 -443h-151l844 1443h138l232 -1443h-130zM649 1822h100c-3 -9 -6 -25 -6 -38c0 -96 68 -152 173 -152c115 0 210 71 232 190h100c-32 -173 -162 -276 -348 -276c-147 0 -258 87 -258 222c0 19 3 40 7 54z
M515 -380c-57 0 -104 47 -104 104s47 104 104 104s104 -47 104 -104s-47 -104 -104 -104z" />
    <glyph glyph-name="Ainvertedbreve" unicode="&#x202;" horiz-adv-x="1261" 
d="M848 1274l-408 -714h525l-113 714h-4zM1051 0l-68 443h-609l-256 -443h-151l844 1443h138l232 -1443h-130zM1202 1546h-99c3 7 6 23 6 39c0 92 -68 151 -173 151c-116 0 -212 -74 -233 -190h-99c31 169 161 276 347 276c147 0 259 -89 259 -221c0 -23 -3 -43 -8 -55z" />
    <glyph glyph-name="Acaron" unicode="&#x1cd;" horiz-adv-x="1261" 
d="M848 1274l-408 -714h525l-113 714h-4zM1051 0l-68 443h-609l-256 -443h-151l844 1443h138l232 -1443h-130zM854 1558l-212 294h122l149 -209h4l238 209h140l-337 -294h-104z" />
    <glyph glyph-name="Adotaccent" unicode="&#x226;" horiz-adv-x="1261" 
d="M848 1274l-408 -714h525l-113 714h-4zM1051 0l-68 443h-609l-256 -443h-151l844 1443h138l232 -1443h-130zM934 1625c-57 0 -104 47 -104 104s47 104 104 104s104 -47 104 -104s-47 -104 -104 -104z" />
    <glyph glyph-name="Adotbelow" unicode="&#x1ea0;" horiz-adv-x="1261" 
d="M848 1274l-408 -714h525l-113 714h-4zM1051 0l-68 443h-609l-256 -443h-151l844 1443h138l232 -1443h-130zM515 -380c-57 0 -104 47 -104 104s47 104 104 104s104 -47 104 -104s-47 -104 -104 -104z" />
    <glyph glyph-name="Ahookabove" unicode="&#x1ea2;" horiz-adv-x="1261" 
d="M848 1274l-408 -714h525l-113 714h-4zM1051 0l-68 443h-609l-256 -443h-151l844 1443h138l232 -1443h-130zM764 1759l19 78c19 9 61 16 91 16c109 0 179 -56 179 -141c0 -87 -66 -153 -178 -180l-36 67c67 15 110 52 110 102c0 44 -35 72 -95 72c-33 0 -64 -5 -90 -14z
" />
    <glyph glyph-name="Adblgrave" unicode="&#x200;" horiz-adv-x="1261" 
d="M848 1274l-408 -714h525l-113 714h-4zM1051 0l-68 443h-609l-256 -443h-151l844 1443h138l232 -1443h-130zM706 1558l-192 288h140l165 -288h-113zM1005 1558l-193 288h141l164 -288h-112z" />
    <glyph glyph-name="Amacron" unicode="&#x100;" horiz-adv-x="1261" 
d="M848 1274l-408 -714h525l-113 714h-4zM1051 0l-68 443h-609l-256 -443h-151l844 1443h138l232 -1443h-130zM1245 1720l-20 -92h-617l20 92h617z" />
    <glyph glyph-name="Aogonek" unicode="&#x104;" horiz-adv-x="1261" 
d="M1102 -301l-20 -93c-16 -11 -58 -18 -98 -18c-106 0 -177 59 -177 146c0 98 83 192 243 273l-70 436h-608l-253 -443h-152l842 1443h138l232 -1433l-15 -9c-159 -79 -237 -160 -237 -231c0 -51 40 -84 104 -84c28 0 53 4 71 13zM846 1274l-409 -714h526l-113 714h-4z" />
    <glyph glyph-name="B" unicode="B" horiz-adv-x="1256" 
d="M644 0h-564l307 1443h496c232 0 384 -127 384 -317c0 -186 -142 -336 -330 -378l-1 -4c162 -23 262 -140 262 -297c0 -264 -224 -447 -554 -447zM500 1322l-110 -520h348c222 0 387 125 387 297c0 143 -101 223 -291 223h-334zM245 121h397c244 0 412 134 412 315
c0 165 -120 248 -318 248h-371z" />
    <glyph glyph-name="Blinebelow" unicode="&#x1e06;" horiz-adv-x="1256" 
d="M644 0h-564l307 1443h496c232 0 384 -127 384 -317c0 -186 -142 -336 -330 -378l-1 -4c162 -23 262 -140 262 -297c0 -264 -224 -447 -554 -447zM500 1322l-110 -520h348c222 0 387 125 387 297c0 143 -101 223 -291 223h-334zM245 121h397c244 0 412 134 412 315
c0 165 -120 248 -318 248h-371zM813 -242l-20 -92h-617l20 92h617z" />
    <glyph glyph-name="Bdotbelow" unicode="&#x1e04;" horiz-adv-x="1256" 
d="M644 0h-564l307 1443h496c232 0 384 -127 384 -317c0 -186 -142 -336 -330 -378l-1 -4c162 -23 262 -140 262 -297c0 -264 -224 -447 -554 -447zM500 1322l-110 -520h348c222 0 387 125 387 297c0 143 -101 223 -291 223h-334zM245 121h397c244 0 412 134 412 315
c0 165 -120 248 -318 248h-371zM493 -380c-57 0 -104 47 -104 104s47 104 104 104s104 -47 104 -104s-47 -104 -104 -104z" />
    <glyph glyph-name="Bdotaccent" unicode="&#x1e02;" horiz-adv-x="1256" 
d="M644 0h-564l307 1443h496c232 0 384 -127 384 -317c0 -186 -142 -336 -330 -378l-1 -4c162 -23 262 -140 262 -297c0 -264 -224 -447 -554 -447zM500 1322l-110 -520h348c222 0 387 125 387 297c0 143 -101 223 -291 223h-334zM245 121h397c244 0 412 134 412 315
c0 165 -120 248 -318 248h-371zM853 1625c-57 0 -104 47 -104 104s47 104 104 104s104 -47 104 -104s-47 -104 -104 -104z" />
    <glyph glyph-name="C" unicode="C" horiz-adv-x="1382" 
d="M1320 976c0 5 -1 11 -2 17c-14 210 -178 346 -411 346c-344 0 -592 -318 -592 -742c0 -302 173 -493 445 -493c213 0 384 114 457 307h139c-82 -266 -313 -433 -599 -433c-353 0 -582 241 -582 613c0 496 311 874 735 874c314 0 533 -186 547 -470c1 -10 1 -13 1 -19
h-138z" />
    <glyph glyph-name="Cacute" unicode="&#x106;" horiz-adv-x="1382" 
d="M1320 976c0 5 -1 11 -2 17c-14 210 -178 346 -411 346c-344 0 -592 -318 -592 -742c0 -302 173 -493 445 -493c213 0 384 114 457 307h139c-82 -266 -313 -433 -599 -433c-353 0 -582 241 -582 613c0 496 311 874 735 874c314 0 533 -186 547 -470c1 -10 1 -13 1 -19
h-138zM1007 1559h-129l304 288h158z" />
    <glyph glyph-name="Ccaron" unicode="&#x10c;" horiz-adv-x="1382" 
d="M1320 976c0 5 -1 11 -2 17c-14 210 -178 346 -411 346c-344 0 -592 -318 -592 -742c0 -302 173 -493 445 -493c213 0 384 114 457 307h139c-82 -266 -313 -433 -599 -433c-353 0 -582 241 -582 613c0 496 311 874 735 874c314 0 533 -186 547 -470c1 -10 1 -13 1 -19
h-138zM895 1559l-212 294h122l149 -209h4l238 209h140l-337 -294h-104z" />
    <glyph glyph-name="Ccircumflex" unicode="&#x108;" horiz-adv-x="1382" 
d="M1320 976c0 5 -1 11 -2 17c-14 210 -178 346 -411 346c-344 0 -592 -318 -592 -742c0 -302 173 -493 445 -493c213 0 384 114 457 307h139c-82 -266 -313 -433 -599 -433c-353 0 -582 241 -582 613c0 496 311 874 735 874c314 0 533 -186 547 -470c1 -10 1 -13 1 -19
h-138zM1047 1853l212 -294h-121l-148 210h-5l-238 -210h-140l337 294h103z" />
    <glyph glyph-name="Cdotaccent" unicode="&#x10a;" horiz-adv-x="1382" 
d="M1320 976c0 5 -1 11 -2 17c-14 210 -178 346 -411 346c-344 0 -592 -318 -592 -742c0 -302 173 -493 445 -493c213 0 384 114 457 307h139c-82 -266 -313 -433 -599 -433c-353 0 -582 241 -582 613c0 496 311 874 735 874c314 0 533 -186 547 -470c1 -10 1 -13 1 -19
h-138zM975 1626c-57 0 -104 47 -104 104s47 104 104 104s104 -47 104 -104s-47 -104 -104 -104z" />
    <glyph glyph-name="Ccedilla" unicode="&#xc7;" horiz-adv-x="1382" 
d="M1458 976h-138c0 5 -1 11 -2 17c-14 210 -178 346 -411 346c-344 0 -592 -318 -592 -742c0 -302 173 -493 445 -493c213 0 384 114 457 307h139c-80 -258 -300 -423 -574 -433l-71 -118c118 -1 187 -54 187 -148c0 -114 -94 -188 -232 -188c-62 0 -129 13 -173 33l19 90
c43 -19 91 -30 145 -30c83 0 135 31 135 87c0 53 -49 79 -151 82l-56 1l14 59l79 136c-308 34 -503 266 -503 609c0 496 311 874 735 874c314 0 533 -186 547 -470c1 -10 1 -13 1 -19z" />
    <glyph glyph-name="Ccedillaacute" unicode="&#x1e08;" horiz-adv-x="1382" 
d="M1340 1847l-333 -288h-129l304 288h158zM1458 976h-138c0 5 -1 11 -2 17c-14 210 -178 346 -411 346c-344 0 -592 -318 -592 -742c0 -302 173 -493 445 -493c213 0 384 114 457 307h139c-80 -258 -300 -423 -574 -433l-71 -118c118 -1 187 -54 187 -148
c0 -114 -94 -188 -232 -188c-62 0 -129 13 -173 33l19 90c43 -19 91 -30 145 -30c83 0 135 31 135 87c0 53 -49 79 -151 82l-56 1l14 59l79 136c-308 34 -503 266 -503 609c0 496 311 874 735 874c314 0 533 -186 547 -470c1 -10 1 -13 1 -19z" />
    <glyph glyph-name="D" unicode="D" horiz-adv-x="1391" 
d="M387 1443h422c380 0 599 -219 599 -577c0 -509 -323 -866 -802 -866h-524zM501 1321l-255 -1199h351c396 0 671 306 671 727c0 304 -165 472 -482 472h-285z" />
    <glyph glyph-name="Ddotaccent" unicode="&#x1e0a;" horiz-adv-x="1391" 
d="M387 1443h422c380 0 599 -219 599 -577c0 -509 -323 -866 -802 -866h-524zM501 1321l-255 -1199h351c396 0 671 306 671 727c0 304 -165 472 -482 472h-285zM845 1625c-57 0 -104 47 -104 104s47 104 104 104s104 -47 104 -104s-47 -104 -104 -104z" />
    <glyph glyph-name="Dcircumflexbelow" unicode="&#x1e12;" horiz-adv-x="1391" 
d="M387 1443h422c380 0 599 -219 599 -577c0 -509 -323 -866 -802 -866h-524zM501 1321l-255 -1199h351c396 0 671 306 671 727c0 304 -165 472 -482 472h-285zM551 -165l213 -294h-121l-149 209h-5l-238 -209h-140l337 294h103z" />
    <glyph glyph-name="Dcommaaccent" unicode="&#x1e10;" horiz-adv-x="1391" 
d="M387 1443h422c380 0 599 -219 599 -577c0 -509 -323 -866 -802 -866h-524zM501 1321l-255 -1199h351c396 0 671 306 671 727c0 304 -165 472 -482 472h-285zM384 -475h-104l179 351h128z" />
    <glyph glyph-name="Dlinebelow" unicode="&#x1e0e;" horiz-adv-x="1391" 
d="M387 1443h422c380 0 599 -219 599 -577c0 -509 -323 -866 -802 -866h-524zM501 1321l-255 -1199h351c396 0 671 306 671 727c0 304 -165 472 -482 472h-285zM802 -242l-20 -92h-617l20 92h617z" />
    <glyph glyph-name="Dcaron" unicode="&#x10e;" horiz-adv-x="1391" 
d="M387 1443h422c380 0 599 -219 599 -577c0 -509 -323 -866 -802 -866h-524zM501 1321l-255 -1199h351c396 0 671 306 671 727c0 304 -165 472 -482 472h-285zM765 1558l-212 294h122l149 -209h4l238 209h140l-337 -294h-104z" />
    <glyph glyph-name="Ddotbelow" unicode="&#x1e0c;" horiz-adv-x="1391" 
d="M387 1443h422c380 0 599 -219 599 -577c0 -509 -323 -866 -802 -866h-524zM501 1321l-255 -1199h351c396 0 671 306 671 727c0 304 -165 472 -482 472h-285zM482 -380c-57 0 -104 47 -104 104s47 104 104 104s104 -47 104 -104s-47 -104 -104 -104z" />
    <glyph glyph-name="Dcroat" unicode="&#x110;" horiz-adv-x="1391" 
d="M246 122h351c396 0 671 306 671 727c0 304 -165 472 -482 472h-285l-111 -522h366l-26 -124h-366zM387 1443h422c380 0 599 -219 599 -577c0 -509 -323 -866 -802 -866h-524l143 675h-139l27 124h138z" />
    <glyph glyph-name="E" unicode="E" horiz-adv-x="1102" 
d="M979 124l-26 -124h-873l307 1443h873l-27 -124h-733l-110 -519h696l-27 -122h-695l-118 -554h733z" />
    <glyph glyph-name="Egrave" unicode="&#xc8;" horiz-adv-x="1102" 
d="M979 124l-26 -124h-873l307 1443h873l-27 -124h-733l-110 -519h696l-27 -122h-695l-118 -554h733zM779 1558l-192 288h140l164 -288h-112z" />
    <glyph glyph-name="Edblgrave" unicode="&#x204;" horiz-adv-x="1102" 
d="M979 124l-26 -124h-873l307 1443h873l-27 -124h-733l-110 -519h696l-27 -122h-695l-118 -554h733zM652 1558l-192 288h140l165 -288h-113zM951 1558l-193 288h141l164 -288h-112z" />
    <glyph glyph-name="Eacute" unicode="&#xc9;" horiz-adv-x="1102" 
d="M979 124l-26 -124h-873l307 1443h873l-27 -124h-733l-110 -519h696l-27 -122h-695l-118 -554h733zM912 1558h-129l304 288h158z" />
    <glyph glyph-name="Ecircumflex" unicode="&#xca;" horiz-adv-x="1102" 
d="M979 124l-26 -124h-873l307 1443h873l-27 -124h-733l-110 -519h696l-27 -122h-695l-118 -554h733zM952 1852l212 -294h-121l-148 210h-5l-238 -210h-140l337 294h103z" />
    <glyph glyph-name="Ecircumflexhookabove" unicode="&#x1ec2;" horiz-adv-x="1102" 
d="M979 124l-26 -124h-873l307 1443h873l-27 -124h-733l-110 -519h696l-27 -122h-695l-118 -554h733zM833 1785h116l224 -241h-129l-157 168h-5l-228 -168h-148zM999 1933l19 73c17 8 56 15 88 15c102 0 168 -52 168 -131c0 -74 -51 -132 -139 -161l-49 57
c54 16 92 48 92 92c0 42 -36 69 -93 69c-30 0 -61 -6 -86 -14z" />
    <glyph glyph-name="Ecircumflexgrave" unicode="&#x1ec0;" horiz-adv-x="1102" 
d="M979 124l-26 -124h-873l307 1443h873l-27 -124h-733l-110 -519h696l-27 -122h-695l-118 -554h733zM833 1785h116l224 -241h-129l-157 168h-5l-228 -168h-148zM1250 1805h-109l-159 211h126z" />
    <glyph glyph-name="Ecircumflextilde" unicode="&#x1ec4;" horiz-adv-x="1102" 
d="M979 124l-26 -124h-873l307 1443h873l-27 -124h-733l-110 -519h696l-27 -122h-695l-118 -554h733zM1038 1830c-120 0 -156 123 -236 123c-49 0 -89 -38 -99 -107h-92c20 126 99 194 201 194c119 0 155 -122 236 -122c48 0 84 37 98 108h92c-19 -124 -100 -196 -200 -196z
M831 1778h116l226 -234h-129l-158 163h-5l-227 -163h-148z" />
    <glyph glyph-name="Ecircumflexdotbelow" unicode="&#x1ec6;" horiz-adv-x="1102" 
d="M979 124l-26 -124h-873l307 1443h873l-27 -124h-733l-110 -519h696l-27 -122h-695l-118 -554h733zM952 1852l212 -294h-121l-148 210h-5l-238 -210h-140l337 294h103zM476 -380c-57 0 -104 47 -104 104s47 104 104 104s104 -47 104 -104s-47 -104 -104 -104z" />
    <glyph glyph-name="Ecircumflexacute" unicode="&#x1ebe;" horiz-adv-x="1102" 
d="M979 124l-26 -124h-873l307 1443h873l-27 -124h-733l-110 -519h696l-27 -122h-695l-118 -554h733zM833 1785h116l224 -241h-129l-157 168h-5l-228 -168h-148zM1058 1805l227 211h141l-243 -211h-125z" />
    <glyph glyph-name="Edieresis" unicode="&#xcb;" horiz-adv-x="1102" 
d="M979 124l-26 -124h-873l307 1443h873l-27 -124h-733l-110 -519h696l-27 -122h-695l-118 -554h733zM705 1612c-49 0 -91 41 -91 91c0 51 42 91 91 91c50 0 92 -40 92 -91c0 -50 -42 -91 -92 -91zM1046 1612c-50 0 -92 41 -92 91c0 51 42 91 92 91s91 -40 91 -91
c0 -50 -41 -91 -91 -91z" />
    <glyph glyph-name="Edotbelow" unicode="&#x1eb8;" horiz-adv-x="1102" 
d="M979 124l-26 -124h-873l307 1443h873l-27 -124h-733l-110 -519h696l-27 -122h-695l-118 -554h733zM476 -380c-57 0 -104 47 -104 104s47 104 104 104s104 -47 104 -104s-47 -104 -104 -104z" />
    <glyph glyph-name="Einvertedbreve" unicode="&#x206;" horiz-adv-x="1102" 
d="M979 124l-26 -124h-873l307 1443h873l-27 -124h-733l-110 -519h696l-27 -122h-695l-118 -554h733zM1148 1546h-99c3 7 6 23 6 39c0 92 -68 151 -173 151c-116 0 -212 -74 -233 -190h-99c31 169 161 276 347 276c147 0 259 -89 259 -221c0 -23 -3 -43 -8 -55z" />
    <glyph glyph-name="Ehookabove" unicode="&#x1eba;" horiz-adv-x="1102" 
d="M979 124l-26 -124h-873l307 1443h873l-27 -124h-733l-110 -519h696l-27 -122h-695l-118 -554h733zM710 1759l19 78c19 9 61 16 91 16c109 0 179 -56 179 -141c0 -87 -66 -153 -178 -180l-36 67c67 15 110 52 110 102c0 44 -35 72 -95 72c-33 0 -64 -5 -90 -14z" />
    <glyph glyph-name="Ecaron" unicode="&#x11a;" horiz-adv-x="1102" 
d="M979 124l-26 -124h-873l307 1443h873l-27 -124h-733l-110 -519h696l-27 -122h-695l-118 -554h733zM800 1558l-212 294h122l149 -209h4l238 209h140l-337 -294h-104z" />
    <glyph glyph-name="Emacron" unicode="&#x112;" horiz-adv-x="1102" 
d="M979 124l-26 -124h-873l307 1443h873l-27 -124h-733l-110 -519h696l-27 -122h-695l-118 -554h733zM1191 1720l-20 -92h-617l20 92h617z" />
    <glyph glyph-name="Emacrongrave" unicode="&#x1e14;" horiz-adv-x="1102" 
d="M979 124l-26 -124h-873l307 1443h873l-27 -124h-733l-110 -519h696l-27 -122h-695l-118 -554h733zM1164 1599h-616l20 92h616zM956 1805h-108l-160 211h127z" />
    <glyph glyph-name="Emacronacute" unicode="&#x1e16;" horiz-adv-x="1102" 
d="M979 124l-26 -124h-873l307 1443h873l-27 -124h-733l-110 -519h696l-27 -122h-695l-118 -554h733zM1164 1599h-616l20 92h616zM835 1805l227 211h141l-243 -211h-125z" />
    <glyph glyph-name="Etilde" unicode="&#x1ebc;" horiz-adv-x="1102" 
d="M979 124l-26 -124h-873l307 1443h873l-27 -124h-733l-110 -519h696l-27 -122h-695l-118 -554h733zM993 1549c-132 0 -156 157 -246 157c-51 0 -97 -52 -114 -147h-93c26 149 109 237 214 237c138 0 160 -157 246 -157c47 0 92 49 112 147h93
c-30 -148 -111 -237 -212 -237z" />
    <glyph glyph-name="Ecircumflexbelow" unicode="&#x1e18;" horiz-adv-x="1102" 
d="M979 124l-26 -124h-873l307 1443h873l-27 -124h-733l-110 -519h696l-27 -122h-695l-118 -554h733zM545 -165l213 -294h-121l-149 209h-5l-238 -209h-140l337 294h103z" />
    <glyph glyph-name="Ebreve" unicode="&#x114;" horiz-adv-x="1102" 
d="M979 124l-26 -124h-873l307 1443h873l-27 -124h-733l-110 -519h696l-27 -122h-695l-118 -554h733zM595 1822h100c-3 -9 -6 -25 -6 -38c0 -96 68 -152 173 -152c115 0 210 71 232 190h100c-32 -173 -162 -276 -348 -276c-147 0 -258 87 -258 222c0 19 3 40 7 54z" />
    <glyph glyph-name="Etildebelow" unicode="&#x1e1a;" horiz-adv-x="1102" 
d="M979 124l-26 -124h-873l307 1443h873l-27 -124h-733l-110 -519h696l-27 -122h-695l-118 -554h733zM597 -417c-132 0 -156 157 -246 157c-51 0 -97 -52 -114 -147h-93c26 149 109 237 214 237c138 0 160 -157 246 -157c47 0 92 49 112 147h93
c-30 -148 -111 -237 -212 -237z" />
    <glyph glyph-name="Edotaccent" unicode="&#x116;" horiz-adv-x="1102" 
d="M979 124l-26 -124h-873l307 1443h873l-27 -124h-733l-110 -519h696l-27 -122h-695l-118 -554h733zM880 1625c-57 0 -104 47 -104 104s47 104 104 104s104 -47 104 -104s-47 -104 -104 -104z" />
    <glyph glyph-name="Ecedilla" unicode="&#x228;" horiz-adv-x="1102" 
d="M1233 1319h-733l-110 -519h696l-27 -122h-695l-118 -554h733l-26 -124h-359l-84 -140c118 -1 187 -54 187 -148c0 -114 -94 -188 -232 -188c-62 0 -129 13 -173 33l19 90c43 -19 91 -30 145 -30c83 0 135 31 135 87c0 53 -49 79 -151 82l-56 1l14 59l89 154h-407
l307 1443h873z" />
    <glyph glyph-name="Ecedillabreve" unicode="&#x1e1c;" horiz-adv-x="1102" 
d="M1094 1822h100c-32 -173 -162 -276 -348 -276c-147 0 -258 87 -258 222c0 19 3 40 7 54h100c-3 -9 -6 -25 -6 -38c0 -96 68 -152 173 -152c115 0 210 71 232 190zM1233 1319h-733l-110 -519h696l-27 -122h-695l-118 -554h733l-26 -124h-359l-84 -140
c118 -1 187 -54 187 -148c0 -114 -94 -188 -232 -188c-62 0 -129 13 -173 33l19 90c43 -19 91 -30 145 -30c83 0 135 31 135 87c0 53 -49 79 -151 82l-56 1l14 59l89 154h-407l307 1443h873z" />
    <glyph glyph-name="Eogonek" unicode="&#x118;" horiz-adv-x="1102" 
d="M80 0l307 1443h873l-27 -124h-733l-111 -519h697l-27 -122h-696l-118 -554h734l-24 -114l-13 -8c-160 -86 -238 -163 -238 -232c0 -51 40 -84 103 -84c28 0 53 4 72 13l-20 -93c-17 -11 -58 -18 -98 -18c-106 0 -177 59 -177 146c0 93 79 186 226 263v3h-730z" />
    <glyph glyph-name="F" unicode="F" horiz-adv-x="1059" 
d="M219 0h-139l307 1443h858l-27 -124h-718l-115 -542h659l-26 -122h-659z" />
    <glyph glyph-name="Fdotaccent" unicode="&#x1e1e;" horiz-adv-x="1059" 
d="M219 0h-139l307 1443h858l-27 -124h-718l-115 -542h659l-26 -122h-659zM873 1625c-57 0 -104 47 -104 104s47 104 104 104s104 -47 104 -104s-47 -104 -104 -104z" />
    <glyph glyph-name="G" unicode="G" horiz-adv-x="1420" 
d="M1432 721l-45 -207c-74 -341 -312 -536 -631 -536c-361 0 -582 251 -582 613c0 427 254 874 735 874c322 0 532 -193 547 -472v-10h-138c-19 218 -174 356 -410 356c-393 0 -594 -378 -594 -742c0 -294 165 -493 443 -493c249 0 439 160 493 417l17 79h-435l26 121h574z
" />
    <glyph glyph-name="Gacute" unicode="&#x1f4;" horiz-adv-x="1420" 
d="M1432 721l-45 -207c-74 -341 -312 -536 -631 -536c-361 0 -582 251 -582 613c0 427 254 874 735 874c322 0 532 -193 547 -472v-10h-138c-19 218 -174 356 -410 356c-393 0 -594 -378 -594 -742c0 -294 165 -493 443 -493c249 0 439 160 493 417l17 79h-435l26 121h574z
M998 1558h-129l304 288h158z" />
    <glyph glyph-name="Gcaron" unicode="&#x1e6;" horiz-adv-x="1420" 
d="M1432 721l-45 -207c-74 -341 -312 -536 -631 -536c-361 0 -582 251 -582 613c0 427 254 874 735 874c322 0 532 -193 547 -472v-10h-138c-19 218 -174 356 -410 356c-393 0 -594 -378 -594 -742c0 -294 165 -493 443 -493c249 0 439 160 493 417l17 79h-435l26 121h574z
M886 1558l-212 294h122l149 -209h4l238 209h140l-337 -294h-104z" />
    <glyph glyph-name="Gcircumflex" unicode="&#x11c;" horiz-adv-x="1420" 
d="M1432 721l-45 -207c-74 -341 -312 -536 -631 -536c-361 0 -582 251 -582 613c0 427 254 874 735 874c322 0 532 -193 547 -472v-10h-138c-19 218 -174 356 -410 356c-393 0 -594 -378 -594 -742c0 -294 165 -493 443 -493c249 0 439 160 493 417l17 79h-435l26 121h574z
M1038 1852l212 -294h-121l-148 210h-5l-238 -210h-140l337 294h103z" />
    <glyph glyph-name="Gbreve" unicode="&#x11e;" horiz-adv-x="1420" 
d="M1432 721l-45 -207c-74 -341 -312 -536 -631 -536c-361 0 -582 251 -582 613c0 427 254 874 735 874c322 0 532 -193 547 -472v-10h-138c-19 218 -174 356 -410 356c-393 0 -594 -378 -594 -742c0 -294 165 -493 443 -493c249 0 439 160 493 417l17 79h-435l26 121h574z
M681 1822h100c-3 -9 -6 -25 -6 -38c0 -96 68 -152 173 -152c115 0 210 71 232 190h100c-32 -173 -162 -276 -348 -276c-147 0 -258 87 -258 222c0 19 3 40 7 54z" />
    <glyph glyph-name="Gmacron" unicode="&#x1e20;" horiz-adv-x="1420" 
d="M1432 721l-45 -207c-74 -341 -312 -536 -631 -536c-361 0 -582 251 -582 613c0 427 254 874 735 874c322 0 532 -193 547 -472v-10h-138c-19 218 -174 356 -410 356c-393 0 -594 -378 -594 -742c0 -294 165 -493 443 -493c249 0 439 160 493 417l17 79h-435l26 121h574z
M1277 1720l-20 -92h-617l20 92h617z" />
    <glyph glyph-name="Gdotaccent" unicode="&#x120;" horiz-adv-x="1420" 
d="M1432 721l-45 -207c-74 -341 -312 -536 -631 -536c-361 0 -582 251 -582 613c0 427 254 874 735 874c322 0 532 -193 547 -472v-10h-138c-19 218 -174 356 -410 356c-393 0 -594 -378 -594 -742c0 -294 165 -493 443 -493c249 0 439 160 493 417l17 79h-435l26 121h574z
M966 1625c-57 0 -104 47 -104 104s47 104 104 104s104 -47 104 -104s-47 -104 -104 -104z" />
    <glyph glyph-name="Gcommaaccent" unicode="&#x122;" horiz-adv-x="1420" 
d="M1432 721l-45 -207c-74 -341 -312 -536 -631 -536c-361 0 -582 251 -582 613c0 427 254 874 735 874c322 0 532 -193 547 -472v-10h-138c-19 218 -174 356 -410 356c-393 0 -594 -378 -594 -742c0 -294 165 -493 443 -493c249 0 439 160 493 417l17 79h-435l26 121h574z
M588 -475h-104l179 351h128z" />
    <glyph glyph-name="H" unicode="H" horiz-adv-x="1394" 
d="M1200 0h-139l144 677h-841l-145 -677h-139l307 1443h139l-136 -642h841l137 642h139z" />
    <glyph glyph-name="Hdieresis" unicode="&#x1e26;" horiz-adv-x="1394" 
d="M1200 0h-139l144 677h-841l-145 -677h-139l307 1443h139l-136 -642h841l137 642h139zM823 1612c-49 0 -91 41 -91 91c0 51 42 91 91 91c50 0 92 -40 92 -91c0 -50 -42 -91 -92 -91zM1164 1612c-50 0 -92 41 -92 91c0 51 42 91 92 91s91 -40 91 -91c0 -50 -41 -91 -91 -91
z" />
    <glyph glyph-name="Hcaron" unicode="&#x21e;" horiz-adv-x="1394" 
d="M1200 0h-139l144 677h-841l-145 -677h-139l307 1443h139l-136 -642h841l137 642h139zM918 1558l-212 294h122l149 -209h4l238 209h140l-337 -294h-104z" />
    <glyph glyph-name="Hcircumflex" unicode="&#x124;" horiz-adv-x="1394" 
d="M1200 0h-139l144 677h-841l-145 -677h-139l307 1443h139l-136 -642h841l137 642h139zM1070 1852l212 -294h-121l-148 210h-5l-238 -210h-140l337 294h103z" />
    <glyph glyph-name="Hdotbelow" unicode="&#x1e24;" horiz-adv-x="1394" 
d="M1200 0h-139l144 677h-841l-145 -677h-139l307 1443h139l-136 -642h841l137 642h139zM597 -380c-57 0 -104 47 -104 104s47 104 104 104s104 -47 104 -104s-47 -104 -104 -104z" />
    <glyph glyph-name="Hdotaccent" unicode="&#x1e22;" horiz-adv-x="1394" 
d="M1200 0h-139l144 677h-841l-145 -677h-139l307 1443h139l-136 -642h841l137 642h139zM998 1625c-57 0 -104 47 -104 104s47 104 104 104s104 -47 104 -104s-47 -104 -104 -104z" />
    <glyph glyph-name="Hbrevebelow" unicode="&#x1e2a;" horiz-adv-x="1394" 
d="M1200 0h-139l144 677h-841l-145 -677h-139l307 1443h139l-136 -642h841l137 642h139zM318 -156h99c-3 -9 -5 -25 -5 -38c0 -96 67 -152 173 -152c115 0 210 71 232 190h99c-32 -173 -161 -276 -347 -276c-148 0 -258 87 -258 222c0 19 3 40 7 54z" />
    <glyph glyph-name="Hcedilla" unicode="&#x1e28;" horiz-adv-x="1394" 
d="M1368 1443h139l-307 -1443h-139l144 677h-841l-145 -677l-84 -140c118 -1 187 -54 187 -148c0 -114 -94 -188 -232 -188c-62 0 -129 13 -173 33l19 90c43 -19 91 -30 145 -30c83 0 135 31 135 87c0 53 -49 79 -151 82l-56 1l14 59l89 154h-32l307 1443h139l-136 -642h841
z" />
    <glyph glyph-name="Hbar" unicode="&#x126;" horiz-adv-x="1394" 
d="M1231 801l59 277h-841l-59 -277h841zM1557 1202l-26 -124h-102l-229 -1078h-139l144 677h-841l-145 -677h-139l229 1078h-103l26 124h104l51 241h139l-51 -241h842l51 241h139l-51 -241h101z" />
    <glyph glyph-name="I" unicode="I" horiz-adv-x="413" 
d="M219 0h-139l307 1443h139z" />
    <glyph glyph-name="Idotaccent" unicode="&#x130;" horiz-adv-x="413" 
d="M219 0h-139l307 1443h139zM514 1625c-57 0 -104 47 -104 104s47 104 104 104s104 -47 104 -104s-47 -104 -104 -104z" />
    <glyph glyph-name="Igrave" unicode="&#xcc;" horiz-adv-x="413" 
d="M219 0h-139l307 1443h139zM412 1558l-192 288h140l164 -288h-112z" />
    <glyph glyph-name="Idblgrave" unicode="&#x208;" horiz-adv-x="413" 
d="M219 0h-139l307 1443h139zM286 1558l-192 288h140l165 -288h-113zM585 1558l-193 288h141l164 -288h-112z" />
    <glyph glyph-name="Iacute" unicode="&#xcd;" horiz-adv-x="413" 
d="M219 0h-139l307 1443h139zM546 1558h-129l304 288h158z" />
    <glyph glyph-name="Icircumflex" unicode="&#xce;" horiz-adv-x="413" 
d="M219 0h-139l307 1443h139zM586 1852l212 -294h-121l-148 210h-5l-238 -210h-140l337 294h103z" />
    <glyph glyph-name="Icaron" unicode="&#x1cf;" horiz-adv-x="413" 
d="M219 0h-139l307 1443h139zM434 1558l-212 294h122l149 -209h4l238 209h140l-337 -294h-104z" />
    <glyph glyph-name="Idieresis" unicode="&#xcf;" horiz-adv-x="413" 
d="M219 0h-139l307 1443h139zM339 1612c-49 0 -91 41 -91 91c0 51 42 91 91 91c50 0 92 -40 92 -91c0 -50 -42 -91 -92 -91zM680 1612c-50 0 -92 41 -92 91c0 51 42 91 92 91s91 -40 91 -91c0 -50 -41 -91 -91 -91z" />
    <glyph glyph-name="Idieresisacute" unicode="&#x1e2e;" horiz-adv-x="413" 
d="M219 0h-139l307 1443h139zM452 1805l226 211h141l-243 -211h-124zM336 1554c-49 0 -88 39 -88 88s39 88 88 88c47 0 87 -39 87 -88s-40 -88 -87 -88zM664 1554c-48 0 -88 39 -88 88s40 88 88 88s88 -39 88 -88s-40 -88 -88 -88z" />
    <glyph glyph-name="Ibreve" unicode="&#x12c;" horiz-adv-x="413" 
d="M219 0h-139l307 1443h139zM229 1822h100c-3 -9 -6 -25 -6 -38c0 -96 68 -152 173 -152c115 0 210 71 232 190h100c-32 -173 -162 -276 -348 -276c-147 0 -258 87 -258 222c0 19 3 40 7 54z" />
    <glyph glyph-name="Idotbelow" unicode="&#x1eca;" horiz-adv-x="413" 
d="M219 0h-139l307 1443h139zM87 -380c-57 0 -104 47 -104 104s47 104 104 104s104 -47 104 -104s-47 -104 -104 -104z" />
    <glyph glyph-name="Iinvertedbreve" unicode="&#x20a;" horiz-adv-x="413" 
d="M219 0h-139l307 1443h139zM782 1546h-99c3 7 6 23 6 39c0 92 -68 151 -173 151c-116 0 -212 -74 -233 -190h-99c31 169 161 276 347 276c147 0 259 -89 259 -221c0 -23 -3 -43 -8 -55z" />
    <glyph glyph-name="Imacron" unicode="&#x12a;" horiz-adv-x="413" 
d="M219 0h-139l307 1443h139zM825 1720l-20 -92h-617l20 92h617z" />
    <glyph glyph-name="Itildebelow" unicode="&#x1e2c;" horiz-adv-x="413" 
d="M219 0h-139l307 1443h139zM208 -417c-132 0 -156 157 -246 157c-51 0 -97 -52 -114 -147h-93c26 149 109 237 214 237c138 0 160 -157 246 -157c47 0 92 49 112 147h93c-30 -148 -111 -237 -212 -237z" />
    <glyph glyph-name="Ihookabove" unicode="&#x1ec8;" horiz-adv-x="413" 
d="M219 0h-139l307 1443h139zM344 1759l19 78c19 9 61 16 91 16c109 0 179 -56 179 -141c0 -87 -66 -153 -178 -180l-36 67c67 15 110 52 110 102c0 44 -35 72 -95 72c-33 0 -64 -5 -90 -14z" />
    <glyph glyph-name="Itilde" unicode="&#x128;" horiz-adv-x="413" 
d="M219 0h-139l307 1443h139zM627 1549c-132 0 -156 157 -246 157c-51 0 -97 -52 -114 -147h-93c26 149 109 237 214 237c138 0 160 -157 246 -157c47 0 92 49 112 147h93c-30 -148 -111 -237 -212 -237z" />
    <glyph glyph-name="Iogonek" unicode="&#x12e;" horiz-adv-x="413" 
d="M78 -412c-105 0 -177 59 -177 146c0 85 56 165 177 258v0l309 1451h139l-304 -1432l-12 -8c-142 -96 -189 -161 -189 -230c0 -54 41 -87 104 -87c32 0 56 4 71 13l-19 -93c-17 -11 -59 -18 -99 -18z" />
    <glyph glyph-name="I.1" horiz-adv-x="875" 
d="M1020 1325h-288l-257 -1207h288l-25 -118h-288h-139h-288l25 118h288l257 1207h-288l25 118h288h139h288z" />
    <glyph glyph-name="Idotaccent.1" horiz-adv-x="875" 
d="M744 1625c-57 0 -104 47 -104 104s47 104 104 104s104 -47 104 -104s-47 -104 -104 -104zM1020 1325h-288l-257 -1207h288l-25 -118h-288h-139h-288l25 118h288l257 1207h-288l25 118h288h139h288z" />
    <glyph glyph-name="Igrave.1" horiz-adv-x="875" 
d="M754 1558h-112l-192 288h140zM1020 1325h-288l-257 -1207h288l-25 -118h-288h-139h-288l25 118h288l257 1207h-288l25 118h288h139h288z" />
    <glyph glyph-name="Idblgrave.1" horiz-adv-x="875" 
d="M927 1558h-112l-193 288h141zM629 1558h-113l-192 288h140zM1020 1325h-288l-257 -1207h288l-25 -118h-288h-139h-288l25 118h288l257 1207h-288l25 118h288h139h288z" />
    <glyph glyph-name="Iacute.1" horiz-adv-x="875" 
d="M1108 1846l-333 -288h-129l304 288h158zM618 1443h139h288l-25 -118h-288l-257 -1207h288l-25 -118h-288h-139h-288l25 118h288l257 1207h-288l25 118h288z" />
    <glyph glyph-name="Icircumflex.1" horiz-adv-x="875" 
d="M754 1768l-238 -210h-140l337 294h103l212 -294h-121l-148 210h-5zM1020 1325h-288l-257 -1207h288l-25 -118h-288h-139h-288l25 118h288l257 1207h-288l25 118h288h139h288z" />
    <glyph glyph-name="Icaron.1" horiz-adv-x="875" 
d="M768 1558h-104l-212 294h122l149 -209h4l238 209h140zM618 1443h139h288l-25 -118h-288l-257 -1207h288l-25 -118h-288h-139h-288l25 118h288l257 1207h-288l25 118h288z" />
    <glyph glyph-name="Idieresis.1" horiz-adv-x="875" 
d="M910 1612c-50 0 -92 41 -92 91c0 51 42 91 92 91s91 -40 91 -91c0 -50 -41 -91 -91 -91zM569 1612c-49 0 -91 41 -91 91c0 51 42 91 91 91c50 0 92 -40 92 -91c0 -50 -42 -91 -92 -91zM1020 1325h-288l-257 -1207h288l-25 -118h-288h-139h-288l25 118h288l257 1207h-288
l25 118h288h139h288z" />
    <glyph glyph-name="Idieresisacute.1" horiz-adv-x="875" 
d="M1049 2016l-243 -211h-124l226 211h141zM806 1642c0 49 40 88 88 88s88 -39 88 -88s-40 -88 -88 -88s-88 39 -88 88zM566 1554c-49 0 -88 39 -88 88s39 88 88 88c47 0 87 -39 87 -88s-40 -88 -87 -88zM618 1443h139h288l-25 -118h-288l-257 -1207h288l-25 -118h-288h-139
h-288l25 118h288l257 1207h-288l25 118h288z" />
    <glyph glyph-name="Ibreve.1" horiz-adv-x="875" 
d="M958 1822h100c-32 -173 -162 -276 -348 -276c-147 0 -258 87 -258 222c0 19 3 40 7 54h100c-3 -9 -6 -25 -6 -38c0 -96 68 -152 173 -152c115 0 210 71 232 190zM618 1443h139h288l-25 -118h-288l-257 -1207h288l-25 -118h-288h-139h-288l25 118h288l257 1207h-288
l25 118h288z" />
    <glyph glyph-name="Idotbelow.1" horiz-adv-x="875" 
d="M318 -172c57 0 104 -47 104 -104s-47 -104 -104 -104s-104 47 -104 104s47 104 104 104zM1020 1325h-288l-257 -1207h288l-25 -118h-288h-139h-288l25 118h288l257 1207h-288l25 118h288h139h288z" />
    <glyph glyph-name="Iinvertedbreve.1" horiz-adv-x="875" 
d="M1012 1546h-99c3 7 6 23 6 39c0 92 -68 151 -173 151c-116 0 -212 -74 -233 -190h-99c31 169 161 276 347 276c147 0 259 -89 259 -221c0 -23 -3 -43 -8 -55zM1020 1325h-288l-257 -1207h288l-25 -118h-288h-139h-288l25 118h288l257 1207h-288l25 118h288h139h288z" />
    <glyph glyph-name="Imacron.1" horiz-adv-x="875" 
d="M1055 1720l-20 -92h-617l20 92h617zM618 1443h139h288l-25 -118h-288l-257 -1207h288l-25 -118h-288h-139h-288l25 118h288l257 1207h-288l25 118h288z" />
    <glyph glyph-name="Itildebelow.1" horiz-adv-x="875" 
d="M79 -407h-93c26 149 109 237 214 237c138 0 160 -157 246 -157c47 0 92 49 112 147h93c-30 -148 -111 -237 -212 -237c-132 0 -156 157 -246 157c-51 0 -97 -52 -114 -147zM1020 1325h-288l-257 -1207h288l-25 -118h-288h-139h-288l25 118h288l257 1207h-288l25 118h288
h139h288z" />
    <glyph glyph-name="Ihookabove.1" horiz-adv-x="875" 
d="M685 1532l-36 67c67 15 110 52 110 102c0 44 -35 72 -95 72c-33 0 -64 -5 -90 -14l19 78c19 9 61 16 91 16c109 0 179 -56 179 -141c0 -87 -66 -153 -178 -180zM1020 1325h-288l-257 -1207h288l-25 -118h-288h-139h-288l25 118h288l257 1207h-288l25 118h288h139h288z
" />
    <glyph glyph-name="Itilde.1" horiz-adv-x="875" 
d="M976 1786h93c-30 -148 -111 -237 -212 -237c-132 0 -156 157 -246 157c-51 0 -97 -52 -114 -147h-93c26 149 109 237 214 237c138 0 160 -157 246 -157c47 0 92 49 112 147zM618 1443h139h288l-25 -118h-288l-257 -1207h288l-25 -118h-288h-139h-288l25 118h288l257 1207
h-288l25 118h288z" />
    <glyph glyph-name="Iogonek.1" horiz-adv-x="875" 
d="M305 1325l25 118h715l-25 -118h-288l-257 -1207h288l-23 -108l-16 -9c-148 -76 -233 -154 -238 -224c-5 -55 34 -91 103 -91c28 0 55 4 72 11l-19 -92c-16 -10 -58 -17 -99 -17c-112 0 -184 62 -177 154c5 92 86 184 221 254v4h-564l25 118h288l257 1207h-288z" />
    <glyph glyph-name="J" unicode="J" horiz-adv-x="996" 
d="M65 318v22h138v-6c0 -139 99 -229 250 -229c154 0 255 100 295 290l222 1048h139l-229 -1083c-51 -242 -207 -383 -441 -383c-218 0 -374 145 -374 341z" />
    <glyph glyph-name="Jcircumflex" unicode="&#x134;" horiz-adv-x="996" 
d="M65 318v22h138v-6c0 -139 99 -229 250 -229c154 0 255 100 295 290l222 1048h139l-229 -1083c-51 -242 -207 -383 -441 -383c-218 0 -374 145 -374 341zM1169 1852l212 -294h-121l-148 210h-5l-238 -210h-140l337 294h103z" />
    <glyph glyph-name="K" unicode="K" horiz-adv-x="1209" 
d="M219 0h-139l307 1443h139l-158 -743h4l835 743h183l-715 -640l466 -803h-159l-414 718l-241 -210z" />
    <glyph glyph-name="Kacute" unicode="&#x1e30;" horiz-adv-x="1209" 
d="M219 0h-139l307 1443h139l-158 -743h4l835 743h183l-715 -640l466 -803h-159l-414 718l-241 -210zM909 1558h-129l304 288h158z" />
    <glyph glyph-name="Kcaron" unicode="&#x1e8;" horiz-adv-x="1209" 
d="M219 0h-139l307 1443h139l-158 -743h4l835 743h183l-715 -640l466 -803h-159l-414 718l-241 -210zM797 1558l-212 294h122l149 -209h4l238 209h140l-337 -294h-104z" />
    <glyph glyph-name="Kdotbelow" unicode="&#x1e32;" horiz-adv-x="1209" 
d="M219 0h-139l307 1443h139l-158 -743h4l835 743h183l-715 -640l466 -803h-159l-414 718l-241 -210zM518 -380c-57 0 -104 47 -104 104s47 104 104 104s104 -47 104 -104s-47 -104 -104 -104z" />
    <glyph glyph-name="Klinebelow" unicode="&#x1e34;" horiz-adv-x="1209" 
d="M219 0h-139l307 1443h139l-158 -743h4l835 743h183l-715 -640l466 -803h-159l-414 718l-241 -210zM838 -242l-20 -92h-617l20 92h617z" />
    <glyph glyph-name="Kcommaaccent" unicode="&#x136;" horiz-adv-x="1209" 
d="M219 0h-139l307 1443h139l-158 -743h4l835 743h183l-715 -640l466 -803h-159l-414 718l-241 -210zM420 -475h-104l179 351h128z" />
    <glyph glyph-name="L" unicode="L" horiz-adv-x="1053" 
d="M966 124l-26 -124h-860l307 1443h139l-280 -1319h720z" />
    <glyph glyph-name="Lacute" unicode="&#x139;" horiz-adv-x="1053" 
d="M966 124l-26 -124h-860l307 1443h139l-280 -1319h720zM545 1558h-129l304 288h158z" />
    <glyph glyph-name="Lcircumflexbelow" unicode="&#x1e3c;" horiz-adv-x="1053" 
d="M966 124l-26 -124h-860l307 1443h139l-280 -1319h720zM517 -165l213 -294h-121l-149 209h-5l-238 -209h-140l337 294h103z" />
    <glyph glyph-name="Ldotbelow" unicode="&#x1e36;" horiz-adv-x="1053" 
d="M966 124l-26 -124h-860l307 1443h139l-280 -1319h720zM448 -380c-57 0 -104 47 -104 104s47 104 104 104s104 -47 104 -104s-47 -104 -104 -104z" />
    <glyph glyph-name="Ldotbelowmacron" unicode="&#x1e38;" horiz-adv-x="1053" 
d="M966 124l-26 -124h-860l307 1443h139l-280 -1319h720zM448 -380c-57 0 -104 47 -104 104s47 104 104 104s104 -47 104 -104s-47 -104 -104 -104zM825 1720l-20 -92h-617l20 92h617z" />
    <glyph glyph-name="Llinebelow" unicode="&#x1e3a;" horiz-adv-x="1053" 
d="M966 124l-26 -124h-860l307 1443h139l-280 -1319h720zM768 -242l-20 -92h-617l20 92h617z" />
    <glyph glyph-name="Lcommaaccent" unicode="&#x13b;" horiz-adv-x="1053" 
d="M966 124l-26 -124h-860l307 1443h139l-280 -1319h720zM350 -475h-104l179 351h128z" />
    <glyph glyph-name="Lcaron" unicode="&#x13d;" horiz-adv-x="1053" 
d="M892 1443h129l-132 -444h-92zM966 124l-26 -124h-860l307 1443h139l-280 -1319h720z" />
    <glyph glyph-name="Lslash" unicode="&#x141;" horiz-adv-x="1053" 
d="M246 124h720l-26 -124h-860l124 583l-152 -71l25 118l152 71l158 742h139l-142 -670l393 183l-25 -118l-393 -183z" />
    <glyph glyph-name="M" unicode="M" horiz-adv-x="1667" 
d="M210 0h-130l307 1443h150l267 -1271h4l802 1271h170l-307 -1443h-130l254 1192h-6l-755 -1185h-119l-250 1185h-5z" />
    <glyph glyph-name="Macute" unicode="&#x1e3e;" horiz-adv-x="1667" 
d="M210 0h-130l307 1443h150l267 -1271h4l802 1271h170l-307 -1443h-130l254 1192h-6l-755 -1185h-119l-250 1185h-5zM1130 1558h-129l304 288h158z" />
    <glyph glyph-name="Mdotaccent" unicode="&#x1e40;" horiz-adv-x="1667" 
d="M210 0h-130l307 1443h150l267 -1271h4l802 1271h170l-307 -1443h-130l254 1192h-6l-755 -1185h-119l-250 1185h-5zM1098 1625c-57 0 -104 47 -104 104s47 104 104 104s104 -47 104 -104s-47 -104 -104 -104z" />
    <glyph glyph-name="Mdotbelow" unicode="&#x1e42;" horiz-adv-x="1667" 
d="M210 0h-130l307 1443h150l267 -1271h4l802 1271h170l-307 -1443h-130l254 1192h-6l-755 -1185h-119l-250 1185h-5zM714 -380c-57 0 -104 47 -104 104s47 104 104 104s104 -47 104 -104s-47 -104 -104 -104z" />
    <glyph glyph-name="N" unicode="N" horiz-adv-x="1400" 
d="M219 0h-139l307 1443h139l581 -1236h4l263 1236h139l-307 -1443h-139l-581 1236h-4z" />
    <glyph glyph-name="Ngrave" unicode="&#x1f8;" horiz-adv-x="1400" 
d="M219 0h-139l307 1443h139l581 -1236h4l263 1236h139l-307 -1443h-139l-581 1236h-4zM910 1558l-192 288h140l164 -288h-112z" />
    <glyph glyph-name="Nacute" unicode="&#x143;" horiz-adv-x="1400" 
d="M219 0h-139l307 1443h139l581 -1236h4l263 1236h139l-307 -1443h-139l-581 1236h-4zM1044 1558h-129l304 288h158z" />
    <glyph glyph-name="Ntilde" unicode="&#xd1;" horiz-adv-x="1400" 
d="M219 0h-139l307 1443h139l581 -1236h4l263 1236h139l-307 -1443h-139l-581 1236h-4zM1125 1549c-132 0 -156 157 -246 157c-51 0 -97 -52 -114 -147h-93c26 149 109 237 214 237c138 0 160 -157 246 -157c47 0 92 49 112 147h93c-30 -148 -111 -237 -212 -237z" />
    <glyph glyph-name="Ndotbelow" unicode="&#x1e46;" horiz-adv-x="1400" 
d="M219 0h-139l307 1443h139l581 -1236h4l263 1236h139l-307 -1443h-139l-581 1236h-4zM581 -380c-57 0 -104 47 -104 104s47 104 104 104s104 -47 104 -104s-47 -104 -104 -104z" />
    <glyph glyph-name="Ndotaccent" unicode="&#x1e44;" horiz-adv-x="1400" 
d="M219 0h-139l307 1443h139l581 -1236h4l263 1236h139l-307 -1443h-139l-581 1236h-4zM1012 1625c-57 0 -104 47 -104 104s47 104 104 104s104 -47 104 -104s-47 -104 -104 -104z" />
    <glyph glyph-name="Ncaron" unicode="&#x147;" horiz-adv-x="1400" 
d="M219 0h-139l307 1443h139l581 -1236h4l263 1236h139l-307 -1443h-139l-581 1236h-4zM932 1558l-212 294h122l149 -209h4l238 209h140l-337 -294h-104z" />
    <glyph glyph-name="Ncircumflexbelow" unicode="&#x1e4a;" horiz-adv-x="1400" 
d="M219 0h-139l307 1443h139l581 -1236h4l263 1236h139l-307 -1443h-139l-581 1236h-4zM650 -165l213 -294h-121l-149 209h-5l-238 -209h-140l337 294h103z" />
    <glyph glyph-name="Nlinebelow" unicode="&#x1e48;" horiz-adv-x="1400" 
d="M219 0h-139l307 1443h139l581 -1236h4l263 1236h139l-307 -1443h-139l-581 1236h-4zM901 -242l-20 -92h-617l20 92h617z" />
    <glyph glyph-name="Ncommaaccent" unicode="&#x145;" horiz-adv-x="1400" 
d="M219 0h-139l307 1443h139l581 -1236h4l263 1236h139l-307 -1443h-139l-581 1236h-4zM483 -475h-104l179 351h128z" />
    <glyph glyph-name="O" unicode="O" horiz-adv-x="1491" 
d="M918 1339c-350 0 -603 -326 -603 -734c0 -307 178 -501 450 -501c351 0 603 326 603 734c0 307 -177 501 -450 501zM764 -22c-354 0 -589 246 -589 621c0 481 315 866 745 866c353 0 588 -246 588 -621c0 -481 -315 -866 -744 -866z" />
    <glyph glyph-name="Odieresis" unicode="&#xd6;" horiz-adv-x="1491" 
d="M918 1339c-350 0 -603 -326 -603 -734c0 -307 178 -501 450 -501c351 0 603 326 603 734c0 307 -177 501 -450 501zM764 -22c-354 0 -589 246 -589 621c0 481 315 866 745 866c353 0 588 -246 588 -621c0 -481 -315 -866 -744 -866zM815 1612c-49 0 -91 41 -91 91
c0 51 42 91 91 91c50 0 92 -40 92 -91c0 -50 -42 -91 -92 -91zM1156 1612c-50 0 -92 41 -92 91c0 51 42 91 92 91s91 -40 91 -91c0 -50 -41 -91 -91 -91z" />
    <glyph glyph-name="Oslash" unicode="&#xd8;" horiz-adv-x="1491" 
d="M1308 1113l-872 -872c79 -88 192 -137 329 -137c351 0 603 326 603 734c0 106 -21 199 -60 275zM375 330l872 872c-79 88 -192 137 -329 137c-350 0 -603 -326 -603 -734c0 -106 21 -199 60 -275zM1573 1378l-164 -164c64 -99 99 -225 99 -370
c0 -481 -315 -866 -744 -866c-175 0 -321 60 -424 167l-155 -155l-75 75l164 164c-64 99 -99 225 -99 370c0 481 315 866 745 866c175 0 321 -60 423 -167l155 155z" />
    <glyph glyph-name="Otilde" unicode="&#xd5;" horiz-adv-x="1491" 
d="M918 1339c-350 0 -603 -326 -603 -734c0 -307 178 -501 450 -501c351 0 603 326 603 734c0 307 -177 501 -450 501zM764 -22c-354 0 -589 246 -589 621c0 481 315 866 745 866c353 0 588 -246 588 -621c0 -481 -315 -866 -744 -866zM1103 1549c-132 0 -156 157 -246 157
c-51 0 -97 -52 -114 -147h-93c26 149 109 237 214 237c138 0 160 -157 246 -157c47 0 92 49 112 147h93c-30 -148 -111 -237 -212 -237z" />
    <glyph glyph-name="Oacute" unicode="&#xd3;" horiz-adv-x="1491" 
d="M918 1339c-350 0 -603 -326 -603 -734c0 -307 178 -501 450 -501c351 0 603 326 603 734c0 307 -177 501 -450 501zM764 -22c-354 0 -589 246 -589 621c0 481 315 866 745 866c353 0 588 -246 588 -621c0 -481 -315 -866 -744 -866zM1021 1558h-129l304 288h158z" />
    <glyph glyph-name="Ocircumflex" unicode="&#xd4;" horiz-adv-x="1491" 
d="M918 1339c-350 0 -603 -326 -603 -734c0 -307 178 -501 450 -501c351 0 603 326 603 734c0 307 -177 501 -450 501zM764 -22c-354 0 -589 246 -589 621c0 481 315 866 745 866c353 0 588 -246 588 -621c0 -481 -315 -866 -744 -866zM1062 1852l212 -294h-121l-148 210h-5
l-238 -210h-140l337 294h103z" />
    <glyph glyph-name="Ograve" unicode="&#xd2;" horiz-adv-x="1491" 
d="M918 1339c-350 0 -603 -326 -603 -734c0 -307 178 -501 450 -501c351 0 603 326 603 734c0 307 -177 501 -450 501zM764 -22c-354 0 -589 246 -589 621c0 481 315 866 745 866c353 0 588 -246 588 -621c0 -481 -315 -866 -744 -866zM888 1558l-192 288h140l164 -288h-112
z" />
    <glyph glyph-name="Ocircumflexhookabove" unicode="&#x1ed4;" horiz-adv-x="1491" 
d="M918 1339c-350 0 -603 -326 -603 -734c0 -307 178 -501 450 -501c351 0 603 326 603 734c0 307 -177 501 -450 501zM764 -22c-354 0 -589 246 -589 621c0 481 315 866 745 866c353 0 588 -246 588 -621c0 -481 -315 -866 -744 -866zM943 1785h116l224 -241h-129l-157 168
h-5l-228 -168h-148zM1109 1933l19 73c17 8 56 15 88 15c102 0 168 -52 168 -131c0 -74 -51 -132 -139 -161l-49 57c54 16 92 48 92 92c0 42 -36 69 -93 69c-30 0 -61 -6 -86 -14z" />
    <glyph glyph-name="Ocircumflexgrave" unicode="&#x1ed2;" horiz-adv-x="1491" 
d="M918 1339c-350 0 -603 -326 -603 -734c0 -307 178 -501 450 -501c351 0 603 326 603 734c0 307 -177 501 -450 501zM764 -22c-354 0 -589 246 -589 621c0 481 315 866 745 866c353 0 588 -246 588 -621c0 -481 -315 -866 -744 -866zM943 1785h116l224 -241h-129l-157 168
h-5l-228 -168h-148zM1360 1805h-109l-159 211h126z" />
    <glyph glyph-name="Odotbelow" unicode="&#x1ecc;" horiz-adv-x="1491" 
d="M918 1339c-350 0 -603 -326 -603 -734c0 -307 178 -501 450 -501c351 0 603 326 603 734c0 307 -177 501 -450 501zM764 -22c-354 0 -589 246 -589 621c0 481 315 866 745 866c353 0 588 -246 588 -621c0 -481 -315 -866 -744 -866zM695 -380c-57 0 -104 47 -104 104
s47 104 104 104s104 -47 104 -104s-47 -104 -104 -104z" />
    <glyph glyph-name="Odblgrave" unicode="&#x20c;" horiz-adv-x="1491" 
d="M918 1339c-350 0 -603 -326 -603 -734c0 -307 178 -501 450 -501c351 0 603 326 603 734c0 307 -177 501 -450 501zM764 -22c-354 0 -589 246 -589 621c0 481 315 866 745 866c353 0 588 -246 588 -621c0 -481 -315 -866 -744 -866zM761 1558l-192 288h140l165 -288h-113
zM1060 1558l-193 288h141l164 -288h-112z" />
    <glyph glyph-name="Otildeacute" unicode="&#x1e4c;" horiz-adv-x="1491" 
d="M918 1339c-350 0 -603 -326 -603 -734c0 -307 178 -501 450 -501c351 0 603 326 603 734c0 307 -177 501 -450 501zM764 -22c-354 0 -589 246 -589 621c0 481 315 866 745 866c353 0 588 -246 588 -621c0 -481 -315 -866 -744 -866zM959 1831l208 185h142l-226 -185h-124
zM1089 1545c-130 0 -146 150 -229 150c-49 0 -94 -52 -108 -131h-92c26 137 108 217 211 217c128 0 144 -150 228 -150c48 0 90 50 108 132h91c-26 -134 -110 -218 -209 -218z" />
    <glyph glyph-name="Omacronacute" unicode="&#x1e52;" horiz-adv-x="1491" 
d="M918 1339c-350 0 -603 -326 -603 -734c0 -307 178 -501 450 -501c351 0 603 326 603 734c0 307 -177 501 -450 501zM764 -22c-354 0 -589 246 -589 621c0 481 315 866 745 866c353 0 588 -246 588 -621c0 -481 -315 -866 -744 -866zM1274 1599h-616l20 92h616zM945 1805
l227 211h141l-243 -211h-125z" />
    <glyph glyph-name="Ocircumflextilde" unicode="&#x1ed6;" horiz-adv-x="1491" 
d="M918 1339c-350 0 -603 -326 -603 -734c0 -307 178 -501 450 -501c351 0 603 326 603 734c0 307 -177 501 -450 501zM764 -22c-354 0 -589 246 -589 621c0 481 315 866 745 866c353 0 588 -246 588 -621c0 -481 -315 -866 -744 -866zM1148 1830c-120 0 -156 123 -236 123
c-49 0 -89 -38 -99 -107h-92c20 126 99 194 201 194c119 0 155 -122 236 -122c48 0 84 37 98 108h92c-19 -124 -100 -196 -200 -196zM941 1778h116l226 -234h-129l-158 163h-5l-227 -163h-148z" />
    <glyph glyph-name="Odotaccentmacron" unicode="&#x230;" horiz-adv-x="1491" 
d="M918 1339c-350 0 -603 -326 -603 -734c0 -307 178 -501 450 -501c351 0 603 326 603 734c0 307 -177 501 -450 501zM764 -22c-354 0 -589 246 -589 621c0 481 315 866 745 866c353 0 588 -246 588 -621c0 -481 -315 -866 -744 -866zM981 1570c-56 0 -101 45 -101 100
c0 56 45 101 101 101c55 0 101 -45 101 -101c0 -55 -46 -100 -101 -100zM1356 1979l-21 -91h-616l20 91h617z" />
    <glyph glyph-name="Omacrongrave" unicode="&#x1e50;" horiz-adv-x="1491" 
d="M918 1339c-350 0 -603 -326 -603 -734c0 -307 178 -501 450 -501c351 0 603 326 603 734c0 307 -177 501 -450 501zM764 -22c-354 0 -589 246 -589 621c0 481 315 866 745 866c353 0 588 -246 588 -621c0 -481 -315 -866 -744 -866zM1274 1599h-616l20 92h616zM1066 1805
h-108l-160 211h127z" />
    <glyph glyph-name="Ocaron" unicode="&#x1d1;" horiz-adv-x="1491" 
d="M918 1339c-350 0 -603 -326 -603 -734c0 -307 178 -501 450 -501c351 0 603 326 603 734c0 307 -177 501 -450 501zM764 -22c-354 0 -589 246 -589 621c0 481 315 866 745 866c353 0 588 -246 588 -621c0 -481 -315 -866 -744 -866zM910 1558l-212 294h122l149 -209h4
l238 209h140l-337 -294h-104z" />
    <glyph glyph-name="Oslashacute" unicode="&#x1fe;" horiz-adv-x="1491" 
d="M1354 1846l-333 -288h-129l304 288h158zM1308 1113l-872 -872c79 -88 192 -137 329 -137c351 0 603 326 603 734c0 106 -21 199 -60 275zM375 330l872 872c-79 88 -192 137 -329 137c-350 0 -603 -326 -603 -734c0 -106 21 -199 60 -275zM1573 1378l-164 -164
c64 -99 99 -225 99 -370c0 -481 -315 -866 -744 -866c-175 0 -321 60 -424 167l-155 -155l-75 75l164 164c-64 99 -99 225 -99 370c0 481 315 866 745 866c175 0 321 -60 423 -167l155 155z" />
    <glyph glyph-name="Ohungarumlaut" unicode="&#x150;" horiz-adv-x="1491" 
d="M918 1339c-350 0 -603 -326 -603 -734c0 -307 178 -501 450 -501c351 0 603 326 603 734c0 307 -177 501 -450 501zM764 -22c-354 0 -589 246 -589 621c0 481 315 866 745 866c353 0 588 -246 588 -621c0 -481 -315 -866 -744 -866zM1170 1558h-124l305 288h153z
M872 1558h-124l305 288h152z" />
    <glyph glyph-name="Obreve" unicode="&#x14e;" horiz-adv-x="1491" 
d="M918 1339c-350 0 -603 -326 -603 -734c0 -307 178 -501 450 -501c351 0 603 326 603 734c0 307 -177 501 -450 501zM764 -22c-354 0 -589 246 -589 621c0 481 315 866 745 866c353 0 588 -246 588 -621c0 -481 -315 -866 -744 -866zM705 1822h100c-3 -9 -6 -25 -6 -38
c0 -96 68 -152 173 -152c115 0 210 71 232 190h100c-32 -173 -162 -276 -348 -276c-147 0 -258 87 -258 222c0 19 3 40 7 54z" />
    <glyph glyph-name="Oinvertedbreve" unicode="&#x20e;" horiz-adv-x="1491" 
d="M918 1339c-350 0 -603 -326 -603 -734c0 -307 178 -501 450 -501c351 0 603 326 603 734c0 307 -177 501 -450 501zM764 -22c-354 0 -589 246 -589 621c0 481 315 866 745 866c353 0 588 -246 588 -621c0 -481 -315 -866 -744 -866zM1258 1546h-99c3 7 6 23 6 39
c0 92 -68 151 -173 151c-116 0 -212 -74 -233 -190h-99c31 169 161 276 347 276c147 0 259 -89 259 -221c0 -23 -3 -43 -8 -55z" />
    <glyph glyph-name="Ohookabove" unicode="&#x1ece;" horiz-adv-x="1491" 
d="M918 1339c-350 0 -603 -326 -603 -734c0 -307 178 -501 450 -501c351 0 603 326 603 734c0 307 -177 501 -450 501zM764 -22c-354 0 -589 246 -589 621c0 481 315 866 745 866c353 0 588 -246 588 -621c0 -481 -315 -866 -744 -866zM820 1759l19 78c19 9 61 16 91 16
c109 0 179 -56 179 -141c0 -87 -66 -153 -178 -180l-36 67c67 15 110 52 110 102c0 44 -35 72 -95 72c-33 0 -64 -5 -90 -14z" />
    <glyph glyph-name="Odieresismacron" unicode="&#x22a;" horiz-adv-x="1491" 
d="M918 1339c-350 0 -603 -326 -603 -734c0 -307 178 -501 450 -501c351 0 603 326 603 734c0 307 -177 501 -450 501zM764 -22c-354 0 -589 246 -589 621c0 481 315 866 745 866c353 0 588 -246 588 -621c0 -481 -315 -866 -744 -866zM812 1730c47 0 87 -39 87 -88
s-40 -88 -87 -88c-49 0 -88 39 -88 88s39 88 88 88zM1356 1979l-20 -91h-617l20 91h617zM1140 1730c48 0 88 -39 88 -88s-40 -88 -88 -88s-88 39 -88 88s40 88 88 88z" />
    <glyph glyph-name="Otildemacron" unicode="&#x22c;" horiz-adv-x="1491" 
d="M918 1339c-350 0 -603 -326 -603 -734c0 -307 178 -501 450 -501c351 0 603 326 603 734c0 307 -177 501 -450 501zM764 -22c-354 0 -589 246 -589 621c0 481 315 866 745 866c353 0 588 -246 588 -621c0 -481 -315 -866 -744 -866zM1356 1979l-21 -91h-616l20 91h617z
M1089 1545c-130 0 -146 150 -229 150c-49 0 -94 -52 -108 -131h-92c26 137 108 217 211 217c128 0 144 -150 228 -150c48 0 90 50 108 132h91c-26 -134 -110 -218 -209 -218z" />
    <glyph glyph-name="Odotaccent" unicode="&#x22e;" horiz-adv-x="1491" 
d="M918 1339c-350 0 -603 -326 -603 -734c0 -307 178 -501 450 -501c351 0 603 326 603 734c0 307 -177 501 -450 501zM764 -22c-354 0 -589 246 -589 621c0 481 315 866 745 866c353 0 588 -246 588 -621c0 -481 -315 -866 -744 -866zM990 1625c-57 0 -104 47 -104 104
s47 104 104 104s104 -47 104 -104s-47 -104 -104 -104z" />
    <glyph glyph-name="Ocircumflexdotbelow" unicode="&#x1ed8;" horiz-adv-x="1491" 
d="M918 1339c-350 0 -603 -326 -603 -734c0 -307 178 -501 450 -501c351 0 603 326 603 734c0 307 -177 501 -450 501zM764 -22c-354 0 -589 246 -589 621c0 481 315 866 745 866c353 0 588 -246 588 -621c0 -481 -315 -866 -744 -866zM1062 1852l212 -294h-121l-148 210h-5
l-238 -210h-140l337 294h103zM695 -380c-57 0 -104 47 -104 104s47 104 104 104s104 -47 104 -104s-47 -104 -104 -104z" />
    <glyph glyph-name="Ocircumflexacute" unicode="&#x1ed0;" horiz-adv-x="1491" 
d="M918 1339c-350 0 -603 -326 -603 -734c0 -307 178 -501 450 -501c351 0 603 326 603 734c0 307 -177 501 -450 501zM764 -22c-354 0 -589 246 -589 621c0 481 315 866 745 866c353 0 588 -246 588 -621c0 -481 -315 -866 -744 -866zM943 1785h116l224 -241h-129l-157 168
h-5l-228 -168h-148zM1168 1805l227 211h141l-243 -211h-125z" />
    <glyph glyph-name="Otildedieresis" unicode="&#x1e4e;" horiz-adv-x="1491" 
d="M918 1339c-350 0 -603 -326 -603 -734c0 -307 178 -501 450 -501c351 0 603 326 603 734c0 307 -177 501 -450 501zM764 -22c-354 0 -589 246 -589 621c0 481 315 866 745 866c353 0 588 -246 588 -621c0 -481 -315 -866 -744 -866zM1089 1545c-130 0 -146 150 -229 150
c-49 0 -94 -52 -108 -131h-92c26 137 108 217 211 217c128 0 144 -150 228 -150c48 0 90 50 108 132h91c-26 -134 -110 -218 -209 -218zM878 2033c47 0 87 -39 87 -88s-40 -88 -87 -88c-49 0 -88 39 -88 88s39 88 88 88zM1206 2033c48 0 88 -39 88 -88s-40 -88 -88 -88
s-88 39 -88 88s40 88 88 88z" />
    <glyph glyph-name="Omacron" unicode="&#x14c;" horiz-adv-x="1491" 
d="M918 1339c-350 0 -603 -326 -603 -734c0 -307 178 -501 450 -501c351 0 603 326 603 734c0 307 -177 501 -450 501zM764 -22c-354 0 -589 246 -589 621c0 481 315 866 745 866c353 0 588 -246 588 -621c0 -481 -315 -866 -744 -866zM1301 1720l-20 -92h-617l20 92h617z
" />
    <glyph glyph-name="Oogonek" unicode="&#x1ea;" horiz-adv-x="1491" 
d="M907 -394c-16 -11 -58 -18 -98 -18c-106 0 -177 59 -177 146c0 90 56 164 197 246v4c-23 -4 -47 -6 -69 -6c-353 0 -584 247 -584 626c0 476 317 861 745 861c354 0 585 -247 585 -626c0 -357 -191 -651 -460 -798c-160 -85 -294 -182 -294 -270c0 -52 40 -85 103 -85
c30 0 54 4 72 13zM1366 836c0 307 -174 503 -445 503c-352 0 -605 -326 -605 -731c0 -308 173 -504 445 -504c351 0 605 326 605 732z" />
    <glyph glyph-name="Oogonekmacron" unicode="&#x1ec;" horiz-adv-x="1491" 
d="M907 -394c-16 -11 -58 -18 -98 -18c-106 0 -177 59 -177 146c0 90 56 164 197 246v4c-23 -4 -47 -6 -69 -6c-353 0 -584 247 -584 626c0 476 317 861 745 861c354 0 585 -247 585 -626c0 -357 -191 -651 -460 -798c-160 -85 -294 -182 -294 -270c0 -52 40 -85 103 -85
c30 0 54 4 72 13zM1366 836c0 307 -174 503 -445 503c-352 0 -605 -326 -605 -731c0 -308 173 -504 445 -504c351 0 605 326 605 732zM1301 1720l-20 -92h-617l20 92h617z" />
    <glyph glyph-name="Ohorn" unicode="&#x1a0;" horiz-adv-x="1491" 
d="M1366 835c0 308 -174 505 -445 505c-352 0 -605 -327 -605 -732c0 -309 174 -504 445 -504c351 0 605 325 605 731zM1506 839c0 -476 -318 -861 -746 -861c-353 0 -584 246 -584 626c0 476 317 862 745 862c253 0 312 -106 457 -106c75 0 113 35 128 106l35 170h124
l-45 -217c-21 -104 -98 -166 -199 -166c-12 0 -37 4 -46 9v-4c84 -106 131 -254 131 -419z" />
    <glyph glyph-name="Ohorndotbelow" unicode="&#x1ee2;" horiz-adv-x="1491" 
d="M1366 835c0 308 -174 505 -445 505c-352 0 -605 -327 -605 -732c0 -309 174 -504 445 -504c351 0 605 325 605 731zM1506 839c0 -476 -318 -861 -746 -861c-353 0 -584 246 -584 626c0 476 317 862 745 862c253 0 312 -106 457 -106c75 0 113 35 128 106l35 170h124
l-45 -217c-21 -104 -98 -166 -199 -166c-12 0 -37 4 -46 9v-4c84 -106 131 -254 131 -419zM699 -380c-57 0 -104 47 -104 104s47 104 104 104s104 -47 104 -104s-47 -104 -104 -104z" />
    <glyph glyph-name="Ohornhookabove" unicode="&#x1ede;" horiz-adv-x="1491" 
d="M1366 835c0 308 -174 505 -445 505c-352 0 -605 -327 -605 -732c0 -309 174 -504 445 -504c351 0 605 325 605 731zM1506 839c0 -476 -318 -861 -746 -861c-353 0 -584 246 -584 626c0 476 317 862 745 862c253 0 312 -106 457 -106c75 0 113 35 128 106l35 170h124
l-45 -217c-21 -104 -98 -166 -199 -166c-12 0 -37 4 -46 9v-4c84 -106 131 -254 131 -419zM823 1759l19 78c19 9 61 16 91 16c109 0 179 -56 179 -141c0 -87 -66 -153 -178 -180l-36 67c67 15 110 52 110 102c0 44 -35 72 -95 72c-33 0 -64 -5 -90 -14z" />
    <glyph glyph-name="Ohorntilde" unicode="&#x1ee0;" horiz-adv-x="1491" 
d="M1366 835c0 308 -174 505 -445 505c-352 0 -605 -327 -605 -732c0 -309 174 -504 445 -504c351 0 605 325 605 731zM1506 839c0 -476 -318 -861 -746 -861c-353 0 -584 246 -584 626c0 476 317 862 745 862c253 0 312 -106 457 -106c75 0 113 35 128 106l35 170h124
l-45 -217c-21 -104 -98 -166 -199 -166c-12 0 -37 4 -46 9v-4c84 -106 131 -254 131 -419zM1106 1549c-132 0 -156 157 -246 157c-51 0 -97 -52 -114 -147h-93c26 149 109 237 214 237c138 0 160 -157 246 -157c47 0 92 49 112 147h93c-30 -148 -111 -237 -212 -237z" />
    <glyph glyph-name="Ohorngrave" unicode="&#x1edc;" horiz-adv-x="1491" 
d="M1366 835c0 308 -174 505 -445 505c-352 0 -605 -327 -605 -732c0 -309 174 -504 445 -504c351 0 605 325 605 731zM1506 839c0 -476 -318 -861 -746 -861c-353 0 -584 246 -584 626c0 476 317 862 745 862c253 0 312 -106 457 -106c75 0 113 35 128 106l35 170h124
l-45 -217c-21 -104 -98 -166 -199 -166c-12 0 -37 4 -46 9v-4c84 -106 131 -254 131 -419zM892 1558l-192 288h140l164 -288h-112z" />
    <glyph glyph-name="Ohornacute" unicode="&#x1eda;" horiz-adv-x="1491" 
d="M1366 835c0 308 -174 505 -445 505c-352 0 -605 -327 -605 -732c0 -309 174 -504 445 -504c351 0 605 325 605 731zM1506 839c0 -476 -318 -861 -746 -861c-353 0 -584 246 -584 626c0 476 317 862 745 862c253 0 312 -106 457 -106c75 0 113 35 128 106l35 170h124
l-45 -217c-21 -104 -98 -166 -199 -166c-12 0 -37 4 -46 9v-4c84 -106 131 -254 131 -419zM1025 1558h-129l304 288h158z" />
    <glyph glyph-name="P" unicode="P" horiz-adv-x="1195" 
d="M389 1443h475c241 0 416 -153 416 -385c0 -320 -248 -514 -583 -514h-361l-116 -544h-140zM502 1321l-140 -655h330c264 0 446 139 446 380c0 168 -119 275 -317 275h-319z" />
    <glyph glyph-name="Pdotaccent" unicode="&#x1e56;" horiz-adv-x="1195" 
d="M389 1443h475c241 0 416 -153 416 -385c0 -320 -248 -514 -583 -514h-361l-116 -544h-140zM502 1321l-140 -655h330c264 0 446 139 446 380c0 168 -119 275 -317 275h-319zM822 1625c-57 0 -104 47 -104 104s47 104 104 104s104 -47 104 -104s-47 -104 -104 -104z" />
    <glyph glyph-name="Pacute" unicode="&#x1e54;" horiz-adv-x="1195" 
d="M389 1443h475c241 0 416 -153 416 -385c0 -320 -248 -514 -583 -514h-361l-116 -544h-140zM502 1321l-140 -655h330c264 0 446 139 446 380c0 168 -119 275 -317 275h-319zM853 1558h-129l304 288h158z" />
    <glyph glyph-name="Q" unicode="Q" horiz-adv-x="1491" 
d="M1238 -169h-136l-99 191c-74 -28 -155 -44 -239 -44c-354 0 -589 246 -589 621c0 481 315 866 745 866c353 0 588 -246 588 -621c0 -337 -155 -627 -395 -771zM765 104c64 0 123 11 180 31l-135 260h136l108 -207c192 122 314 366 314 650c0 307 -177 501 -450 501
c-350 0 -603 -326 -603 -734c0 -307 178 -501 450 -501z" />
    <glyph glyph-name="R" unicode="R" horiz-adv-x="1227" 
d="M80 0l309 1443h468c275 0 427 -149 427 -375c0 -230 -152 -413 -405 -458l216 -610h-144l-207 591h-12h-386l-126 -591h-140zM502 1321l-130 -607h372c234 0 397 139 397 341c0 162 -107 266 -292 266h-347z" />
    <glyph glyph-name="Rcaron" unicode="&#x158;" horiz-adv-x="1227" 
d="M80 0l309 1443h468c275 0 427 -149 427 -375c0 -230 -152 -413 -405 -458l216 -610h-144l-207 591h-12h-386l-126 -591h-140zM502 1321l-130 -607h372c234 0 397 139 397 341c0 162 -107 266 -292 266h-347zM748 1558l-212 294h122l149 -209h4l238 209h140l-337 -294
h-104z" />
    <glyph glyph-name="Rlinebelow" unicode="&#x1e5e;" horiz-adv-x="1227" 
d="M80 0l309 1443h468c275 0 427 -149 427 -375c0 -230 -152 -413 -405 -458l216 -610h-144l-207 591h-12h-386l-126 -591h-140zM502 1321l-130 -607h372c234 0 397 139 397 341c0 162 -107 266 -292 266h-347zM835 -242l-20 -92h-617l20 92h617z" />
    <glyph glyph-name="Rdotbelowmacron" unicode="&#x1e5c;" horiz-adv-x="1227" 
d="M80 0l309 1443h468c275 0 427 -149 427 -375c0 -230 -152 -413 -405 -458l216 -610h-144l-207 591h-12h-386l-126 -591h-140zM502 1321l-130 -607h372c234 0 397 139 397 341c0 162 -107 266 -292 266h-347zM515 -380c-57 0 -104 47 -104 104s47 104 104 104
s104 -47 104 -104s-47 -104 -104 -104zM1139 1720l-20 -92h-617l20 92h617z" />
    <glyph glyph-name="Rdblgrave" unicode="&#x210;" horiz-adv-x="1227" 
d="M80 0l309 1443h468c275 0 427 -149 427 -375c0 -230 -152 -413 -405 -458l216 -610h-144l-207 591h-12h-386l-126 -591h-140zM502 1321l-130 -607h372c234 0 397 139 397 341c0 162 -107 266 -292 266h-347zM600 1558l-192 288h140l165 -288h-113zM899 1558l-193 288h141
l164 -288h-112z" />
    <glyph glyph-name="Rinvertedbreve" unicode="&#x212;" horiz-adv-x="1227" 
d="M80 0l309 1443h468c275 0 427 -149 427 -375c0 -230 -152 -413 -405 -458l216 -610h-144l-207 591h-12h-386l-126 -591h-140zM502 1321l-130 -607h372c234 0 397 139 397 341c0 162 -107 266 -292 266h-347zM1096 1546h-99c3 7 6 23 6 39c0 92 -68 151 -173 151
c-116 0 -212 -74 -233 -190h-99c31 169 161 276 347 276c147 0 259 -89 259 -221c0 -23 -3 -43 -8 -55z" />
    <glyph glyph-name="Racute" unicode="&#x154;" horiz-adv-x="1227" 
d="M80 0l309 1443h468c275 0 427 -149 427 -375c0 -230 -152 -413 -405 -458l216 -610h-144l-207 591h-12h-386l-126 -591h-140zM502 1321l-130 -607h372c234 0 397 139 397 341c0 162 -107 266 -292 266h-347zM860 1558h-129l304 288h158z" />
    <glyph glyph-name="Rdotbelow" unicode="&#x1e5a;" horiz-adv-x="1227" 
d="M80 0l309 1443h468c275 0 427 -149 427 -375c0 -230 -152 -413 -405 -458l216 -610h-144l-207 591h-12h-386l-126 -591h-140zM502 1321l-130 -607h372c234 0 397 139 397 341c0 162 -107 266 -292 266h-347zM515 -380c-57 0 -104 47 -104 104s47 104 104 104
s104 -47 104 -104s-47 -104 -104 -104z" />
    <glyph glyph-name="Rdotaccent" unicode="&#x1e58;" horiz-adv-x="1227" 
d="M80 0l309 1443h468c275 0 427 -149 427 -375c0 -230 -152 -413 -405 -458l216 -610h-144l-207 591h-12h-386l-126 -591h-140zM502 1321l-130 -607h372c234 0 397 139 397 341c0 162 -107 266 -292 266h-347zM828 1625c-57 0 -104 47 -104 104s47 104 104 104
s104 -47 104 -104s-47 -104 -104 -104z" />
    <glyph glyph-name="Rcommaaccent" unicode="&#x156;" horiz-adv-x="1227" 
d="M80 0l309 1443h468c275 0 427 -149 427 -375c0 -230 -152 -413 -405 -458l216 -610h-144l-207 591h-12h-386l-126 -591h-140zM502 1321l-130 -607h372c234 0 397 139 397 341c0 162 -107 266 -292 266h-347zM417 -475h-104l179 351h128z" />
    <glyph glyph-name="S" unicode="S" horiz-adv-x="1213" 
d="M105 416h137c17 -186 176 -314 413 -314c210 0 364 105 364 281c0 134 -80 207 -266 271l-107 37c-241 83 -352 193 -352 378c0 235 200 396 486 396c284 0 493 -160 498 -410h-137c-10 168 -149 286 -363 286c-218 0 -343 -121 -343 -262c0 -122 81 -197 273 -263
l108 -38c233 -78 346 -193 346 -370c0 -229 -183 -430 -509 -430c-301 0 -539 168 -548 438z" />
    <glyph glyph-name="Scaron" unicode="&#x160;" horiz-adv-x="1214" 
d="M105 416h137c17 -186 176 -314 413 -314c210 0 364 105 364 281c0 134 -80 207 -266 271l-107 37c-241 83 -352 193 -352 378c0 235 200 396 486 396c284 0 493 -160 498 -410h-137c-10 168 -149 286 -363 286c-218 0 -343 -121 -343 -262c0 -122 81 -197 273 -263
l108 -38c233 -78 346 -193 346 -370c0 -229 -183 -430 -509 -430c-301 0 -539 168 -548 438zM792 1558l-212 294h122l149 -209h4l238 209h140l-337 -294h-104z" />
    <glyph glyph-name="Scedilla" unicode="&#x15e;" horiz-adv-x="1214" 
d="M708 816l108 -38c233 -78 346 -193 346 -370c0 -223 -174 -420 -485 -430l-71 -118c118 -1 187 -54 187 -148c0 -114 -94 -188 -232 -188c-62 0 -129 13 -173 33l19 90c43 -19 91 -30 145 -30c83 0 135 31 135 87c0 53 -49 79 -151 82l-56 1l14 59l79 136
c-262 27 -460 188 -468 434h137c17 -186 176 -314 413 -314c210 0 364 105 364 281c0 134 -80 207 -266 271l-107 37c-241 83 -352 193 -352 378c0 235 200 396 486 396c284 0 493 -160 498 -410h-137c-10 168 -149 286 -363 286c-218 0 -343 -121 -343 -262
c0 -122 81 -197 273 -263z" />
    <glyph glyph-name="Sdotaccent" unicode="&#x1e60;" horiz-adv-x="1214" 
d="M105 416h137c17 -186 176 -314 413 -314c210 0 364 105 364 281c0 134 -80 207 -266 271l-107 37c-241 83 -352 193 -352 378c0 235 200 396 486 396c284 0 493 -160 498 -410h-137c-10 168 -149 286 -363 286c-218 0 -343 -121 -343 -262c0 -122 81 -197 273 -263
l108 -38c233 -78 346 -193 346 -370c0 -229 -183 -430 -509 -430c-301 0 -539 168 -548 438zM872 1625c-57 0 -104 47 -104 104s47 104 104 104s104 -47 104 -104s-47 -104 -104 -104z" />
    <glyph glyph-name="Sdotbelow" unicode="&#x1e62;" horiz-adv-x="1214" 
d="M105 416h137c17 -186 176 -314 413 -314c210 0 364 105 364 281c0 134 -80 207 -266 271l-107 37c-241 83 -352 193 -352 378c0 235 200 396 486 396c284 0 493 -160 498 -410h-137c-10 168 -149 286 -363 286c-218 0 -343 -121 -343 -262c0 -122 81 -197 273 -263
l108 -38c233 -78 346 -193 346 -370c0 -229 -183 -430 -509 -430c-301 0 -539 168 -548 438zM572 -380c-57 0 -104 47 -104 104s47 104 104 104s104 -47 104 -104s-47 -104 -104 -104z" />
    <glyph glyph-name="Scommaaccent" unicode="&#x218;" horiz-adv-x="1214" 
d="M105 416h137c17 -186 176 -314 413 -314c210 0 364 105 364 281c0 134 -80 207 -266 271l-107 37c-241 83 -352 193 -352 378c0 235 200 396 486 396c284 0 493 -160 498 -410h-137c-10 168 -149 286 -363 286c-218 0 -343 -121 -343 -262c0 -122 81 -197 273 -263
l108 -38c233 -78 346 -193 346 -370c0 -229 -183 -430 -509 -430c-301 0 -539 168 -548 438zM474 -475h-104l179 351h128z" />
    <glyph glyph-name="Sdotbelowdotaccent" unicode="&#x1e68;" horiz-adv-x="1214" 
d="M105 416h137c17 -186 176 -314 413 -314c210 0 364 105 364 281c0 134 -80 207 -266 271l-107 37c-241 83 -352 193 -352 378c0 235 200 396 486 396c284 0 493 -160 498 -410h-137c-10 168 -149 286 -363 286c-218 0 -343 -121 -343 -262c0 -122 81 -197 273 -263
l108 -38c233 -78 346 -193 346 -370c0 -229 -183 -430 -509 -430c-301 0 -539 168 -548 438zM572 -380c-57 0 -104 47 -104 104s47 104 104 104s104 -47 104 -104s-47 -104 -104 -104zM872 1625c-57 0 -104 47 -104 104s47 104 104 104s104 -47 104 -104s-47 -104 -104 -104
z" />
    <glyph glyph-name="Scarondotaccent" unicode="&#x1e66;" horiz-adv-x="1214" 
d="M105 416h137c17 -186 176 -314 413 -314c210 0 364 105 364 281c0 134 -80 207 -266 271l-107 37c-241 83 -352 193 -352 378c0 235 200 396 486 396c284 0 493 -160 498 -410h-137c-10 168 -149 286 -363 286c-218 0 -343 -121 -343 -262c0 -122 81 -197 273 -263
l108 -38c233 -78 346 -193 346 -370c0 -229 -183 -430 -509 -430c-301 0 -539 168 -548 438zM776 1544l-225 241h128l158 -168h4l229 168h149l-327 -241h-116zM897 1834c-53 0 -96 43 -96 97s43 96 96 96c54 0 97 -42 97 -96s-43 -97 -97 -97z" />
    <glyph glyph-name="Scircumflex" unicode="&#x15c;" horiz-adv-x="1214" 
d="M105 416h137c17 -186 176 -314 413 -314c210 0 364 105 364 281c0 134 -80 207 -266 271l-107 37c-241 83 -352 193 -352 378c0 235 200 396 486 396c284 0 493 -160 498 -410h-137c-10 168 -149 286 -363 286c-218 0 -343 -121 -343 -262c0 -122 81 -197 273 -263
l108 -38c233 -78 346 -193 346 -370c0 -229 -183 -430 -509 -430c-301 0 -539 168 -548 438zM944 1852l212 -294h-121l-148 210h-5l-238 -210h-140l337 294h103z" />
    <glyph glyph-name="Sacutedotaccent" unicode="&#x1e64;" horiz-adv-x="1214" 
d="M105 416h137c17 -186 176 -314 413 -314c210 0 364 105 364 281c0 134 -80 207 -266 271l-107 37c-241 83 -352 193 -352 378c0 235 200 396 486 396c284 0 493 -160 498 -410h-137c-10 168 -149 286 -363 286c-218 0 -343 -121 -343 -262c0 -122 81 -197 273 -263
l108 -38c233 -78 346 -193 346 -370c0 -229 -183 -430 -509 -430c-301 0 -539 168 -548 438zM998 1558h-129l304 288h158zM716 1602c-57 0 -104 47 -104 104s47 104 104 104s104 -47 104 -104s-47 -104 -104 -104z" />
    <glyph glyph-name="Sacute" unicode="&#x15a;" horiz-adv-x="1214" 
d="M105 416h137c17 -186 176 -314 413 -314c210 0 364 105 364 281c0 134 -80 207 -266 271l-107 37c-241 83 -352 193 -352 378c0 235 200 396 486 396c284 0 493 -160 498 -410h-137c-10 168 -149 286 -363 286c-218 0 -343 -121 -343 -262c0 -122 81 -197 273 -263
l108 -38c233 -78 346 -193 346 -370c0 -229 -183 -430 -509 -430c-301 0 -539 168 -548 438zM904 1558h-129l304 288h158z" />
    <glyph glyph-name="germandbls.uc" unicode="&#x1e9e;" horiz-adv-x="2427" 
d="M105 416h137c17 -186 176 -314 413 -314c210 0 364 105 364 281c0 134 -80 207 -266 271l-107 37c-241 83 -352 193 -352 378c0 235 200 396 486 396c284 0 493 -160 498 -410h-137c-10 168 -149 286 -363 286c-218 0 -343 -121 -343 -262c0 -122 81 -197 273 -263
l108 -38c233 -78 346 -193 346 -370c0 -229 -183 -430 -509 -430c-301 0 -539 168 -548 438zM1319 416h137c17 -186 176 -314 413 -314c210 0 364 105 364 281c0 134 -80 207 -266 271l-107 37c-241 83 -352 193 -352 378c0 235 200 396 486 396c284 0 493 -160 498 -410
h-137c-10 168 -149 286 -363 286c-218 0 -343 -121 -343 -262c0 -122 81 -197 273 -263l108 -38c233 -78 346 -193 346 -370c0 -229 -183 -430 -509 -430c-301 0 -539 168 -548 438z" />
    <glyph glyph-name="T" unicode="T" horiz-adv-x="1188" 
d="M607 0h-139l280 1319h-482l26 124h1104l-26 -124h-482z" />
    <glyph glyph-name="Tcircumflexbelow" unicode="&#x1e70;" horiz-adv-x="1188" 
d="M607 0h-139l280 1319h-482l26 124h1104l-26 -124h-482zM547 -165l213 -294h-121l-149 209h-5l-238 -209h-140l337 294h103z" />
    <glyph glyph-name="Tdotbelow" unicode="&#x1e6c;" horiz-adv-x="1188" 
d="M607 0h-139l280 1319h-482l26 124h1104l-26 -124h-482zM478 -380c-57 0 -104 47 -104 104s47 104 104 104s104 -47 104 -104s-47 -104 -104 -104z" />
    <glyph glyph-name="Tcommaaccent" unicode="&#x21a;" horiz-adv-x="1188" 
d="M607 0h-139l280 1319h-482l26 124h1104l-26 -124h-482zM380 -475h-104l179 351h128z" />
    <glyph glyph-name="Tdotaccent" unicode="&#x1e6a;" horiz-adv-x="1188" 
d="M607 0h-139l280 1319h-482l26 124h1104l-26 -124h-482zM904 1625c-57 0 -104 47 -104 104s47 104 104 104s104 -47 104 -104s-47 -104 -104 -104z" />
    <glyph glyph-name="Tcedilla" unicode="&#x162;" horiz-adv-x="1188" 
d="M292 1443h1104l-26 -124h-482l-279 -1310l-1 -9l-84 -140c118 -1 187 -54 187 -148c0 -114 -94 -188 -232 -188c-62 0 -129 13 -173 33l19 90c43 -19 91 -30 145 -30c83 0 135 31 135 87c0 53 -49 79 -151 82l-56 1l14 59l89 154h-33l280 1319h-482z" />
    <glyph glyph-name="Tlinebelow" unicode="&#x1e6e;" horiz-adv-x="1188" 
d="M607 0h-139l280 1319h-482l26 124h1104l-26 -124h-482zM798 -242l-20 -92h-617l20 92h617z" />
    <glyph glyph-name="Tcaron" unicode="&#x164;" horiz-adv-x="1188" 
d="M607 0h-139l280 1319h-482l26 124h1104l-26 -124h-482zM824 1558l-212 294h122l149 -209h4l238 209h140l-337 -294h-104z" />
    <glyph glyph-name="Tbar" unicode="&#x166;" horiz-adv-x="1188" 
d="M1370 1319h-482l-114 -534h384l-26 -124h-384l-141 -661h-139l140 661h-359l26 124h360l113 534h-482l26 124h1104z" />
    <glyph glyph-name="U" unicode="U" horiz-adv-x="1399" 
d="M682 -22c-314 0 -494 189 -496 439c-1 45 4 90 13 135l189 891h139l-187 -884c-9 -43 -14 -92 -13 -134c5 -194 137 -321 377 -321c235 0 413 144 465 384l204 955h139l-209 -980c-65 -306 -278 -485 -621 -485z" />
    <glyph glyph-name="Ugrave" unicode="&#xd9;" horiz-adv-x="1399" 
d="M682 -22c-314 0 -494 189 -496 439c-1 45 4 90 13 135l189 891h139l-187 -884c-9 -43 -14 -92 -13 -134c5 -194 137 -321 377 -321c235 0 413 144 465 384l204 955h139l-209 -980c-65 -306 -278 -485 -621 -485zM895 1558l-192 288h140l164 -288h-112z" />
    <glyph glyph-name="Udblgrave" unicode="&#x214;" horiz-adv-x="1399" 
d="M682 -22c-314 0 -494 189 -496 439c-1 45 4 90 13 135l189 891h139l-187 -884c-9 -43 -14 -92 -13 -134c5 -194 137 -321 377 -321c235 0 413 144 465 384l204 955h139l-209 -980c-65 -306 -278 -485 -621 -485zM768 1558l-192 288h140l165 -288h-113zM1067 1558
l-193 288h141l164 -288h-112z" />
    <glyph glyph-name="Uacute" unicode="&#xda;" horiz-adv-x="1399" 
d="M682 -22c-314 0 -494 189 -496 439c-1 45 4 90 13 135l189 891h139l-187 -884c-9 -43 -14 -92 -13 -134c5 -194 137 -321 377 -321c235 0 413 144 465 384l204 955h139l-209 -980c-65 -306 -278 -485 -621 -485zM1028 1558h-129l304 288h158z" />
    <glyph glyph-name="Uhungarumlaut" unicode="&#x170;" horiz-adv-x="1399" 
d="M682 -22c-314 0 -494 189 -496 439c-1 45 4 90 13 135l189 891h139l-187 -884c-9 -43 -14 -92 -13 -134c5 -194 137 -321 377 -321c235 0 413 144 465 384l204 955h139l-209 -980c-65 -306 -278 -485 -621 -485zM1177 1558h-124l305 288h153zM879 1558h-124l305 288h152z
" />
    <glyph glyph-name="Ucircumflex" unicode="&#xdb;" horiz-adv-x="1399" 
d="M682 -22c-314 0 -494 189 -496 439c-1 45 4 90 13 135l189 891h139l-187 -884c-9 -43 -14 -92 -13 -134c5 -194 137 -321 377 -321c235 0 413 144 465 384l204 955h139l-209 -980c-65 -306 -278 -485 -621 -485zM1068 1852l212 -294h-121l-148 210h-5l-238 -210h-140
l337 294h103z" />
    <glyph glyph-name="Ucaron" unicode="&#x1d3;" horiz-adv-x="1399" 
d="M682 -22c-314 0 -494 189 -496 439c-1 45 4 90 13 135l189 891h139l-187 -884c-9 -43 -14 -92 -13 -134c5 -194 137 -321 377 -321c235 0 413 144 465 384l204 955h139l-209 -980c-65 -306 -278 -485 -621 -485zM916 1558l-212 294h122l149 -209h4l238 209h140l-337 -294
h-104z" />
    <glyph glyph-name="Ucircumflexbelow" unicode="&#x1e76;" horiz-adv-x="1399" 
d="M682 -22c-314 0 -494 189 -496 439c-1 45 4 90 13 135l189 891h139l-187 -884c-9 -43 -14 -92 -13 -134c5 -194 137 -321 377 -321c235 0 413 144 465 384l204 955h139l-209 -980c-65 -306 -278 -485 -621 -485zM662 -165l213 -294h-121l-149 209h-5l-238 -209h-140
l337 294h103z" />
    <glyph glyph-name="Udieresis" unicode="&#xdc;" horiz-adv-x="1399" 
d="M682 -22c-314 0 -494 189 -496 439c-1 45 4 90 13 135l189 891h139l-187 -884c-9 -43 -14 -92 -13 -134c5 -194 137 -321 377 -321c235 0 413 144 465 384l204 955h139l-209 -980c-65 -306 -278 -485 -621 -485zM821 1612c-49 0 -91 41 -91 91c0 51 42 91 91 91
c50 0 92 -40 92 -91c0 -50 -42 -91 -92 -91zM1162 1612c-50 0 -92 41 -92 91c0 51 42 91 92 91s91 -40 91 -91c0 -50 -41 -91 -91 -91z" />
    <glyph glyph-name="Udieresisgrave" unicode="&#x1db;" horiz-adv-x="1399" 
d="M682 -22c-314 0 -494 189 -496 439c-1 45 4 90 13 135l189 891h139l-187 -884c-9 -43 -14 -92 -13 -134c5 -194 137 -321 377 -321c235 0 413 144 465 384l204 955h139l-209 -980c-65 -306 -278 -485 -621 -485zM1081 1805h-108l-160 211h127zM818 1554
c-48 0 -88 39 -88 88s40 88 88 88s87 -39 87 -88s-39 -88 -87 -88zM1146 1554c-48 0 -87 39 -87 88s39 88 87 88s88 -39 88 -88s-40 -88 -88 -88z" />
    <glyph glyph-name="Udieresisacute" unicode="&#x1d7;" horiz-adv-x="1399" 
d="M682 -22c-314 0 -494 189 -496 439c-1 45 4 90 13 135l189 891h139l-187 -884c-9 -43 -14 -92 -13 -134c5 -194 137 -321 377 -321c235 0 413 144 465 384l204 955h139l-209 -980c-65 -306 -278 -485 -621 -485zM934 1805l226 211h141l-243 -211h-124zM818 1554
c-49 0 -88 39 -88 88s39 88 88 88c47 0 87 -39 87 -88s-40 -88 -87 -88zM1146 1554c-48 0 -88 39 -88 88s40 88 88 88s88 -39 88 -88s-40 -88 -88 -88z" />
    <glyph glyph-name="Udieresismacron" unicode="&#x1d5;" horiz-adv-x="1399" 
d="M682 -22c-314 0 -494 189 -496 439c-1 45 4 90 13 135l189 891h139l-187 -884c-9 -43 -14 -92 -13 -134c5 -194 137 -321 377 -321c235 0 413 144 465 384l204 955h139l-209 -980c-65 -306 -278 -485 -621 -485zM818 1730c47 0 87 -39 87 -88s-40 -88 -87 -88
c-49 0 -88 39 -88 88s39 88 88 88zM1362 1979l-20 -91h-617l20 91h617zM1146 1730c48 0 88 -39 88 -88s-40 -88 -88 -88s-88 39 -88 88s40 88 88 88z" />
    <glyph glyph-name="Udieresiscaron" unicode="&#x1d9;" horiz-adv-x="1399" 
d="M682 -22c-314 0 -494 189 -496 439c-1 45 4 90 13 135l189 891h139l-187 -884c-9 -43 -14 -92 -13 -134c5 -194 137 -321 377 -321c235 0 413 144 465 384l204 955h139l-209 -980c-65 -306 -278 -485 -621 -485zM956 1795l-217 223h129l149 -152h5l212 152h148l-310 -223
h-116zM818 1730c47 0 87 -39 87 -88s-40 -88 -87 -88c-49 0 -88 39 -88 88s39 88 88 88zM1146 1730c48 0 88 -39 88 -88s-40 -88 -88 -88s-88 39 -88 88s40 88 88 88z" />
    <glyph glyph-name="Udieresisbelow" unicode="&#x1e72;" horiz-adv-x="1399" 
d="M682 -22c-314 0 -494 189 -496 439c-1 45 4 90 13 135l189 891h139l-187 -884c-9 -43 -14 -92 -13 -134c5 -194 137 -321 377 -321c235 0 413 144 465 384l204 955h139l-209 -980c-65 -306 -278 -485 -621 -485zM422 -385c-49 0 -91 41 -91 91c0 51 42 91 91 91
c50 0 92 -40 92 -91c0 -50 -42 -91 -92 -91zM763 -385c-50 0 -92 41 -92 91c0 51 42 91 92 91c49 0 91 -40 91 -91c0 -50 -42 -91 -91 -91z" />
    <glyph glyph-name="Utildebelow" unicode="&#x1e74;" horiz-adv-x="1399" 
d="M682 -22c-314 0 -494 189 -496 439c-1 45 4 90 13 135l189 891h139l-187 -884c-9 -43 -14 -92 -13 -134c5 -194 137 -321 377 -321c235 0 413 144 465 384l204 955h139l-209 -980c-65 -306 -278 -485 -621 -485zM714 -417c-132 0 -156 157 -246 157
c-51 0 -97 -52 -114 -147h-93c26 149 109 237 214 237c138 0 160 -157 246 -157c47 0 92 49 112 147h93c-30 -148 -111 -237 -212 -237z" />
    <glyph glyph-name="Uhookabove" unicode="&#x1ee6;" horiz-adv-x="1399" 
d="M682 -22c-314 0 -494 189 -496 439c-1 45 4 90 13 135l189 891h139l-187 -884c-9 -43 -14 -92 -13 -134c5 -194 137 -321 377 -321c235 0 413 144 465 384l204 955h139l-209 -980c-65 -306 -278 -485 -621 -485zM826 1759l19 78c19 9 61 16 91 16c109 0 179 -56 179 -141
c0 -87 -66 -153 -178 -180l-36 67c67 15 110 52 110 102c0 44 -35 72 -95 72c-33 0 -64 -5 -90 -14z" />
    <glyph glyph-name="Ubreve" unicode="&#x16c;" horiz-adv-x="1399" 
d="M682 -22c-314 0 -494 189 -496 439c-1 45 4 90 13 135l189 891h139l-187 -884c-9 -43 -14 -92 -13 -134c5 -194 137 -321 377 -321c235 0 413 144 465 384l204 955h139l-209 -980c-65 -306 -278 -485 -621 -485zM711 1822h100c-3 -9 -6 -25 -6 -38
c0 -96 68 -152 173 -152c115 0 210 71 232 190h100c-32 -173 -162 -276 -348 -276c-147 0 -258 87 -258 222c0 19 3 40 7 54z" />
    <glyph glyph-name="Uinvertedbreve" unicode="&#x216;" horiz-adv-x="1399" 
d="M682 -22c-314 0 -494 189 -496 439c-1 45 4 90 13 135l189 891h139l-187 -884c-9 -43 -14 -92 -13 -134c5 -194 137 -321 377 -321c235 0 413 144 465 384l204 955h139l-209 -980c-65 -306 -278 -485 -621 -485zM1264 1546h-99c3 7 6 23 6 39c0 92 -68 151 -173 151
c-116 0 -212 -74 -233 -190h-99c31 169 161 276 347 276c147 0 259 -89 259 -221c0 -23 -3 -43 -8 -55z" />
    <glyph glyph-name="Utildeacute" unicode="&#x1e78;" horiz-adv-x="1399" 
d="M682 -22c-314 0 -494 189 -496 439c-1 45 4 90 13 135l189 891h139l-187 -884c-9 -43 -14 -92 -13 -134c5 -194 137 -321 377 -321c235 0 413 144 465 384l204 955h139l-209 -980c-65 -306 -278 -485 -621 -485zM965 1831l208 185h142l-226 -185h-124zM1095 1545
c-130 0 -146 150 -229 150c-49 0 -94 -52 -108 -131h-92c26 137 108 217 211 217c128 0 144 -150 228 -150c48 0 90 50 108 132h91c-26 -134 -110 -218 -209 -218z" />
    <glyph glyph-name="Udotbelow" unicode="&#x1ee4;" horiz-adv-x="1399" 
d="M682 -22c-314 0 -494 189 -496 439c-1 45 4 90 13 135l189 891h139l-187 -884c-9 -43 -14 -92 -13 -134c5 -194 137 -321 377 -321c235 0 413 144 465 384l204 955h139l-209 -980c-65 -306 -278 -485 -621 -485zM593 -380c-57 0 -104 47 -104 104s47 104 104 104
s104 -47 104 -104s-47 -104 -104 -104z" />
    <glyph glyph-name="Utilde" unicode="&#x168;" horiz-adv-x="1399" 
d="M682 -22c-314 0 -494 189 -496 439c-1 45 4 90 13 135l189 891h139l-187 -884c-9 -43 -14 -92 -13 -134c5 -194 137 -321 377 -321c235 0 413 144 465 384l204 955h139l-209 -980c-65 -306 -278 -485 -621 -485zM1109 1549c-132 0 -156 157 -246 157
c-51 0 -97 -52 -114 -147h-93c26 149 109 237 214 237c138 0 160 -157 246 -157c47 0 92 49 112 147h93c-30 -148 -111 -237 -212 -237z" />
    <glyph glyph-name="Umacron" unicode="&#x16a;" horiz-adv-x="1399" 
d="M682 -22c-314 0 -494 189 -496 439c-1 45 4 90 13 135l189 891h139l-187 -884c-9 -43 -14 -92 -13 -134c5 -194 137 -321 377 -321c235 0 413 144 465 384l204 955h139l-209 -980c-65 -306 -278 -485 -621 -485zM1307 1720l-20 -92h-617l20 92h617z" />
    <glyph glyph-name="Umacrondieresis" unicode="&#x1e7a;" horiz-adv-x="1399" 
d="M682 -22c-314 0 -494 189 -496 439c-1 45 4 90 13 135l189 891h139l-187 -884c-9 -43 -14 -92 -13 -134c5 -194 137 -321 377 -321c235 0 413 144 465 384l204 955h139l-209 -980c-65 -306 -278 -485 -621 -485zM1280 1599h-616l20 92h616zM871 1823c-48 0 -88 40 -88 89
s40 88 88 88s87 -39 87 -88s-39 -89 -87 -89zM1199 1823c-48 0 -87 40 -87 89s39 88 87 88s88 -39 88 -88s-40 -89 -88 -89z" />
    <glyph glyph-name="Uring" unicode="&#x16e;" horiz-adv-x="1399" 
d="M682 -22c-314 0 -494 189 -496 439c-1 45 4 90 13 135l189 891h139l-187 -884c-9 -43 -14 -92 -13 -134c5 -194 137 -321 377 -321c235 0 413 144 465 384l204 955h139l-209 -980c-65 -306 -278 -485 -621 -485zM996 1559c-98 0 -180 70 -180 176c0 109 82 188 185 188
c100 0 181 -69 180 -176c-1 -109 -80 -188 -185 -188zM996 1629c66 0 113 47 112 116c-1 64 -44 108 -107 108c-65 0 -112 -46 -112 -116c0 -64 46 -108 107 -108z" />
    <glyph glyph-name="Uogonek" unicode="&#x172;" horiz-adv-x="1399" 
d="M849 -394c-16 -11 -58 -18 -98 -18c-106 0 -177 59 -177 146c0 89 59 167 197 248v3c-20 -5 -59 -8 -89 -8c-318 0 -495 187 -496 440c-1 45 4 88 13 132l189 894h139l-187 -887c-9 -45 -14 -92 -13 -132c4 -196 133 -320 377 -320c233 0 414 146 465 387l204 952h140
l-209 -978c-46 -211 -163 -344 -320 -427c-173 -92 -290 -182 -290 -267c0 -52 41 -85 104 -85c29 0 53 4 71 13z" />
    <glyph glyph-name="Uhorn" unicode="&#x1af;" horiz-adv-x="1545" 
d="M679 -23c-318 0 -495 187 -496 440c-1 44 4 87 13 132l189 894h139l-187 -887c-10 -44 -14 -91 -14 -132c5 -196 134 -320 378 -320c233 0 414 146 465 387l204 952h163c68 0 107 30 121 94l33 158h122l-39 -182c-23 -110 -103 -170 -224 -170l-58 1l-188 -879
c-65 -305 -280 -488 -621 -488z" />
    <glyph glyph-name="Uhorngrave" unicode="&#x1eea;" horiz-adv-x="1545" 
d="M679 -23c-318 0 -495 187 -496 440c-1 44 4 87 13 132l189 894h139l-187 -887c-10 -44 -14 -91 -14 -132c5 -196 134 -320 378 -320c233 0 414 146 465 387l204 952h163c68 0 107 30 121 94l33 158h122l-39 -182c-23 -110 -103 -170 -224 -170l-58 1l-188 -879
c-65 -305 -280 -488 -621 -488zM900 1558l-192 288h140l164 -288h-112z" />
    <glyph glyph-name="Uhornacute" unicode="&#x1ee8;" horiz-adv-x="1545" 
d="M679 -23c-318 0 -495 187 -496 440c-1 44 4 87 13 132l189 894h139l-187 -887c-10 -44 -14 -91 -14 -132c5 -196 134 -320 378 -320c233 0 414 146 465 387l204 952h163c68 0 107 30 121 94l33 158h122l-39 -182c-23 -110 -103 -170 -224 -170l-58 1l-188 -879
c-65 -305 -280 -488 -621 -488zM1033 1558h-129l304 288h158z" />
    <glyph glyph-name="Uhorndotbelow" unicode="&#x1ef0;" horiz-adv-x="1545" 
d="M679 -23c-318 0 -495 187 -496 440c-1 44 4 87 13 132l189 894h139l-187 -887c-10 -44 -14 -91 -14 -132c5 -196 134 -320 378 -320c233 0 414 146 465 387l204 952h163c68 0 107 30 121 94l33 158h122l-39 -182c-23 -110 -103 -170 -224 -170l-58 1l-188 -879
c-65 -305 -280 -488 -621 -488zM574 -380c-57 0 -104 47 -104 104s47 104 104 104s104 -47 104 -104s-47 -104 -104 -104z" />
    <glyph glyph-name="Uhornhookabove" unicode="&#x1eec;" horiz-adv-x="1545" 
d="M679 -23c-318 0 -495 187 -496 440c-1 44 4 87 13 132l189 894h139l-187 -887c-10 -44 -14 -91 -14 -132c5 -196 134 -320 378 -320c233 0 414 146 465 387l204 952h163c68 0 107 30 121 94l33 158h122l-39 -182c-23 -110 -103 -170 -224 -170l-58 1l-188 -879
c-65 -305 -280 -488 -621 -488zM832 1759l19 78c19 9 61 16 91 16c109 0 179 -56 179 -141c0 -87 -66 -153 -178 -180l-36 67c67 15 110 52 110 102c0 44 -35 72 -95 72c-33 0 -64 -5 -90 -14z" />
    <glyph glyph-name="Uhorntilde" unicode="&#x1eee;" horiz-adv-x="1545" 
d="M679 -23c-318 0 -495 187 -496 440c-1 44 4 87 13 132l189 894h139l-187 -887c-10 -44 -14 -91 -14 -132c5 -196 134 -320 378 -320c233 0 414 146 465 387l204 952h163c68 0 107 30 121 94l33 158h122l-39 -182c-23 -110 -103 -170 -224 -170l-58 1l-188 -879
c-65 -305 -280 -488 -621 -488zM1115 1549c-132 0 -156 157 -246 157c-51 0 -97 -52 -114 -147h-93c26 149 109 237 214 237c138 0 160 -157 246 -157c47 0 92 49 112 147h93c-30 -148 -111 -237 -212 -237z" />
    <glyph glyph-name="V" unicode="V" horiz-adv-x="1263" 
d="M644 0h-139l-231 1443h132l200 -1261h4l724 1261h154z" />
    <glyph glyph-name="Vtilde" unicode="&#x1e7c;" horiz-adv-x="1262" 
d="M644 0h-139l-231 1443h132l200 -1261h4l724 1261h154zM1048 1549c-132 0 -156 157 -246 157c-51 0 -97 -52 -114 -147h-93c26 149 109 237 214 237c138 0 160 -157 246 -157c47 0 92 49 112 147h93c-30 -148 -111 -237 -212 -237z" />
    <glyph glyph-name="Vdotbelow" unicode="&#x1e7e;" horiz-adv-x="1262" 
d="M644 0h-139l-231 1443h132l200 -1261h4l724 1261h154zM516 -380c-57 0 -104 47 -104 104s47 104 104 104s104 -47 104 -104s-47 -104 -104 -104z" />
    <glyph glyph-name="W" unicode="W" horiz-adv-x="1845" 
d="M1118 1212l-605 -1212h-134l-90 1443h129l68 -1225h4l608 1225h129l101 -1224h4l580 1224h145l-698 -1443h-133l-104 1212h-4z" />
    <glyph glyph-name="Wgrave" unicode="&#x1e80;" horiz-adv-x="1845" 
d="M1118 1212l-605 -1212h-134l-90 1443h129l68 -1225h4l608 1225h129l101 -1224h4l580 1224h145l-698 -1443h-133l-104 1212h-4zM1118 1558l-192 288h140l164 -288h-112z" />
    <glyph glyph-name="Wacute" unicode="&#x1e82;" horiz-adv-x="1845" 
d="M1118 1212l-605 -1212h-134l-90 1443h129l68 -1225h4l608 1225h129l101 -1224h4l580 1224h145l-698 -1443h-133l-104 1212h-4zM1252 1558h-129l304 288h158z" />
    <glyph glyph-name="Wdotaccent" unicode="&#x1e86;" horiz-adv-x="1845" 
d="M1118 1212l-605 -1212h-134l-90 1443h129l68 -1225h4l608 1225h129l101 -1224h4l580 1224h145l-698 -1443h-133l-104 1212h-4zM1220 1625c-57 0 -104 47 -104 104s47 104 104 104s104 -47 104 -104s-47 -104 -104 -104z" />
    <glyph glyph-name="Wdotbelow" unicode="&#x1e88;" horiz-adv-x="1845" 
d="M1118 1212l-605 -1212h-134l-90 1443h129l68 -1225h4l608 1225h129l101 -1224h4l580 1224h145l-698 -1443h-133l-104 1212h-4zM798 -380c-57 0 -104 47 -104 104s47 104 104 104s104 -47 104 -104s-47 -104 -104 -104z" />
    <glyph glyph-name="Wdieresis" unicode="&#x1e84;" horiz-adv-x="1845" 
d="M1118 1212l-605 -1212h-134l-90 1443h129l68 -1225h4l608 1225h129l101 -1224h4l580 1224h145l-698 -1443h-133l-104 1212h-4zM1045 1612c-49 0 -91 41 -91 91c0 51 42 91 91 91c50 0 92 -40 92 -91c0 -50 -42 -91 -92 -91zM1386 1612c-50 0 -92 41 -92 91
c0 51 42 91 92 91s91 -40 91 -91c0 -50 -41 -91 -91 -91z" />
    <glyph glyph-name="Wcircumflex" unicode="&#x174;" horiz-adv-x="1845" 
d="M1118 1212l-605 -1212h-134l-90 1443h129l68 -1225h4l608 1225h129l101 -1224h4l580 1224h145l-698 -1443h-133l-104 1212h-4zM1292 1852l212 -294h-121l-148 210h-5l-238 -210h-140l337 294h103z" />
    <glyph glyph-name="X" unicode="X" horiz-adv-x="1255" 
d="M-23 0l662 731l-345 712h156l291 -614h5l548 614h177l-660 -731l344 -712h-156l-291 615h-6l-548 -615h-177z" />
    <glyph glyph-name="Xdotaccent" unicode="&#x1e8a;" horiz-adv-x="1255" 
d="M-23 0l662 731l-345 712h156l291 -614h5l548 614h177l-660 -731l344 -712h-156l-291 615h-6l-548 -615h-177zM931 1625c-57 0 -104 47 -104 104s47 104 104 104s104 -47 104 -104s-47 -104 -104 -104z" />
    <glyph glyph-name="Xdieresis" unicode="&#x1e8c;" horiz-adv-x="1255" 
d="M-23 0l662 731l-345 712h156l291 -614h5l548 614h177l-660 -731l344 -712h-156l-291 615h-6l-548 -615h-177zM756 1612c-49 0 -91 41 -91 91c0 51 42 91 91 91c50 0 92 -40 92 -91c0 -50 -42 -91 -92 -91zM1097 1612c-50 0 -92 41 -92 91c0 51 42 91 92 91s91 -40 91 -91
c0 -50 -41 -91 -91 -91z" />
    <glyph glyph-name="Y" unicode="Y" 
d="M624 0h-140l132 631l-342 812h145l288 -691h4l574 691h160l-693 -831z" />
    <glyph glyph-name="Ygrave" unicode="&#x1ef2;" 
d="M624 0h-140l132 631l-342 812h145l288 -691h4l574 691h160l-693 -831zM814 1558l-192 288h140l164 -288h-112z" />
    <glyph glyph-name="Yacute" unicode="&#xdd;" 
d="M624 0h-140l132 631l-342 812h145l288 -691h4l574 691h160l-693 -831zM947 1558h-129l304 288h158z" />
    <glyph glyph-name="Ydotaccent" unicode="&#x1e8e;" 
d="M624 0h-140l132 631l-342 812h145l288 -691h4l574 691h160l-693 -831zM915 1625c-57 0 -104 47 -104 104s47 104 104 104s104 -47 104 -104s-47 -104 -104 -104z" />
    <glyph glyph-name="Ydotbelow" unicode="&#x1ef4;" 
d="M624 0h-140l132 631l-342 812h145l288 -691h4l574 691h160l-693 -831zM490 -380c-57 0 -104 47 -104 104s47 104 104 104s104 -47 104 -104s-47 -104 -104 -104z" />
    <glyph glyph-name="Ydieresis" unicode="&#x178;" 
d="M624 0h-140l132 631l-342 812h145l288 -691h4l574 691h160l-693 -831zM740 1612c-49 0 -91 41 -91 91c0 51 42 91 91 91c50 0 92 -40 92 -91c0 -50 -42 -91 -92 -91zM1081 1612c-50 0 -92 41 -92 91c0 51 42 91 92 91s91 -40 91 -91c0 -50 -41 -91 -91 -91z" />
    <glyph glyph-name="Ytilde" unicode="&#x1ef8;" 
d="M624 0h-140l132 631l-342 812h145l288 -691h4l574 691h160l-693 -831zM1028 1549c-132 0 -156 157 -246 157c-51 0 -97 -52 -114 -147h-93c26 149 109 237 214 237c138 0 160 -157 246 -157c47 0 92 49 112 147h93c-30 -148 -111 -237 -212 -237z" />
    <glyph glyph-name="Ycircumflex" unicode="&#x176;" 
d="M624 0h-140l132 631l-342 812h145l288 -691h4l574 691h160l-693 -831zM987 1852l212 -294h-121l-148 210h-5l-238 -210h-140l337 294h103z" />
    <glyph glyph-name="Ymacron" unicode="&#x232;" 
d="M624 0h-140l132 631l-342 812h145l288 -691h4l574 691h160l-693 -831zM1226 1720l-20 -92h-617l20 92h617z" />
    <glyph glyph-name="Yhookabove" unicode="&#x1ef6;" 
d="M624 0h-140l132 631l-342 812h145l288 -691h4l574 691h160l-693 -831zM745 1759l19 78c19 9 61 16 91 16c109 0 179 -56 179 -141c0 -87 -66 -153 -178 -180l-36 67c67 15 110 52 110 102c0 44 -35 72 -95 72c-33 0 -64 -5 -90 -14z" />
    <glyph glyph-name="Z" unicode="Z" horiz-adv-x="1226" 
d="M31 0l21 99l1113 1217v4h-826l27 123h1010l-21 -100l-1111 -1216l-1 -4h865l-26 -123h-1051z" />
    <glyph glyph-name="Zacute" unicode="&#x179;" horiz-adv-x="1226" 
d="M31 0l21 99l1113 1217v4h-826l27 123h1010l-21 -100l-1111 -1216l-1 -4h865l-26 -123h-1051zM947 1558h-129l304 288h158z" />
    <glyph glyph-name="Zcaron" unicode="&#x17d;" horiz-adv-x="1226" 
d="M31 0l21 99l1113 1217v4h-826l27 123h1010l-21 -100l-1111 -1216l-1 -4h865l-26 -123h-1051zM836 1558l-212 294h122l149 -209h4l238 209h140l-337 -294h-104z" />
    <glyph glyph-name="Zcircumflex" unicode="&#x1e90;" horiz-adv-x="1226" 
d="M31 0l21 99l1113 1217v4h-826l27 123h1010l-21 -100l-1111 -1216l-1 -4h865l-26 -123h-1051zM988 1852l212 -294h-121l-148 210h-5l-238 -210h-140l337 294h103z" />
    <glyph glyph-name="Zlinebelow" unicode="&#x1e94;" horiz-adv-x="1226" 
d="M31 0l21 99l1113 1217v4h-826l27 123h1010l-21 -100l-1111 -1216l-1 -4h865l-26 -123h-1051zM848 -242l-20 -92h-617l20 92h617z" />
    <glyph glyph-name="Zdotbelow" unicode="&#x1e92;" horiz-adv-x="1226" 
d="M31 0l21 99l1113 1217v4h-826l27 123h1010l-21 -100l-1111 -1216l-1 -4h865l-26 -123h-1051zM528 -380c-57 0 -104 47 -104 104s47 104 104 104s104 -47 104 -104s-47 -104 -104 -104z" />
    <glyph glyph-name="Zdotaccent" unicode="&#x17b;" horiz-adv-x="1226" 
d="M31 0l21 99l1113 1217v4h-826l27 123h1010l-21 -100l-1111 -1216l-1 -4h865l-26 -123h-1051zM916 1625c-57 0 -104 47 -104 104s47 104 104 104s104 -47 104 -104s-47 -104 -104 -104z" />
    <glyph glyph-name="AE" unicode="&#xc6;" horiz-adv-x="1857" 
d="M1172 1327h-161l-527 -766h525zM889 0l95 443h-578l-301 -443h-149l985 1443h1067l-27 -124h-672l-111 -526h635l-26 -122h-636l-116 -547h672l-26 -124h-812z" />
    <glyph glyph-name="AEmacron" unicode="&#x1e2;" horiz-adv-x="1857" 
d="M1172 1327h-161l-527 -766h525zM889 0l95 443h-578l-301 -443h-149l985 1443h1067l-27 -124h-672l-111 -526h635l-26 -122h-636l-116 -547h672l-26 -124h-812zM1740 1720l-20 -92h-617l20 92h617z" />
    <glyph glyph-name="AEacute" unicode="&#x1fc;" horiz-adv-x="1857" 
d="M1172 1327h-161l-527 -766h525zM889 0l95 443h-578l-301 -443h-149l985 1443h1067l-27 -124h-672l-111 -526h635l-26 -122h-636l-116 -547h672l-26 -124h-812zM1461 1558h-129l304 288h158z" />
    <glyph glyph-name="OE" unicode="&#x152;" horiz-adv-x="2237" 
d="M1209 0l47 218h-3c-124 -153 -301 -240 -496 -240c-354 0 -585 247 -585 626c0 476 317 861 745 861c258 0 446 -136 523 -367h3l73 345h873l-27 -124h-733l-111 -519h697l-27 -122h-696l-118 -554h734l-26 -124h-873zM1362 836c0 307 -174 503 -445 503
c-352 0 -605 -326 -605 -731c0 -308 174 -504 445 -504c352 0 605 326 605 732z" />
    <glyph glyph-name="Eth" unicode="&#xd0;" horiz-adv-x="1391" 
d="M246 122h351c396 0 671 306 671 727c0 304 -165 472 -482 472h-285l-111 -522h366l-26 -124h-366zM387 1443h422c380 0 599 -219 599 -577c0 -509 -323 -866 -802 -866h-524l143 675h-139l27 124h138z" />
    <glyph glyph-name="Thorn" unicode="&#xde;" horiz-adv-x="1173" 
d="M77 0l307 1443h136l-58 -274h355c232 0 387 -149 387 -349c0 -279 -214 -469 -547 -469h-369l-74 -351h-137zM436 1046l-121 -573h337c258 0 410 131 410 334c0 139 -98 239 -289 239h-337z" />
    <glyph glyph-name="Alphagreek" unicode="&#x391;" horiz-adv-x="1261" 
d="M848 1274l-408 -714h525l-113 714h-4zM1051 0l-68 443h-609l-256 -443h-151l844 1443h138l232 -1443h-130z" />
    <glyph glyph-name="Betagreek" unicode="&#x392;" horiz-adv-x="1256" 
d="M644 0h-564l307 1443h496c232 0 384 -127 384 -317c0 -186 -142 -336 -330 -378l-1 -4c162 -23 262 -140 262 -297c0 -264 -224 -447 -554 -447zM500 1322l-110 -520h348c222 0 387 125 387 297c0 143 -101 223 -291 223h-334zM245 121h397c244 0 412 134 412 315
c0 165 -120 248 -318 248h-371z" />
    <glyph glyph-name="Gammagreek" unicode="&#x393;" horiz-adv-x="1080" 
d="M238 0h-140l307 1443h838l-27 -124h-698z" />
    <glyph glyph-name="Deltagreek" unicode="&#x394;" horiz-adv-x="1316" 
d="M1189 0h-1176l20 97l805 1346h138l234 -1346zM875 1274l-674 -1146l-1 -4h875l1 2l-197 1148h-4z" />
    <glyph glyph-name="Deltagreek" unicode="&#x2206;" horiz-adv-x="1316" 
d="M1189 0h-1176l20 97l805 1346h138l234 -1346zM875 1274l-674 -1146l-1 -4h875l1 2l-197 1148h-4z" />
    <glyph glyph-name="Epsilongreek" unicode="&#x395;" horiz-adv-x="1102" 
d="M979 124l-26 -124h-873l307 1443h873l-27 -124h-733l-110 -519h696l-27 -122h-695l-118 -554h733z" />
    <glyph glyph-name="Zetagreek" unicode="&#x396;" horiz-adv-x="1226" 
d="M31 0l21 99l1113 1217v4h-826l27 123h1010l-21 -100l-1111 -1216l-1 -4h865l-26 -123h-1051z" />
    <glyph glyph-name="Etagreek" unicode="&#x397;" horiz-adv-x="1394" 
d="M1200 0h-139l144 677h-841l-145 -677h-139l307 1443h139l-136 -642h841l137 642h139z" />
    <glyph glyph-name="Thetagreek" unicode="&#x398;" horiz-adv-x="1536" 
d="M1175 661h-643l26 122h643zM789 -22c-354 0 -593 246 -593 621c0 481 319 866 748 866c354 0 592 -246 592 -621c0 -481 -318 -866 -747 -866zM1396 838c0 307 -181 501 -453 501c-351 0 -607 -326 -607 -734c0 -307 182 -501 454 -501c351 0 606 326 606 734z" />
    <glyph glyph-name="Iotagreek" unicode="&#x399;" horiz-adv-x="413" 
d="M219 0h-139l307 1443h139z" />
    <glyph glyph-name="Iotagreek.1" horiz-adv-x="875" 
d="M1020 1325h-288l-257 -1207h288l-25 -118h-288h-139h-288l25 118h288l257 1207h-288l25 118h288h139h288z" />
    <glyph glyph-name="Kappagreek" unicode="&#x39a;" horiz-adv-x="1209" 
d="M219 0h-139l307 1443h139l-158 -743h4l835 743h183l-715 -640l466 -803h-159l-414 718l-241 -210z" />
    <glyph glyph-name="Lambdagreek" unicode="&#x39b;" horiz-adv-x="1247" 
d="M841 1274l-713 -1274h-151l827 1443h138l215 -1443h-130l-182 1274h-4z" />
    <glyph glyph-name="Mugreek" unicode="&#x39c;" horiz-adv-x="1667" 
d="M210 0h-130l307 1443h150l267 -1271h4l802 1271h170l-307 -1443h-130l254 1192h-6l-755 -1185h-119l-250 1185h-5z" />
    <glyph glyph-name="Nugreek" unicode="&#x39d;" horiz-adv-x="1400" 
d="M219 0h-139l307 1443h139l581 -1236h4l263 1236h139l-307 -1443h-139l-581 1236h-4z" />
    <glyph glyph-name="Xigreek" unicode="&#x39e;" horiz-adv-x="1263" 
d="M360 1443h1043l-27 -128h-1043zM1162 675h-888l28 127h887zM81 128h1042l-26 -128h-1043z" />
    <glyph glyph-name="Omicrongreek" unicode="&#x39f;" horiz-adv-x="1491" 
d="M918 1339c-350 0 -603 -326 -603 -734c0 -307 178 -501 450 -501c351 0 603 326 603 734c0 307 -177 501 -450 501zM764 -22c-354 0 -589 246 -589 621c0 481 315 866 745 866c353 0 588 -246 588 -621c0 -481 -315 -866 -744 -866z" />
    <glyph glyph-name="Pigreek" unicode="&#x3a0;" horiz-adv-x="1410" 
d="M1198 0h-140l282 1319h-822l-281 -1319h-139l307 1443h1100z" />
    <glyph glyph-name="Rhogreek" unicode="&#x3a1;" horiz-adv-x="1195" 
d="M389 1443h475c241 0 416 -153 416 -385c0 -320 -248 -514 -583 -514h-361l-116 -544h-140zM502 1321l-140 -655h330c264 0 446 139 446 380c0 168 -119 275 -317 275h-319z" />
    <glyph glyph-name="Sigmagreek" unicode="&#x3a3;" horiz-adv-x="1258" 
d="M256 127v-4h864l-26 -123h-1045l21 99l565 653l-275 587l22 104h999l-26 -123h-832l-1 -4l261 -562l-4 -16z" />
    <glyph glyph-name="Taugreek" unicode="&#x3a4;" horiz-adv-x="1188" 
d="M607 0h-139l280 1319h-482l26 124h1104l-26 -124h-482z" />
    <glyph glyph-name="Upsilongreek" unicode="&#x3a5;" 
d="M624 0h-140l132 631l-342 812h145l288 -691h4l574 691h160l-693 -831z" />
    <glyph glyph-name="Phigreek" unicode="&#x3a6;" horiz-adv-x="1631" 
d="M676 -58l29 137c-352 27 -550 226 -550 534c0 426 322 740 823 748l28 134h139l-28 -134c352 -27 550 -226 550 -535c0 -425 -323 -740 -823 -747l-29 -137h-139zM732 202l219 1035c-404 -3 -656 -259 -656 -610c0 -249 150 -410 437 -425zM871 203
c405 3 656 256 656 611c0 248 -150 409 -436 423z" />
    <glyph glyph-name="Chigreek" unicode="&#x3a7;" horiz-adv-x="1255" 
d="M-23 0l662 731l-345 712h156l291 -614h5l548 614h177l-660 -731l344 -712h-156l-291 615h-6l-548 -615h-177z" />
    <glyph glyph-name="Psigreek" unicode="&#x3a8;" horiz-adv-x="1569" 
d="M798 0h-140l73 345c-308 23 -471 171 -471 426c0 42 5 86 15 133l113 539h139l-112 -535c-11 -50 -16 -95 -16 -136c0 -193 128 -291 359 -301l207 972h140l-207 -972c318 3 471 163 532 451l111 521h139l-111 -526c-82 -381 -273 -557 -698 -572z" />
    <glyph glyph-name="Omegagreek" unicode="&#x3a9;" horiz-adv-x="1532" 
d="M867 0l33 154c307 145 489 402 489 727c0 273 -176 459 -455 459c-365 0 -607 -292 -607 -675c0 -229 102 -399 311 -511l-33 -154h-521l26 124h361v6c-186 117 -284 291 -284 533c0 453 304 803 764 803c355 0 578 -232 578 -573c0 -327 -182 -620 -473 -763v-6h373
l-26 -124h-536z" />
    <glyph glyph-name="Omegagreek" unicode="&#x2126;" horiz-adv-x="1532" 
d="M867 0l33 154c307 145 489 402 489 727c0 273 -176 459 -455 459c-365 0 -607 -292 -607 -675c0 -229 102 -399 311 -511l-33 -154h-521l26 124h361v6c-186 117 -284 291 -284 533c0 453 304 803 764 803c355 0 578 -232 578 -573c0 -327 -182 -620 -473 -763v-6h373
l-26 -124h-536z" />
    <glyph glyph-name="Alphatonosgreek" unicode="&#x386;" horiz-adv-x="1261" 
d="M848 1274l-408 -714h525l-113 714h-4zM1051 0l-68 443h-609l-256 -443h-151l844 1443h138l232 -1443h-130zM343 1146l141 297h169l-199 -297h-111z" />
    <glyph glyph-name="Epsilontonosgreek" unicode="&#x388;" horiz-adv-x="1324" 
d="M186 1146l141 297h169l-199 -297h-111zM1201 124l-26 -124h-873l307 1443h873l-27 -124h-733l-110 -519h696l-27 -122h-695l-118 -554h733z" />
    <glyph glyph-name="Etatonosgreek" unicode="&#x389;" horiz-adv-x="1616" 
d="M186 1146l141 297h169l-199 -297h-111zM1422 0h-139l144 677h-841l-145 -677h-139l307 1443h139l-136 -642h841l137 642h139z" />
    <glyph glyph-name="Iotatonosgreek" unicode="&#x38a;" horiz-adv-x="642" 
d="M186 1146l141 297h169l-199 -297h-111zM441 0h-139l307 1443h139z" />
    <glyph glyph-name="Iotadieresisgreek" unicode="&#x3aa;" horiz-adv-x="413" 
d="M219 0h-139l307 1443h139zM339 1612c-49 0 -91 41 -91 91c0 51 42 91 91 91c50 0 92 -40 92 -91c0 -50 -42 -91 -92 -91zM680 1612c-50 0 -92 41 -92 91c0 51 42 91 92 91s91 -40 91 -91c0 -50 -41 -91 -91 -91z" />
    <glyph glyph-name="Iotatonosgreek.1" horiz-adv-x="1136" 
d="M496 1443l-199 -297h-111l141 297h169zM1281 1325h-288l-257 -1207h288l-25 -118h-288h-139h-288l25 118h288l257 1207h-288l25 118h288h139h288z" />
    <glyph glyph-name="Iotadieresisgreek.1" horiz-adv-x="875" 
d="M910 1612c-50 0 -92 41 -92 91c0 51 42 91 92 91s91 -40 91 -91c0 -50 -41 -91 -91 -91zM569 1612c-49 0 -91 41 -91 91c0 51 42 91 91 91c50 0 92 -40 92 -91c0 -50 -42 -91 -92 -91zM1020 1325h-288l-257 -1207h288l-25 -118h-288h-139h-288l25 118h288l257 1207h-288
l25 118h288h139h288z" />
    <glyph glyph-name="Omicrontonosgreek" unicode="&#x38c;" horiz-adv-x="1630" 
d="M186 1146l141 297h169l-199 -297h-111zM1057 1339c-350 0 -603 -326 -603 -734c0 -307 178 -501 450 -501c351 0 603 326 603 734c0 307 -177 501 -450 501zM903 -22c-354 0 -589 246 -589 621c0 481 315 866 745 866c353 0 588 -246 588 -621
c0 -481 -315 -866 -744 -866z" />
    <glyph glyph-name="Upsilontonosgreek" unicode="&#x38e;" horiz-adv-x="1596" 
d="M284 1146l141 297h169l-199 -297h-111zM1001 0h-140l132 631l-342 812h145l288 -691h4l574 691h160l-693 -831z" />
    <glyph glyph-name="Upsilondieresisgreek" unicode="&#x3ab;" 
d="M624 0h-140l132 631l-342 812h145l288 -691h4l574 691h160l-693 -831zM740 1612c-49 0 -91 41 -91 91c0 51 42 91 91 91c50 0 92 -40 92 -91c0 -50 -42 -91 -92 -91zM1081 1612c-50 0 -92 41 -92 91c0 51 42 91 92 91s91 -40 91 -91c0 -50 -41 -91 -91 -91z" />
    <glyph glyph-name="Omegatonosgreek" unicode="&#x38f;" horiz-adv-x="1701" 
d="M186 1146l141 297h169l-199 -297h-111zM1036 0l33 154c307 145 489 402 489 727c0 273 -176 459 -455 459c-365 0 -607 -292 -607 -675c0 -229 102 -399 311 -511l-33 -154h-521l26 124h361v6c-186 117 -284 291 -284 533c0 453 304 803 764 803c355 0 578 -232 578 -573
c0 -327 -182 -620 -473 -763v-6h373l-26 -124h-536z" />
    <glyph glyph-name="Acyrillic" unicode="&#x410;" horiz-adv-x="1271" 
d="M853 1274l-408 -714h525l-113 714h-4zM1056 0l-68 443h-609l-256 -443h-151l844 1443h138l232 -1443h-130z" />
    <glyph glyph-name="uni04D0" unicode="&#x4d0;" horiz-adv-x="1271" 
d="M853 1274l-408 -714h525l-113 714h-4zM1056 0l-68 443h-609l-256 -443h-151l844 1443h138l232 -1443h-130zM640 1820h120c-23 -112 44 -182 156 -182c113 0 211 70 235 182h120c-36 -173 -178 -274 -364 -274c-188 0 -304 101 -267 274z" />
    <glyph glyph-name="uni04D2" unicode="&#x4d2;" horiz-adv-x="1271" 
d="M853 1274l-408 -714h525l-113 714h-4zM1056 0l-68 443h-609l-256 -443h-151l844 1443h138l232 -1443h-130zM764 1612c-49 0 -91 41 -91 91c0 51 42 91 91 91c50 0 92 -40 92 -91c0 -50 -42 -91 -92 -91zM1105 1612c-50 0 -92 41 -92 91c0 51 42 91 92 91s91 -40 91 -91
c0 -50 -41 -91 -91 -91z" />
    <glyph glyph-name="uniF50E" horiz-adv-x="1271" 
d="M853 1274l-408 -714h525l-113 714h-4zM1056 0l-68 443h-609l-256 -443h-151l844 1443h138l232 -1443h-130zM1250 1720l-20 -92h-617l20 92h617z" />
    <glyph glyph-name="uniF460" horiz-adv-x="1271" 
d="M853 1274l-408 -714h525l-113 714h-4zM1056 0l-68 443h-609l-256 -443h-151l844 1443h138l232 -1443h-130zM970 1558h-129l304 288h158z" />
    <glyph glyph-name="Becyrillic" unicode="&#x411;" horiz-adv-x="1200" 
d="M623 0h-538l307 1443h838l-27 -124h-698l-99 -467h317c267 0 446 -148 446 -368c0 -256 -219 -484 -546 -484zM250 122h360c240 0 417 148 417 342c0 172 -129 265 -331 265h-316z" />
    <glyph glyph-name="Vecyrillic" unicode="&#x412;" horiz-adv-x="1266" 
d="M649 0h-564l307 1443h496c232 0 384 -127 384 -317c0 -186 -142 -336 -330 -378l-1 -4c162 -23 262 -140 262 -297c0 -264 -224 -447 -554 -447zM505 1322l-110 -520h348c222 0 387 125 387 297c0 143 -101 223 -291 223h-334zM250 121h397c244 0 412 134 412 315
c0 165 -120 248 -318 248h-371z" />
    <glyph glyph-name="Gecyrillic" unicode="&#x413;" horiz-adv-x="1059" 
d="M224 0h-139l307 1443h851l-27 -124h-711z" />
    <glyph glyph-name="Gjecyrillic" unicode="&#x403;" horiz-adv-x="1059" 
d="M224 0h-139l307 1443h851l-27 -124h-711zM890 1558h-129l304 288h158z" />
    <glyph glyph-name="Geupturncyrillic" unicode="&#x490;" horiz-adv-x="1059" 
d="M505 1319l-280 -1319h-140l307 1443h723l58 273h127l-84 -397h-711z" />
    <glyph glyph-name="uni04F6" unicode="&#x4f6;" horiz-adv-x="1059" 
d="M392 1443h851l-27 -124h-711l-255 -1195h183l-87 -409h-128l61 285h-55h-139z" />
    <glyph glyph-name="uni0492" unicode="&#x492;" horiz-adv-x="1059" 
d="M1216 1319h-711l-117 -549h539l-23 -111h-540l-140 -659h-139l140 659h-148l24 111h148l143 673h851z" />
    <glyph glyph-name="uniF53C" horiz-adv-x="1069" 
d="M224 0h-139l307 1443h858l-27 -124h-718l-115 -542h659l-26 -122h-659z" />
    <glyph glyph-name="uni04FA" unicode="&#x4fa;" horiz-adv-x="1059" 
d="M1216 1319h-711l-117 -549h539l-23 -111h-540l-140 -659l-15 -71c-45 -215 -149 -299 -372 -299h-24l25 116h22c123 0 182 50 212 191l13 63l140 659h-148l24 111h148l143 673h851z" />
    <glyph glyph-name="Decyrillic" unicode="&#x414;" horiz-adv-x="1409" 
d="M451 503c-46 -166 -95 -287 -188 -369l-2 -10h768l254 1195h-609zM81 0l-61 -285h-128l87 409h103c115 54 186 191 238 384l255 935h874l-281 -1319h183l-86 -409h-128l61 285h-1117z" />
    <glyph glyph-name="uni0414.BUL" horiz-adv-x="1484" 
d="M123 0l-61 -285h-128l87 409h131l771 1319h136l210 -1319h131l-86 -409h-128l61 285h-1124zM947 1253l-649 -1129h831l-170 1129h-12z" />
    <glyph glyph-name="Iecyrillic" unicode="&#x415;" horiz-adv-x="1112" 
d="M984 124l-26 -124h-873l307 1443h873l-27 -124h-733l-110 -519h696l-27 -122h-695l-118 -554h733z" />
    <glyph glyph-name="Iocyrillic" unicode="&#x401;" horiz-adv-x="1112" 
d="M984 124l-26 -124h-873l307 1443h873l-27 -124h-733l-110 -519h696l-27 -122h-695l-118 -554h733zM710 1612c-49 0 -91 41 -91 91c0 51 42 91 91 91c50 0 92 -40 92 -91c0 -50 -42 -91 -92 -91zM1051 1612c-50 0 -92 41 -92 91c0 51 42 91 92 91s91 -40 91 -91
c0 -50 -41 -91 -91 -91z" />
    <glyph glyph-name="uni04D6" unicode="&#x4d6;" horiz-adv-x="1112" 
d="M984 124l-26 -124h-873l307 1443h873l-27 -124h-733l-110 -519h696l-27 -122h-695l-118 -554h733zM587 1820h120c-23 -112 44 -182 156 -182c113 0 211 70 235 182h120c-36 -173 -178 -274 -364 -274c-188 0 -304 101 -267 274z" />
    <glyph glyph-name="uniF510" horiz-adv-x="1112" 
d="M984 124l-26 -124h-873l307 1443h873l-27 -124h-733l-110 -519h696l-27 -122h-695l-118 -554h733zM1196 1720l-20 -92h-617l20 92h617z" />
    <glyph glyph-name="uniF512" horiz-adv-x="1112" 
d="M984 124l-26 -124h-873l307 1443h873l-27 -124h-733l-110 -519h696l-27 -122h-695l-118 -554h733zM702 1730c47 0 87 -39 87 -88s-40 -88 -87 -88c-49 0 -88 39 -88 88s39 88 88 88zM1246 1979l-20 -91h-617l20 91h617zM1030 1730c48 0 88 -39 88 -88s-40 -88 -88 -88
s-88 39 -88 88s40 88 88 88z" />
    <glyph glyph-name="uni0400" unicode="&#x400;" horiz-adv-x="1112" 
d="M984 124l-26 -124h-873l307 1443h873l-27 -124h-733l-110 -519h696l-27 -122h-695l-118 -554h733zM784 1558l-192 288h140l164 -288h-112z" />
    <glyph glyph-name="uniF461" horiz-adv-x="1112" 
d="M984 124l-26 -124h-873l307 1443h873l-27 -124h-733l-110 -519h696l-27 -122h-695l-118 -554h733zM917 1558h-129l304 288h158z" />
    <glyph glyph-name="uniF469" horiz-adv-x="1112" 
d="M984 124l-26 -124h-873l307 1443h873l-27 -124h-733l-110 -519h696l-27 -122h-695l-118 -554h733zM898 1614h-104l105 313h162zM1148 1622c-50 0 -93 42 -93 92c0 51 42 93 92 93c52 0 93 -42 94 -93c0 -50 -42 -92 -93 -92zM659 1622c-51 0 -93 42 -93 92
c-1 51 42 93 92 93c51 0 93 -42 94 -93c0 -50 -42 -92 -93 -92z" />
    <glyph glyph-name="uniF514" horiz-adv-x="1112" 
d="M684 2053h107c-2 -10 -3 -19 -3 -28c0 -64 51 -103 137 -103c99 0 174 50 191 131h107c-28 -133 -151 -218 -316 -218c-144 0 -229 65 -229 171c0 15 2 31 6 47zM580 1573c28 132 151 218 318 218c146 0 231 -66 231 -171c0 -15 -2 -31 -6 -47h-108c2 10 3 19 3 29
c0 63 -52 102 -140 102c-99 0 -173 -51 -190 -131h-108zM984 124l-26 -124h-873l307 1443h873l-27 -124h-733l-110 -519h696l-27 -122h-695l-118 -554h733z" />
    <glyph glyph-name="Zhecyrillic" unicode="&#x416;" horiz-adv-x="1908" 
d="M985 710l-832 -710h-188l895 762l-505 681h156l488 -668h8l143 668h136l-143 -670h9l773 670h179l-825 -713l548 -730h-159l-529 708h-9l-151 -708h-136l150 710h-8z" />
    <glyph glyph-name="uni04C1" unicode="&#x4c1;" horiz-adv-x="1908" 
d="M985 710l-832 -710h-188l895 762l-505 681h156l488 -668h8l143 668h136l-143 -670h9l773 670h179l-825 -713l548 -730h-159l-529 708h-9l-151 -708h-136l150 710h-8zM990 1822h100c-3 -9 -6 -25 -6 -38c0 -96 68 -152 173 -152c115 0 210 71 232 190h100
c-32 -173 -162 -276 -348 -276c-147 0 -258 87 -258 222c0 19 3 40 7 54z" />
    <glyph glyph-name="uni04DC" unicode="&#x4dc;" horiz-adv-x="1908" 
d="M985 710l-832 -710h-188l895 762l-505 681h156l488 -668h8l143 668h136l-143 -670h9l773 670h179l-825 -713l548 -730h-159l-529 708h-9l-151 -708h-136l150 710h-8zM1100 1612c-49 0 -91 41 -91 91c0 51 42 91 91 91c50 0 92 -40 92 -91c0 -50 -42 -91 -92 -91z
M1441 1612c-50 0 -92 41 -92 91c0 51 42 91 92 91s91 -40 91 -91c0 -50 -41 -91 -91 -91z" />
    <glyph glyph-name="uni0496" unicode="&#x496;" horiz-adv-x="2003" 
d="M1279 730l455 -606h198l-87 -409h-128l61 285h-110l-529 708h-9l-151 -708h-136l150 710h-8l-832 -710h-188l895 762l-505 681h156l488 -668h8l143 668h136l-143 -670h9l773 670h179z" />
    <glyph glyph-name="uni0416.BUL" horiz-adv-x="1968" 
d="M2164 1443l-689 -639l441 -804h-155l-393 719l-241 -211l-108 -508h-133l108 512l-147 208l-699 -720h-183l811 835l-405 608h159l491 -744h13l159 744h133l-158 -744h14l805 744h177z" />
    <glyph glyph-name="Zecyrillic" unicode="&#x417;" horiz-adv-x="1173" 
d="M455 683l26 124h207c217 0 373 117 373 284c0 156 -124 257 -306 257c-175 0 -316 -107 -352 -260h-133c42 227 241 378 497 378c253 0 432 -147 432 -361c0 -184 -147 -337 -350 -362l-1 -4c165 -35 269 -151 269 -318c0 -254 -224 -444 -539 -444
c-309 0 -503 188 -491 408h132c-1 -159 142 -288 370 -288c227 0 388 134 388 313c0 171 -126 273 -329 273h-193z" />
    <glyph glyph-name="uni04DE" unicode="&#x4de;" horiz-adv-x="1173" 
d="M455 683l26 124h207c217 0 373 117 373 284c0 156 -124 257 -306 257c-175 0 -316 -107 -352 -260h-133c42 227 241 378 497 378c253 0 432 -147 432 -361c0 -184 -147 -337 -350 -362l-1 -4c165 -35 269 -151 269 -318c0 -254 -224 -444 -539 -444
c-309 0 -503 188 -491 408h132c-1 -159 142 -288 370 -288c227 0 388 134 388 313c0 171 -126 273 -329 273h-193zM692 1612c-49 0 -91 41 -91 91c0 51 42 91 91 91c50 0 92 -40 92 -91c0 -50 -42 -91 -92 -91zM1033 1612c-50 0 -92 41 -92 91c0 51 42 91 92 91
s91 -40 91 -91c0 -50 -41 -91 -91 -91z" />
    <glyph glyph-name="uni0498" unicode="&#x498;" horiz-adv-x="1173" 
d="M849 743l-1 -4c165 -35 269 -151 269 -318c0 -233 -188 -412 -462 -440l-56 -266h-124l57 263c-282 18 -456 198 -445 407h132c-1 -159 142 -288 370 -288c227 0 388 134 388 313c0 171 -126 273 -329 273h-193l26 124h207c217 0 373 117 373 284
c0 156 -124 257 -306 257c-175 0 -316 -107 -352 -260h-133c42 227 241 378 497 378c253 0 432 -147 432 -361c0 -184 -147 -337 -350 -362z" />
    <glyph glyph-name="uniF50A" horiz-adv-x="1173" 
d="M849 743l-1 -4c165 -35 269 -151 269 -318c0 -243 -204 -427 -497 -443l-71 -118c118 -1 187 -54 187 -148c0 -114 -94 -188 -232 -188c-62 0 -129 13 -173 33l19 90c43 -19 91 -30 145 -30c83 0 135 31 135 87c0 53 -49 79 -151 82l-56 1l14 59l77 134
c-271 24 -438 200 -427 405h132c-1 -159 142 -288 370 -288c227 0 388 134 388 313c0 171 -126 273 -329 273h-193l26 124h207c217 0 373 117 373 284c0 156 -124 257 -306 257c-175 0 -316 -107 -352 -260h-133c42 227 241 378 497 378c253 0 432 -147 432 -361
c0 -184 -147 -337 -350 -362z" />
    <glyph glyph-name="uniF516" horiz-adv-x="1173" 
d="M455 683l26 124h207c217 0 373 117 373 284c0 156 -124 257 -306 257c-175 0 -316 -107 -352 -260h-133c42 227 241 378 497 378c253 0 432 -147 432 -361c0 -184 -147 -337 -350 -362l-1 -4c165 -35 269 -151 269 -318c0 -254 -224 -444 -539 -444
c-309 0 -503 188 -491 408h132c-1 -159 142 -288 370 -288c227 0 388 134 388 313c0 171 -126 273 -329 273h-193zM787 1558l-212 294h122l149 -209h4l238 209h140l-337 -294h-104z" />
    <glyph glyph-name="Iicyrillic" unicode="&#x418;" horiz-adv-x="1407" 
d="M1071 0l256 1206h-12l-1092 -1206h-138l307 1443h138l-257 -1207h12l1093 1207h137l-307 -1443h-137z" />
    <glyph glyph-name="Iishortcyrillic" unicode="&#x419;" horiz-adv-x="1407" 
d="M1071 0l256 1206h-12l-1092 -1206h-138l307 1443h138l-257 -1207h12l1093 1207h137l-307 -1443h-137zM712 1820h120c-23 -112 44 -182 156 -182c113 0 211 70 235 182h120c-36 -173 -178 -274 -364 -274c-188 0 -304 101 -267 274z" />
    <glyph glyph-name="uni040D" unicode="&#x40d;" horiz-adv-x="1407" 
d="M1071 0l256 1206h-12l-1092 -1206h-138l307 1443h138l-257 -1207h12l1093 1207h137l-307 -1443h-137zM909 1558l-192 288h140l164 -288h-112z" />
    <glyph glyph-name="uni04E2" unicode="&#x4e2;" horiz-adv-x="1407" 
d="M1071 0l256 1206h-12l-1092 -1206h-138l307 1443h138l-257 -1207h12l1093 1207h137l-307 -1443h-137zM1322 1720l-20 -92h-617l20 92h617z" />
    <glyph glyph-name="uni04E4" unicode="&#x4e4;" horiz-adv-x="1407" 
d="M1071 0l256 1206h-12l-1092 -1206h-138l307 1443h138l-257 -1207h12l1093 1207h137l-307 -1443h-137zM836 1612c-49 0 -91 41 -91 91c0 51 42 91 91 91c50 0 92 -40 92 -91c0 -50 -42 -91 -92 -91zM1177 1612c-50 0 -92 41 -92 91c0 51 42 91 92 91s91 -40 91 -91
c0 -50 -41 -91 -91 -91z" />
    <glyph glyph-name="uni048A" unicode="&#x48a;" horiz-adv-x="1475" 
d="M1223 1820h120c-36 -173 -178 -274 -364 -274c-188 0 -304 101 -267 274h120c-23 -112 44 -182 156 -182c113 0 211 70 235 182zM1515 1443l-281 -1319h179l-8 -39l-184 -370h-128l144 285h-29h-137l25 124h1l230 1082h-12l-1092 -1206h-138l307 1443h138l-257 -1207h12
l1093 1207h137z" />
    <glyph glyph-name="uniF462" horiz-adv-x="1407" 
d="M1071 0l256 1206h-12l-1092 -1206h-138l307 1443h138l-257 -1207h12l1093 1207h137l-307 -1443h-137zM1042 1558h-129l304 288h158z" />
    <glyph glyph-name="uniF532" horiz-adv-x="1407" 
d="M1223 1820h120c-36 -173 -178 -274 -364 -274c-188 0 -304 101 -267 274h120c-23 -112 44 -182 156 -182c113 0 211 70 235 182zM1378 1443h137l-307 -1443l-15 -71c-45 -215 -149 -299 -372 -299h-24l25 116h22c123 0 184 50 213 191l14 63l256 1206h-12l-1092 -1206
h-138l307 1443h138l-257 -1207h12z" />
    <glyph glyph-name="Kacyrillic" unicode="&#x41a;" horiz-adv-x="1222" 
d="M1408 1443l-876 -709l612 -734h-169l-592 706h-8l-151 -706h-139l307 1443h139l-141 -671h8l821 671h189z" />
    <glyph glyph-name="Kjecyrillic" unicode="&#x40c;" horiz-adv-x="1222" 
d="M1251 1846l-333 -288h-129l304 288h158zM1408 1443l-876 -709l612 -734h-169l-592 706h-8l-151 -706h-139l307 1443h139l-141 -671h8l821 671h189z" />
    <glyph glyph-name="uni049A" unicode="&#x49a;" horiz-adv-x="1310" 
d="M532 734l509 -610h197l-87 -409h-128l61 285h-109l-592 706h-8l-151 -706h-139l307 1443h139l-141 -671h8l821 671h189z" />
    <glyph glyph-name="uni049C" unicode="&#x49c;" horiz-adv-x="1315" 
d="M1484 1443l-674 -718l401 -725h-159l-377 683h-65l-73 -344h-112l73 344h-131l-145 -683h-137l307 1443h137l-138 -649h130l69 324h112l-69 -324h65l607 649h179z" />
    <glyph glyph-name="uni049E" unicode="&#x49e;" horiz-adv-x="1222" 
d="M1408 1443l-876 -709l612 -734h-169l-592 706h-8l-151 -706h-139l250 1175h-148l24 112h148l33 156h139l-33 -156h254l-23 -112h-254l-85 -403h8l821 671h189z" />
    <glyph glyph-name="uni04A0" unicode="&#x4a0;" horiz-adv-x="1810" 
d="M1996 1443l-876 -709l612 -734h-169l-592 706h-8l-151 -706h-139l281 1319h-688l26 124h688h139l-26 -124v0l-115 -547h8l821 671h189z" />
    <glyph glyph-name="uni04C3" unicode="&#x4c3;" horiz-adv-x="1208" 
d="M440 -400c-25 0 -49 2 -64 5l25 121c19 -2 38 -3 64 -3c283 0 487 252 487 526c0 267 -203 422 -551 422h-33l-143 -671h-137l307 1443h137l-138 -650h20l811 650h189l-833 -663c312 -39 513 -232 513 -532c0 -348 -278 -648 -654 -648z" />
    <glyph glyph-name="uni041A.BUL" horiz-adv-x="1209" 
d="M219 0h-139l307 1443h139l-158 -743h4l835 743h183l-715 -640l466 -803h-159l-414 718l-241 -210z" />
    <glyph glyph-name="Elcyrillic" unicode="&#x41b;" horiz-adv-x="1320" 
d="M1122 0h-140l281 1319h-580l-222 -809c-85 -311 -195 -519 -446 -519c-29 0 -52 6 -63 10l26 123c7 -3 32 -7 53 -7c157 0 237 171 299 400l252 926h847z" />
    <glyph glyph-name="uni04C5" unicode="&#x4c5;" horiz-adv-x="1387" 
d="M1429 1443l-281 -1319h177l-8 -39l-184 -370h-129l144 285h-26h-140l26 124v0l255 1195h-580l-222 -809c-85 -311 -195 -519 -446 -519c-29 0 -52 6 -63 10l26 123c7 -3 32 -7 53 -7c157 0 237 171 299 400l252 926h847z" />
    <glyph glyph-name="uniF530" horiz-adv-x="1413" 
d="M1429 1443l-281 -1319h182l-87 -409h-128l61 285h-54h-140l281 1319h-580l-222 -809c-85 -311 -195 -519 -446 -519c-29 0 -52 6 -63 10l26 123c7 -3 32 -7 53 -7c157 0 237 171 299 400l252 926h847z" />
    <glyph glyph-name="uni052E" unicode="&#x52e;" horiz-adv-x="1413" 
d="M1429 1443l-281 -1319h182l-87 -409h-128l61 285h-54h-140l281 1319h-580l-222 -809c-85 -311 -195 -519 -446 -519c-29 0 -52 6 -63 10l26 123c7 -3 32 -7 53 -7c157 0 237 171 299 400l252 926h847z" />
    <glyph glyph-name="uni0512" unicode="&#x512;" horiz-adv-x="1320" 
d="M582 1443h847l-307 -1443l-15 -71c-46 -215 -150 -299 -372 -299h-25l25 116h22c123 0 183 50 212 191l13 63l281 1319h-580l-222 -809c-85 -311 -195 -519 -446 -519c-29 0 -52 6 -63 10l26 123c7 -3 32 -7 53 -7c157 0 237 171 299 400z" />
    <glyph glyph-name="uni041B.BUL" horiz-adv-x="1242" 
d="M-23 0l824 1443h139l211 -1443h-134l-178 1260h-4l-704 -1260h-154z" />
    <glyph glyph-name="Emcyrillic" unicode="&#x41c;" horiz-adv-x="1677" 
d="M215 0h-130l307 1443h150l267 -1271h4l802 1271h170l-307 -1443h-130l254 1192h-6l-755 -1185h-119l-250 1185h-5z" />
    <glyph glyph-name="uni04CD" unicode="&#x4cd;" horiz-adv-x="1754" 
d="M1785 1443l-281 -1319h188l-8 -39l-184 -370h-128l144 285h-38h-129h-1l254 1192h-6l-755 -1185h-119l-250 1185h-5l-252 -1192h-130l307 1443h150l267 -1271h4l802 1271h170z" />
    <glyph glyph-name="Encyrillic" unicode="&#x41d;" horiz-adv-x="1404" 
d="M1205 0h-139l144 677h-841l-145 -677h-139l307 1443h139l-136 -642h841l137 642h139z" />
    <glyph glyph-name="uni04C7" unicode="&#x4c7;" horiz-adv-x="1404" 
d="M1373 1443h139l-307 -1443h-2l-15 -71c-45 -215 -150 -299 -372 -299h-25l26 116h21c124 0 183 50 213 191l13 63h2l144 677h-841l-145 -677h-139l307 1443h139l-136 -642h841z" />
    <glyph glyph-name="uni04A2" unicode="&#x4a2;" horiz-adv-x="1498" 
d="M1512 1443l-281 -1319h183l-87 -409h-127l61 285h-56h-138h-1l144 677h-841l-145 -677h-139l307 1443h139l-136 -642h841l137 642h139z" />
    <glyph glyph-name="uni04C9" unicode="&#x4c9;" horiz-adv-x="1471" 
d="M1512 1443l-281 -1319h178l-7 -39l-185 -370h-128l144 285h-28h-138h-1l144 677h-841l-145 -677h-139l307 1443h139l-136 -642h841l137 642h139z" />
    <glyph glyph-name="uni04A4" unicode="&#x4a4;" horiz-adv-x="1991" 
d="M2175 1443l-27 -124h-662l-281 -1319h-139l144 677h-841l-145 -677h-139l307 1443h139l-136 -642h841l137 642h139h663z" />
    <glyph glyph-name="Ocyrillic" unicode="&#x41e;" horiz-adv-x="1501" 
d="M923 1339c-350 0 -603 -326 -603 -734c0 -307 178 -501 450 -501c351 0 603 326 603 734c0 307 -177 501 -450 501zM769 -22c-354 0 -589 246 -589 621c0 481 315 866 745 866c353 0 588 -246 588 -621c0 -481 -315 -866 -744 -866z" />
    <glyph glyph-name="uni04E6" unicode="&#x4e6;" horiz-adv-x="1501" 
d="M923 1339c-350 0 -603 -326 -603 -734c0 -307 178 -501 450 -501c351 0 603 326 603 734c0 307 -177 501 -450 501zM769 -22c-354 0 -589 246 -589 621c0 481 315 866 745 866c353 0 588 -246 588 -621c0 -481 -315 -866 -744 -866zM820 1612c-49 0 -91 41 -91 91
c0 51 42 91 91 91c50 0 92 -40 92 -91c0 -50 -42 -91 -92 -91zM1161 1612c-50 0 -92 41 -92 91c0 51 42 91 92 91s91 -40 91 -91c0 -50 -41 -91 -91 -91z" />
    <glyph glyph-name="uniF518" horiz-adv-x="1501" 
d="M923 1339c-350 0 -603 -326 -603 -734c0 -307 178 -501 450 -501c351 0 603 326 603 734c0 307 -177 501 -450 501zM769 -22c-354 0 -589 246 -589 621c0 481 315 866 745 866c353 0 588 -246 588 -621c0 -481 -315 -866 -744 -866zM1306 1720l-20 -92h-617l20 92h617z
" />
    <glyph glyph-name="uniF463" horiz-adv-x="1501" 
d="M923 1339c-350 0 -603 -326 -603 -734c0 -307 178 -501 450 -501c351 0 603 326 603 734c0 307 -177 501 -450 501zM769 -22c-354 0 -589 246 -589 621c0 481 315 866 745 866c353 0 588 -246 588 -621c0 -481 -315 -866 -744 -866zM1026 1558h-129l304 288h158z" />
    <glyph glyph-name="uniF4D2" horiz-adv-x="1501" 
d="M923 1339c-350 0 -603 -326 -603 -734c0 -307 178 -501 450 -501c351 0 603 326 603 734c0 307 -177 501 -450 501zM769 -22c-354 0 -589 246 -589 621c0 481 315 866 745 866c353 0 588 -246 588 -621c0 -481 -315 -866 -744 -866zM893 1558l-192 288h140l164 -288h-112
z" />
    <glyph glyph-name="uniF51A" horiz-adv-x="1501" 
d="M923 1339c-350 0 -603 -326 -603 -734c0 -307 178 -501 450 -501c351 0 603 326 603 734c0 307 -177 501 -450 501zM769 -22c-354 0 -589 246 -589 621c0 481 315 866 745 866c353 0 588 -246 588 -621c0 -481 -315 -866 -744 -866zM696 1820h120
c-23 -112 44 -182 156 -182c113 0 211 70 235 182h120c-36 -173 -178 -274 -364 -274c-188 0 -304 101 -267 274z" />
    <glyph glyph-name="uni04E8" unicode="&#x4e8;" horiz-adv-x="1501" 
d="M1361 684h-1038c-2 -26 -3 -52 -3 -79c0 -307 178 -501 450 -501c306 0 536 247 591 580zM339 795h1033c1 14 1 29 1 43c0 307 -177 501 -450 501c-294 0 -519 -229 -584 -544zM925 1465c353 0 588 -246 588 -621c0 -481 -315 -866 -744 -866c-354 0 -589 246 -589 621
c0 481 315 866 745 866z" />
    <glyph glyph-name="uniF49A" horiz-adv-x="1501" 
d="M1360 1720l-20 -92h-617l20 92h617zM1361 684h-1038c-2 -26 -3 -52 -3 -79c0 -307 178 -501 450 -501c306 0 536 247 591 580zM339 795h1033c1 14 1 29 1 43c0 307 -177 501 -450 501c-294 0 -519 -229 -584 -544zM925 1465c353 0 588 -246 588 -621
c0 -481 -315 -866 -744 -866c-354 0 -589 246 -589 621c0 481 315 866 745 866z" />
    <glyph glyph-name="uniF51C" horiz-adv-x="1501" 
d="M1261 1820h120c-36 -173 -178 -274 -364 -274c-188 0 -304 101 -267 274h120c-23 -112 44 -182 156 -182c113 0 211 70 235 182zM1361 684h-1038c-2 -26 -3 -52 -3 -79c0 -307 178 -501 450 -501c306 0 536 247 591 580zM339 795h1033c1 14 1 29 1 43
c0 307 -177 501 -450 501c-294 0 -519 -229 -584 -544zM925 1465c353 0 588 -246 588 -621c0 -481 -315 -866 -744 -866c-354 0 -589 246 -589 621c0 481 315 866 745 866z" />
    <glyph glyph-name="uniF51E" horiz-adv-x="1501" 
d="M1284 2053h107c-28 -133 -151 -218 -316 -218c-144 0 -229 65 -229 171c0 15 2 31 6 47h107c-2 -10 -3 -19 -3 -28c0 -64 52 -103 138 -103c98 0 173 50 190 131zM1291 1573h-108c2 10 4 19 4 29c0 63 -53 102 -140 102c-100 0 -174 -51 -191 -131h-108
c28 132 151 218 318 218c146 0 231 -66 231 -171c0 -15 -2 -31 -6 -47zM1361 684h-1038c-2 -26 -3 -52 -3 -79c0 -307 178 -501 450 -501c306 0 536 247 591 580zM339 795h1033c1 14 1 29 1 43c0 307 -177 501 -450 501c-294 0 -519 -229 -584 -544zM925 1465
c353 0 588 -246 588 -621c0 -481 -315 -866 -744 -866c-354 0 -589 246 -589 621c0 481 315 866 745 866z" />
    <glyph glyph-name="uni04EA" unicode="&#x4ea;" horiz-adv-x="1501" 
d="M1215 1612c-50 0 -92 41 -92 91c0 51 42 91 92 91s91 -40 91 -91c0 -50 -41 -91 -91 -91zM874 1612c-49 0 -91 41 -91 91c0 51 42 91 91 91c50 0 92 -40 92 -91c0 -50 -42 -91 -92 -91zM1361 684h-1038c-2 -26 -3 -52 -3 -79c0 -307 178 -501 450 -501
c306 0 536 247 591 580zM339 795h1033c1 14 1 29 1 43c0 307 -177 501 -450 501c-294 0 -519 -229 -584 -544zM925 1465c353 0 588 -246 588 -621c0 -481 -315 -866 -744 -866c-354 0 -589 246 -589 621c0 481 315 866 745 866z" />
    <glyph glyph-name="uni0472" unicode="&#x472;" horiz-adv-x="1501" 
d="M770 104c311 0 544 256 593 598c-70 -60 -163 -100 -275 -99c-238 0 -334 136 -524 136c-108 0 -185 -35 -243 -84c-1 -17 -1 -33 -1 -50c0 -307 178 -501 450 -501zM923 1339c-303 0 -533 -244 -589 -573c68 53 154 87 258 87c228 0 328 -136 524 -136
c116 0 201 41 257 95v26c0 307 -177 501 -450 501zM925 1465c353 0 588 -246 588 -621c0 -481 -315 -866 -744 -866c-354 0 -589 246 -589 621c0 481 315 866 745 866z" />
    <glyph glyph-name="Pecyrillic" unicode="&#x41f;" horiz-adv-x="1383" 
d="M1185 0h-137l280 1318h-824l-280 -1318h-139l307 1443h1100z" />
    <glyph glyph-name="uni0524" unicode="&#x524;" horiz-adv-x="1479" 
d="M1492 1443l-281 -1319h185l-87 -409h-128l61 285h-57h-137l280 1318h-824l-280 -1318h-139l307 1443h1100z" />
    <glyph glyph-name="Dzhecyrillic" unicode="&#x40f;" horiz-adv-x="1383" 
d="M1185 0h-460l-61 -285h-123l61 285h-517l307 1443h137l-281 -1318h825l280 1318h139z" />
    <glyph glyph-name="Ercyrillic" unicode="&#x420;" horiz-adv-x="1205" 
d="M394 1443h475c241 0 416 -153 416 -385c0 -320 -248 -514 -583 -514h-361l-116 -544h-140zM507 1321l-140 -655h330c264 0 446 139 446 380c0 168 -119 275 -317 275h-319z" />
    <glyph glyph-name="uni048E" unicode="&#x48e;" horiz-adv-x="1205" 
d="M792 965l115 -264c146 56 236 175 236 345c0 168 -119 275 -317 275h-319l-140 -655h330c29 0 56 2 83 5l-102 247zM394 1443h475c241 0 416 -153 416 -385c0 -231 -129 -396 -326 -470l105 -238l-132 -59l-107 262c-40 -6 -81 -9 -123 -9h-361l-116 -544h-140z" />
    <glyph glyph-name="uniF4D4" horiz-adv-x="1205" 
d="M394 1443h475c241 0 416 -153 416 -385c0 -320 -248 -514 -583 -514h-361l-116 -544h-140zM507 1321l-140 -655h330c264 0 446 139 446 380c0 168 -119 275 -317 275h-319zM747 1558l-212 294h122l149 -209h4l238 209h140l-337 -294h-104z" />
    <glyph glyph-name="Escyrillic" unicode="&#x421;" horiz-adv-x="1392" 
d="M1325 976c0 5 -1 11 -2 17c-14 210 -178 346 -411 346c-344 0 -592 -318 -592 -742c0 -302 173 -493 445 -493c213 0 384 114 457 307h139c-82 -266 -313 -433 -599 -433c-353 0 -582 241 -582 613c0 496 311 874 735 874c314 0 533 -186 547 -470c1 -10 1 -13 1 -19
h-138z" />
    <glyph glyph-name="uni04AA" unicode="&#x4aa;" horiz-adv-x="1392" 
d="M1463 976h-138c0 5 -1 11 -2 17c-14 210 -178 346 -411 346c-344 0 -592 -318 -592 -742c0 -302 173 -493 445 -493c213 0 384 114 457 307h139c-80 -258 -300 -423 -574 -433l-71 -118c118 -1 187 -54 187 -148c0 -114 -94 -188 -232 -188c-62 0 -129 13 -173 33l19 90
c43 -19 91 -30 145 -30c83 0 135 31 135 87c0 53 -49 79 -151 82l-56 1l14 59l79 136c-308 34 -503 266 -503 609c0 496 311 874 735 874c314 0 533 -186 547 -470c1 -10 1 -13 1 -19z" />
    <glyph glyph-name="uniF53E" horiz-adv-x="1392" 
d="M1463 976h-138c0 5 -1 11 -2 17c-14 210 -178 346 -411 346c-344 0 -592 -318 -592 -742c0 -302 173 -493 445 -493c213 0 384 114 457 307h139c-78 -254 -292 -417 -559 -432l-57 -264h-123l57 268c-306 35 -499 266 -499 608c0 496 311 874 735 874
c314 0 533 -186 547 -470c1 -10 1 -13 1 -19z" />
    <glyph glyph-name="Tecyrillic" unicode="&#x422;" horiz-adv-x="1198" 
d="M612 0h-139l280 1319h-482l26 124h1104l-26 -124h-482z" />
    <glyph glyph-name="uni04AC" unicode="&#x4ac;" horiz-adv-x="1198" 
d="M297 1443h1104l-26 -124h-482l-255 -1195h183l-87 -409h-127l61 285h-56h-138h-1l280 1319h-482z" />
    <glyph glyph-name="Ucyrillic" unicode="&#x423;" horiz-adv-x="1203" 
d="M219 -10c-36 0 -62 6 -74 12l26 124c12 -4 37 -9 73 -9c114 0 194 52 303 208l-262 1118h143l216 -961h12l606 961h156l-693 -1072c-173 -267 -289 -381 -506 -381z" />
    <glyph glyph-name="Ushortcyrillic" unicode="&#x40e;" horiz-adv-x="1203" 
d="M219 -10c-36 0 -62 6 -74 12l26 124c12 -4 37 -9 73 -9c114 0 194 52 303 208l-262 1118h143l216 -961h12l606 961h156l-693 -1072c-173 -267 -289 -381 -506 -381zM599 1820h120c-23 -112 44 -182 156 -182c113 0 211 70 235 182h120c-36 -173 -178 -274 -364 -274
c-188 0 -304 101 -267 274z" />
    <glyph glyph-name="uni04EE" unicode="&#x4ee;" horiz-adv-x="1203" 
d="M219 -10c-36 0 -62 6 -74 12l26 124c12 -4 37 -9 73 -9c114 0 194 52 303 208l-262 1118h143l216 -961h12l606 961h156l-693 -1072c-173 -267 -289 -381 -506 -381zM1208 1720l-20 -92h-617l20 92h617z" />
    <glyph glyph-name="uni04F0" unicode="&#x4f0;" horiz-adv-x="1203" 
d="M219 -10c-36 0 -62 6 -74 12l26 124c12 -4 37 -9 73 -9c114 0 194 52 303 208l-262 1118h143l216 -961h12l606 961h156l-693 -1072c-173 -267 -289 -381 -506 -381zM722 1612c-49 0 -91 41 -91 91c0 51 42 91 91 91c50 0 92 -40 92 -91c0 -50 -42 -91 -92 -91zM1063 1612
c-50 0 -92 41 -92 91c0 51 42 91 92 91s91 -40 91 -91c0 -50 -41 -91 -91 -91z" />
    <glyph glyph-name="uni04F2" unicode="&#x4f2;" horiz-adv-x="1203" 
d="M219 -10c-36 0 -62 6 -74 12l26 124c12 -4 37 -9 73 -9c114 0 194 52 303 208l-262 1118h143l216 -961h12l606 961h156l-693 -1072c-173 -267 -289 -381 -506 -381zM1077 1558h-124l305 288h153zM779 1558h-124l305 288h152z" />
    <glyph glyph-name="uniF4CC" horiz-adv-x="1203" 
d="M219 -10c-36 0 -62 6 -74 12l26 124c12 -4 37 -9 73 -9c114 0 194 52 303 208l-262 1118h143l216 -961h12l606 961h156l-693 -1072c-173 -267 -289 -381 -506 -381zM928 1558h-129l304 288h158z" />
    <glyph glyph-name="uniF464" horiz-adv-x="1203" 
d="M219 -10c-36 0 -62 6 -74 12l26 124c12 -4 37 -9 73 -9c114 0 194 52 303 208l-262 1118h143l216 -961h12l606 961h156l-693 -1072c-173 -267 -289 -381 -506 -381zM928 1558h-129l304 288h158z" />
    <glyph glyph-name="Efcyrillic" unicode="&#x424;" horiz-adv-x="1579" 
d="M797 -17h-136l33 154c-333 10 -534 192 -534 485c0 392 329 682 784 691l31 147h135l-31 -147c333 -10 534 -192 534 -485c0 -392 -328 -682 -784 -691zM300 625c0 -225 157 -360 420 -365l198 930c-359 -9 -618 -246 -618 -565zM1474 825c0 225 -158 360 -421 365
l-198 -930c359 9 619 246 619 565z" />
    <glyph glyph-name="Xacyrillic" unicode="&#x425;" horiz-adv-x="1265" 
d="M-18 0l662 731l-345 712h156l291 -614h5l548 614h177l-660 -731l344 -712h-156l-291 615h-6l-548 -615h-177z" />
    <glyph glyph-name="uni04B2" unicode="&#x4b2;" horiz-adv-x="1347" 
d="M816 712l284 -588h175l-87 -409h-128l61 285h-110h-7l-291 615h-6l-548 -615h-177l662 731l-345 712h156l291 -614h5l548 614h177z" />
    <glyph glyph-name="uni04FE" unicode="&#x4fe;" horiz-adv-x="1265" 
d="M1476 1443l-602 -667h336l-23 -109h-349l322 -667h-156l-291 615h-6l-548 -615h-177l604 667h-348l23 109h361l-323 667h156l291 -614h5l548 614h177z" />
    <glyph glyph-name="uni04FC" unicode="&#x4fc;" horiz-adv-x="1261" 
d="M299 1443h156l291 -614h5l548 614h177l-660 -730l201 -414c40 -82 67 -147 88 -212c19 -55 26 -98 26 -152c0 -188 -134 -314 -334 -314c-37 0 -64 2 -83 7l24 115c14 -4 36 -7 61 -7c115 0 195 77 195 187c0 35 -5 66 -16 103c-17 56 -42 118 -81 200l-184 389h-6
l-548 -615h-176l661 731z" />
    <glyph glyph-name="Tsecyrillic" unicode="&#x426;" horiz-adv-x="1475" 
d="M1307 -285h-128l61 285h-1153l308 1443h140l-281 -1318h816l280 1318h142l-281 -1319h183z" />
    <glyph glyph-name="uni04B4" unicode="&#x4b4;" horiz-adv-x="1827" 
d="M1844 1443l-281 -1319h183l-87 -409h-128l61 285h-1153l282 1319h-450l26 124h450h139h451l-26 -124h-451l-254 -1194h816l280 1318h142z" />
    <glyph glyph-name="Checyrillic" unicode="&#x427;" horiz-adv-x="1278" 
d="M1080 0h-140l144 676h-12c-85 -65 -223 -123 -400 -123c-313 0 -472 217 -408 519l79 371h140l-80 -372c-49 -231 54 -391 292 -391c195 0 344 73 420 144l132 619h140z" />
    <glyph glyph-name="uni04F4" unicode="&#x4f4;" horiz-adv-x="1278" 
d="M1080 0h-140l144 676h-12c-85 -65 -223 -123 -400 -123c-313 0 -472 217 -408 519l79 371h140l-80 -372c-49 -231 54 -391 292 -391c195 0 344 73 420 144l132 619h140zM769 1612c-49 0 -91 41 -91 91c0 51 42 91 91 91c50 0 92 -40 92 -91c0 -50 -42 -91 -92 -91z
M1110 1612c-50 0 -92 41 -92 91c0 51 42 91 92 91s91 -40 91 -91c0 -50 -41 -91 -91 -91z" />
    <glyph glyph-name="uni04B6" unicode="&#x4b6;" horiz-adv-x="1372" 
d="M1387 1443l-281 -1319h183l-87 -409h-128l61 285h-55h-139h-1l144 676h-12c-85 -65 -223 -123 -400 -123c-313 0 -472 217 -408 519l79 371h140l-80 -372c-49 -231 54 -391 292 -391c195 0 344 73 420 144l132 619h140z" />
    <glyph glyph-name="uni04CB" unicode="&#x4cb;" horiz-adv-x="1278" 
d="M1387 1443l-281 -1319h1l-27 -124h-140h-54l-66 -285h-127l95 409h178l118 552h-12c-85 -65 -223 -123 -400 -123c-313 0 -472 217 -408 519l79 371h140l-80 -372c-49 -231 54 -391 292 -391c195 0 344 73 420 144l132 619h140z" />
    <glyph glyph-name="uniF4C6" horiz-adv-x="1278" 
d="M1247 1443h140l-307 -1443l-15 -71c-45 -215 -149 -299 -372 -299h-24l25 116h22c123 0 183 50 212 191l13 63h-1l144 676h-12c-85 -65 -223 -123 -400 -123c-313 0 -472 217 -408 519l79 371h140l-80 -372c-49 -231 54 -391 292 -391c195 0 344 73 420 144z" />
    <glyph glyph-name="uni04B8" unicode="&#x4b8;" horiz-adv-x="1279" 
d="M1247 1443h140l-307 -1443h-140l144 676h-12c-73 -55 -184 -106 -325 -119l-65 -307h-113l65 304c-288 17 -431 229 -370 518l79 371h140l-80 -372c-47 -220 44 -375 258 -390l76 357h113l-75 -354c156 17 275 79 340 140z" />
    <glyph glyph-name="uni04BA" unicode="&#x4ba;" horiz-adv-x="1292" 
d="M392 1443h139l-139 -652h12c87 62 228 129 397 129c334 0 476 -218 415 -508l-88 -412h-139l87 410c51 239 -64 383 -302 383c-187 0 -338 -86 -413 -150l-137 -643h-139z" />
    <glyph glyph-name="uniF49E" horiz-adv-x="1292" 
d="M392 791h12c87 62 228 129 397 129c334 0 476 -218 415 -508l-88 -412h-139l87 410c51 239 -64 383 -302 383c-187 0 -338 -86 -413 -150l-137 -643h-139l249 1169h-149l26 124h149l32 150h139l-32 -150h443l-27 -124h-442z" />
    <glyph glyph-name="uni0526" unicode="&#x526;" horiz-adv-x="1420" 
d="M1154 124h183l-87 -409h-128l61 285h-55h-139l87 410c51 239 -64 383 -302 383c-187 0 -338 -86 -413 -150l-137 -643h-139l307 1443h139l-139 -652h12c87 62 228 129 397 129c334 0 476 -218 415 -508z" />
    <glyph glyph-name="Tshecyrillic" unicode="&#x40b;" horiz-adv-x="1656" 
d="M1140 766c-179 0 -335 -103 -407 -198l-121 -568h-139l280 1319h-482l27 124h1104l-27 -124h-483l-122 -576h13c89 76 219 147 382 147c287 0 439 -193 373 -504l-83 -386h-139l83 392c51 241 -53 374 -259 374z" />
    <glyph glyph-name="Shacyrillic" unicode="&#x428;" horiz-adv-x="1832" 
d="M85 0l307 1443h139l-281 -1319h565l281 1319h140l-281 -1319h565l281 1319h139l-307 -1443h-1548z" />
    <glyph glyph-name="Shchacyrillic" unicode="&#x429;" horiz-adv-x="1900" 
d="M1755 -285h-127l61 285h-1604l307 1443h139l-281 -1319h565l281 1319h140l-281 -1319h565l281 1319h139l-281 -1319h183z" />
    <glyph glyph-name="Hardsigncyrillic" unicode="&#x42a;" horiz-adv-x="1438" 
d="M854 0h-538l281 1319h-339l27 124h478l-119 -558h307c268 0 447 -153 447 -388c0 -294 -233 -497 -544 -497zM924 763h-305l-137 -641h359c239 0 415 151 415 367c0 176 -130 274 -332 274z" />
    <glyph glyph-name="Yericyrillic" unicode="&#x42b;" horiz-adv-x="1606" 
d="M693 763h-306l-137 -641h360c238 0 414 151 414 367c0 180 -133 274 -331 274zM85 0l307 1443h139l-118 -558h307c263 0 446 -150 446 -388c0 -296 -234 -497 -543 -497h-538zM1411 0h-139l307 1443h139z" />
    <glyph glyph-name="uni04F8" unicode="&#x4f8;" horiz-adv-x="1606" 
d="M693 763h-306l-137 -641h360c238 0 414 151 414 367c0 180 -133 274 -331 274zM85 0l307 1443h139l-118 -558h307c263 0 446 -150 446 -388c0 -296 -234 -497 -543 -497h-538zM1411 0h-139l307 1443h139zM862 1612c-49 0 -91 41 -91 91c0 51 42 91 91 91
c50 0 92 -40 92 -91c0 -50 -42 -91 -92 -91zM1203 1612c-50 0 -92 41 -92 91c0 51 42 91 92 91s91 -40 91 -91c0 -50 -41 -91 -91 -91z" />
    <glyph glyph-name="uniF520" horiz-adv-x="1606" 
d="M693 763h-306l-137 -641h360c238 0 414 151 414 367c0 180 -133 274 -331 274zM85 0l307 1443h139l-118 -558h307c263 0 446 -150 446 -388c0 -296 -234 -497 -543 -497h-538zM1411 0h-139l307 1443h139zM1348 1720l-20 -92h-617l20 92h617z" />
    <glyph glyph-name="uniF536" horiz-adv-x="1606" 
d="M693 763h-306l-137 -641h360c238 0 414 151 414 367c0 180 -133 274 -331 274zM85 0l307 1443h139l-118 -558h307c263 0 446 -150 446 -388c0 -296 -234 -497 -543 -497h-538zM1411 0h-139l307 1443h139zM738 1820h120c-23 -112 44 -182 156 -182c113 0 211 70 235 182
h120c-36 -173 -178 -274 -364 -274c-188 0 -304 101 -267 274z" />
    <glyph glyph-name="uniF465" horiz-adv-x="1606" 
d="M693 763h-306l-137 -641h360c238 0 414 151 414 367c0 180 -133 274 -331 274zM85 0l307 1443h139l-118 -558h307c263 0 446 -150 446 -388c0 -296 -234 -497 -543 -497h-538zM1411 0h-139l307 1443h139zM1068 1558h-129l304 288h158z" />
    <glyph glyph-name="uni048C" unicode="&#x48c;" horiz-adv-x="1390" 
d="M448 122h359c239 0 415 151 415 367c0 180 -134 274 -331 274h-306zM610 885h307c263 0 447 -150 447 -388c0 -296 -235 -497 -543 -497h-539l250 1178h-323l24 117h324l45 211h139l-45 -211h419l-24 -117h-419z" />
    <glyph glyph-name="uni0462" unicode="&#x462;" horiz-adv-x="1390" 
d="M448 122h359c239 0 415 151 415 367c0 180 -134 274 -331 274h-306zM610 885h307c263 0 447 -150 447 -388c0 -296 -235 -497 -543 -497h-539l250 1178h-323l24 117h324l45 211h139l-45 -211h419l-24 -117h-419z" />
    <glyph glyph-name="Softsigncyrillic" unicode="&#x42c;" horiz-adv-x="1192" 
d="M693 763h-306l-137 -641h360c238 0 414 151 414 367c0 180 -133 274 -331 274zM85 0l307 1443h139l-118 -558h307c263 0 446 -150 446 -388c0 -296 -234 -497 -543 -497h-538z" />
    <glyph glyph-name="Ljecyrillic" unicode="&#x409;" horiz-adv-x="2080" 
d="M461 510c-90 -332 -206 -519 -446 -519c-25 0 -48 4 -63 10l26 123c11 -4 36 -7 53 -7c151 0 233 157 299 400l252 926h834l-116 -544h307c263 0 446 -153 446 -391c0 -270 -220 -508 -546 -508h-538l281 1319h-567zM1580 777h-305l-140 -655h359c240 0 417 158 417 366
c0 192 -133 289 -331 289z" />
    <glyph glyph-name="Njecyrillic" unicode="&#x40a;" horiz-adv-x="2085" 
d="M1006 0l145 677h-781l-144 -677h-139l307 1443h139l-136 -642h779l137 642h140l-137 -643h320c249 0 423 -138 423 -350c0 -239 -204 -450 -522 -450h-531zM1171 122h352c242 0 394 133 394 312c0 160 -124 244 -308 244h-319z" />
    <glyph glyph-name="Ereversedcyrillic" unicode="&#x42d;" horiz-adv-x="1377" 
d="M643 -22c-279 0 -498 187 -514 437h141c28 -189 181 -311 389 -311c286 0 510 224 578 574h-677l26 122h669c24 324 -138 537 -408 537c-216 0 -388 -123 -474 -339h-139c88 293 321 467 626 467c376 0 586 -302 518 -746c-59 -448 -346 -741 -735 -741z" />
    <glyph glyph-name="uni04EC" unicode="&#x4ec;" horiz-adv-x="1378" 
d="M643 -22c-279 0 -498 187 -514 437h141c28 -189 181 -311 389 -311c286 0 510 224 578 574h-677l26 122h669c24 324 -138 537 -408 537c-216 0 -388 -123 -474 -339h-139c88 293 321 467 626 467c376 0 586 -302 518 -746c-59 -448 -346 -741 -735 -741zM750 1612
c-49 0 -91 41 -91 91c0 51 42 91 91 91c50 0 92 -40 92 -91c0 -50 -42 -91 -92 -91zM1091 1612c-50 0 -92 41 -92 91c0 51 42 91 92 91s91 -40 91 -91c0 -50 -41 -91 -91 -91z" />
    <glyph glyph-name="uniF522" horiz-adv-x="1378" 
d="M643 -22c-279 0 -498 187 -514 437h141c28 -189 181 -311 389 -311c286 0 510 224 578 574h-677l26 122h669c24 324 -138 537 -408 537c-216 0 -388 -123 -474 -339h-139c88 293 321 467 626 467c376 0 586 -302 518 -746c-59 -448 -346 -741 -735 -741zM1236 1720
l-20 -92h-617l20 92h617z" />
    <glyph glyph-name="uniF466" horiz-adv-x="1378" 
d="M643 -22c-279 0 -498 187 -514 437h141c28 -189 181 -311 389 -311c286 0 510 224 578 574h-677l26 122h669c24 324 -138 537 -408 537c-216 0 -388 -123 -474 -339h-139c88 293 321 467 626 467c376 0 586 -302 518 -746c-59 -448 -346 -741 -735 -741zM957 1558h-129
l304 288h158z" />
    <glyph glyph-name="uniF524" horiz-adv-x="1378" 
d="M643 -22c-279 0 -498 187 -514 437h141c28 -189 181 -311 389 -311c286 0 510 224 578 574h-677l26 122h669c24 324 -138 537 -408 537c-216 0 -388 -123 -474 -339h-139c88 293 321 467 626 467c376 0 586 -302 518 -746c-59 -448 -346 -741 -735 -741zM627 1820h120
c-23 -112 44 -182 156 -182c113 0 211 70 235 182h120c-36 -173 -178 -274 -364 -274c-188 0 -304 101 -267 274z" />
    <glyph glyph-name="uniF4D6" horiz-adv-x="1378" 
d="M643 -22c-279 0 -498 187 -514 437h141c28 -189 181 -311 389 -311c286 0 510 224 578 574h-677l26 122h669c24 324 -138 537 -408 537c-216 0 -388 -123 -474 -339h-139c88 293 321 467 626 467c376 0 586 -302 518 -746c-59 -448 -346 -741 -735 -741zM925 1625
c-57 0 -104 47 -104 104s47 104 104 104s104 -47 104 -104s-47 -104 -104 -104z" />
    <glyph glyph-name="IUcyrillic" unicode="&#x42e;" horiz-adv-x="1969" 
d="M1239 104c348 0 603 325 603 740c0 301 -171 495 -438 495c-353 0 -603 -333 -603 -740c0 -301 171 -495 438 -495zM395 801h286c76 379 356 664 723 664c351 0 578 -247 578 -617c0 -485 -318 -870 -743 -870c-351 0 -578 247 -578 616c0 28 1 56 3 83h-296l-144 -677
h-139l307 1443h139z" />
    <glyph glyph-name="uniF52C" horiz-adv-x="1969" 
d="M1348 1720l-20 -92h-617l20 92h617zM1239 104c348 0 603 325 603 740c0 301 -171 495 -438 495c-353 0 -603 -333 -603 -740c0 -301 171 -495 438 -495zM395 801h286c76 379 356 664 723 664c351 0 578 -247 578 -617c0 -485 -318 -870 -743 -870
c-351 0 -578 247 -578 616c0 28 1 56 3 83h-296l-144 -677h-139l307 1443h139z" />
    <glyph glyph-name="uniF467" horiz-adv-x="1969" 
d="M1401 1846l-333 -288h-129l304 288h158zM1239 104c348 0 603 325 603 740c0 301 -171 495 -438 495c-353 0 -603 -333 -603 -740c0 -301 171 -495 438 -495zM395 801h286c76 379 356 664 723 664c351 0 578 -247 578 -617c0 -485 -318 -870 -743 -870
c-351 0 -578 247 -578 616c0 28 1 56 3 83h-296l-144 -677h-139l307 1443h139z" />
    <glyph glyph-name="uniF52E" horiz-adv-x="1969" 
d="M1250 1820h120c-36 -173 -178 -274 -364 -274c-188 0 -304 101 -267 274h120c-23 -112 44 -182 156 -182c113 0 211 70 235 182zM1239 104c348 0 603 325 603 740c0 301 -171 495 -438 495c-353 0 -603 -333 -603 -740c0 -301 171 -495 438 -495zM395 801h286
c76 379 356 664 723 664c351 0 578 -247 578 -617c0 -485 -318 -870 -743 -870c-351 0 -578 247 -578 616c0 28 1 56 3 83h-296l-144 -677h-139l307 1443h139z" />
    <glyph glyph-name="uniF498" horiz-adv-x="1969" 
d="M1203 1612c-50 0 -92 41 -92 91c0 51 42 91 92 91s91 -40 91 -91c0 -50 -41 -91 -91 -91zM862 1612c-49 0 -91 41 -91 91c0 51 42 91 91 91c50 0 92 -40 92 -91c0 -50 -42 -91 -92 -91zM1239 104c348 0 603 325 603 740c0 301 -171 495 -438 495
c-353 0 -603 -333 -603 -740c0 -301 171 -495 438 -495zM395 801h286c76 379 356 664 723 664c351 0 578 -247 578 -617c0 -485 -318 -870 -743 -870c-351 0 -578 247 -578 616c0 28 1 56 3 83h-296l-144 -677h-139l307 1443h139z" />
    <glyph glyph-name="IAcyrillic" unicode="&#x42f;" horiz-adv-x="1248" 
d="M746 687h310l135 634h-360c-239 0 -417 -153 -417 -353c0 -183 130 -281 332 -281zM718 566l-517 -566h-178l536 587c-178 49 -287 182 -287 361c0 261 219 495 546 495h538l-307 -1443h-139l120 565h-298c-5 0 -10 0 -14 1z" />
    <glyph glyph-name="uniF528" horiz-adv-x="1248" 
d="M746 687h310l135 634h-360c-239 0 -417 -153 -417 -353c0 -183 130 -281 332 -281zM718 566l-517 -566h-178l536 587c-178 49 -287 182 -287 361c0 261 219 495 546 495h538l-307 -1443h-139l120 565h-298c-5 0 -10 0 -14 1zM1286 1720l-20 -92h-617l20 92h617z" />
    <glyph glyph-name="uniF468" horiz-adv-x="1248" 
d="M746 687h310l135 634h-360c-239 0 -417 -153 -417 -353c0 -183 130 -281 332 -281zM718 566l-517 -566h-178l536 587c-178 49 -287 182 -287 361c0 261 219 495 546 495h538l-307 -1443h-139l120 565h-298c-5 0 -10 0 -14 1zM1006 1558h-129l304 288h158z" />
    <glyph glyph-name="uniF4D9" horiz-adv-x="1248" 
d="M746 687h310l135 634h-360c-239 0 -417 -153 -417 -353c0 -183 130 -281 332 -281zM718 566l-517 -566h-178l536 587c-178 49 -287 182 -287 361c0 261 219 495 546 495h538l-307 -1443h-139l120 565h-298c-5 0 -10 0 -14 1zM800 1612c-49 0 -91 41 -91 91
c0 51 42 91 91 91c50 0 92 -40 92 -91c0 -50 -42 -91 -92 -91zM1141 1612c-50 0 -92 41 -92 91c0 51 42 91 92 91s91 -40 91 -91c0 -50 -41 -91 -91 -91z" />
    <glyph glyph-name="uniF52A" horiz-adv-x="1248" 
d="M746 687h310l135 634h-360c-239 0 -417 -153 -417 -353c0 -183 130 -281 332 -281zM718 566l-517 -566h-178l536 587c-178 49 -287 182 -287 361c0 261 219 495 546 495h538l-307 -1443h-139l120 565h-298c-5 0 -10 0 -14 1zM676 1820h120c-23 -112 44 -182 156 -182
c113 0 211 70 235 182h120c-36 -173 -178 -274 -364 -274c-188 0 -304 101 -267 274z" />
    <glyph glyph-name="uni0494" unicode="&#x494;" horiz-adv-x="1244" 
d="M1166 1443l-26 -124h-638l-123 -578h14c81 73 214 149 397 149c245 0 384 -142 384 -367c0 -289 -212 -537 -509 -537c-75 0 -122 8 -137 15l27 123c16 -6 61 -13 115 -13c218 0 365 193 365 401c0 160 -101 254 -277 254c-180 0 -346 -102 -416 -198l-120 -568h-137
l307 1443h774z" />
    <glyph glyph-name="uni04A6" unicode="&#x4a6;" horiz-adv-x="2130" 
d="M392 1443h1033l-149 -702h14c80 73 214 149 396 149c246 0 385 -142 385 -367c0 -289 -212 -537 -509 -537c-75 0 -122 8 -137 15l27 123c16 -6 61 -13 115 -13c218 0 365 193 365 401c0 160 -102 254 -277 254c-180 0 -346 -102 -416 -198l-121 -568h-135l281 1318h-761
l-281 -1318h-137z" />
    <glyph glyph-name="Ecyrillic" unicode="&#x404;" horiz-adv-x="1396" 
d="M1346 411c-89 -274 -323 -441 -622 -441c-374 0 -603 279 -524 755c58 431 345 748 752 748c270 0 503 -184 514 -448c1 -6 1 -19 1 -23h-139c-6 205 -174 344 -392 344c-283 0 -511 -221 -587 -545h693l-26 -124h-689c-45 -352 115 -580 411 -580c227 0 397 131 468 314
h140z" />
    <glyph glyph-name="uniF526" horiz-adv-x="1396" 
d="M1346 411c-89 -274 -323 -441 -622 -441c-374 0 -603 279 -524 755c58 431 345 748 752 748c270 0 503 -184 514 -448c1 -6 1 -19 1 -23h-139c-6 205 -174 344 -392 344c-283 0 -511 -221 -587 -545h693l-26 -124h-689c-45 -352 115 -580 411 -580c227 0 397 131 468 314
h140zM830 1612c-49 0 -91 41 -91 91c0 51 42 91 91 91c50 0 92 -40 92 -91c0 -50 -42 -91 -92 -91zM1171 1612c-50 0 -92 41 -92 91c0 51 42 91 92 91s91 -40 91 -91c0 -50 -41 -91 -91 -91z" />
    <glyph glyph-name="uni04C0" unicode="&#x4c0;" horiz-adv-x="423" 
d="M224 0h-139l307 1443h139z" />
    <glyph glyph-name="Icyrillic" unicode="&#x406;" horiz-adv-x="423" 
d="M224 0h-139l307 1443h139z" />
    <glyph glyph-name="Yicyrillic" unicode="&#x407;" horiz-adv-x="423" 
d="M224 0h-139l307 1443h139zM344 1612c-49 0 -91 41 -91 91c0 51 42 91 91 91c50 0 92 -40 92 -91c0 -50 -42 -91 -92 -91zM685 1612c-50 0 -92 41 -92 91c0 51 42 91 92 91s91 -40 91 -91c0 -50 -41 -91 -91 -91z" />
    <glyph glyph-name="uni04C0.1" horiz-adv-x="895" 
d="M1030 1325h-288l-257 -1207h288l-25 -118h-288h-139h-288l25 118h288l257 1207h-288l25 118h288h139h288z" />
    <glyph glyph-name="Icyrillic.1" horiz-adv-x="895" 
d="M1030 1325h-288l-257 -1207h288l-25 -118h-288h-139h-288l25 118h288l257 1207h-288l25 118h288h139h288z" />
    <glyph glyph-name="Yicyrillic.1" horiz-adv-x="895" 
d="M920 1612c-50 0 -92 41 -92 91c0 51 42 91 92 91s91 -40 91 -91c0 -50 -41 -91 -91 -91zM579 1612c-49 0 -91 41 -91 91c0 51 42 91 91 91c50 0 92 -40 92 -91c0 -50 -42 -91 -92 -91zM1030 1325h-288l-257 -1207h288l-25 -118h-288h-139h-288l25 118h288l257 1207h-288
l25 118h288h139h288z" />
    <glyph glyph-name="uni04A8" unicode="&#x4a8;" horiz-adv-x="1916" 
d="M1035 650c0 -183 81 -355 213 -458c280 124 471 388 471 662c0 203 -100 322 -271 322c-239 0 -413 -241 -413 -526zM976 1480l-28 -135c-383 -59 -627 -336 -627 -712c0 -312 214 -529 537 -529c87 0 172 12 256 38c-132 122 -220 309 -220 502c0 361 235 658 555 658
c263 0 413 -160 413 -435c0 -308 -211 -610 -508 -743c48 -20 106 -29 186 -29c110 0 206 24 278 68l32 -112c-92 -49 -191 -73 -315 -73c-129 0 -228 25 -316 82c-109 -53 -241 -82 -377 -82c-408 0 -668 262 -668 660c0 445 334 802 802 842z" />
    <glyph glyph-name="uni04AE" unicode="&#x4ae;" horiz-adv-x="1229" 
d="M629 0h-140l132 631l-342 812h145l288 -691h4l574 691h160l-693 -831z" />
    <glyph glyph-name="uniF43A" horiz-adv-x="1229" 
d="M629 0h-140l132 631l-342 812h145l288 -691h4l574 691h160l-693 -831zM1231 1720l-20 -92h-617l20 92h617z" />
    <glyph glyph-name="uni04B0" unicode="&#x4b0;" 
d="M1445 1443l-654 -784h396l-25 -118h-425l-113 -541h-140l113 541h-430l26 118h411l-330 784h145l288 -691h4l574 691h160z" />
    <glyph glyph-name="uni04BC" unicode="&#x4bc;" horiz-adv-x="1697" 
d="M608 840h962c5 25 7 44 7 82c0 258 -152 415 -408 415c-259 0 -486 -195 -561 -497zM444 840h25c89 371 368 625 708 625c358 0 564 -233 538 -615c0 -43 -6 -85 -14 -128h-1116c-3 -15 -6 -54 -6 -84c-20 -326 129 -531 422 -531c196 0 360 87 454 241h149
c-106 -227 -339 -370 -607 -370c-377 0 -579 248 -557 654c1 31 4 61 8 90h-18c-162 0 -256 78 -256 224c0 77 33 164 83 227h118c-48 -73 -78 -144 -78 -205c0 -89 47 -128 147 -128z" />
    <glyph glyph-name="uni04BE" unicode="&#x4be;" horiz-adv-x="1697" 
d="M608 840h962c5 25 7 44 7 82c0 258 -152 415 -408 415c-259 0 -486 -195 -561 -497zM444 840h25c89 371 368 625 708 625c358 0 564 -233 538 -615c0 -43 -6 -85 -14 -128h-1116c-3 -15 -6 -54 -6 -84c-20 -326 129 -531 422 -531c196 0 360 87 454 241h149
c-100 -213 -311 -352 -559 -368l-56 -265h-124l56 267c-328 31 -501 272 -481 650c1 31 4 61 8 90h-18c-162 0 -256 78 -256 224c0 77 33 164 83 227h118c-48 -73 -78 -144 -78 -205c0 -89 47 -128 147 -128z" />
    <glyph glyph-name="uni04D4" unicode="&#x4d4;" horiz-adv-x="1867" 
d="M1177 1327h-161l-527 -766h525zM894 0l95 443h-578l-301 -443h-149l985 1443h1067l-27 -124h-672l-111 -526h635l-26 -122h-636l-116 -547h672l-26 -124h-812z" />
    <glyph glyph-name="uni04D8" unicode="&#x18f;" horiz-adv-x="1436" 
d="M700 -22c-361 0 -562 233 -534 624c0 43 5 85 14 128h1114c5 29 7 57 7 75c18 326 -130 531 -425 531c-194 0 -358 -87 -453 -244h-149c106 228 340 373 605 373c381 0 581 -252 561 -654c-21 -494 -331 -833 -740 -833zM706 106c268 0 496 197 565 506h-960
c-6 -26 -8 -47 -8 -88c0 -262 146 -418 403 -418z" />
    <glyph glyph-name="uni04D8" unicode="&#x4d8;" horiz-adv-x="1436" 
d="M700 -22c-361 0 -562 233 -534 624c0 43 5 85 14 128h1114c5 29 7 57 7 75c18 326 -130 531 -425 531c-194 0 -358 -87 -453 -244h-149c106 228 340 373 605 373c381 0 581 -252 561 -654c-21 -494 -331 -833 -740 -833zM706 106c268 0 496 197 565 506h-960
c-6 -26 -8 -47 -8 -88c0 -262 146 -418 403 -418z" />
    <glyph glyph-name="uni04DA" unicode="&#x4da;" horiz-adv-x="1436" 
d="M700 -22c-361 0 -562 233 -534 624c0 43 5 85 14 128h1114c5 29 7 57 7 75c18 326 -130 531 -425 531c-194 0 -358 -87 -453 -244h-149c106 228 340 373 605 373c381 0 581 -252 561 -654c-21 -494 -331 -833 -740 -833zM706 106c268 0 496 197 565 506h-960
c-6 -26 -8 -47 -8 -88c0 -262 146 -418 403 -418zM766 1612c-49 0 -91 41 -91 91c0 51 42 91 91 91c50 0 92 -40 92 -91c0 -50 -42 -91 -92 -91zM1107 1612c-50 0 -92 41 -92 91c0 51 42 91 92 91s91 -40 91 -91c0 -50 -41 -91 -91 -91z" />
    <glyph glyph-name="uniF49C" horiz-adv-x="1436" 
d="M700 -22c-361 0 -562 233 -534 624c0 43 5 85 14 128h1114c5 29 7 57 7 75c18 326 -130 531 -425 531c-194 0 -358 -87 -453 -244h-149c106 228 340 373 605 373c381 0 581 -252 561 -654c-21 -494 -331 -833 -740 -833zM706 106c268 0 496 197 565 506h-960
c-6 -26 -8 -47 -8 -88c0 -262 146 -418 403 -418zM1252 1720l-20 -92h-617l20 92h617z" />
    <glyph glyph-name="uni04E0" unicode="&#x4e0;" horiz-adv-x="1147" 
d="M555 -23c-288 0 -478 163 -467 390c0 6 1 12 2 18h133c-12 -169 125 -288 342 -288c229 0 397 158 397 360c0 183 -134 285 -376 285h-103l22 106l531 459l2 12h-686l27 124h896l-21 -100l-584 -498v-1c284 -8 432 -155 432 -370c0 -289 -231 -497 -547 -497z" />
    <glyph glyph-name="uni0510" unicode="&#x510;" horiz-adv-x="1169" 
d="M866 684h-181c-286 0 -436 -130 -436 -320c0 -157 131 -267 336 -267c207 0 365 110 400 275h137c-43 -240 -256 -395 -544 -395c-283 0 -470 151 -470 378c0 217 158 383 410 404l1 5c-130 33 -217 137 -217 283c0 237 206 419 501 419c280 0 459 -161 425 -386h-126
c14 161 -108 267 -307 267c-207 0 -357 -128 -357 -291c0 -154 123 -248 313 -248h139z" />
    <glyph glyph-name="uniF538" horiz-adv-x="1169" 
d="M866 684h-181c-286 0 -436 -130 -436 -320c0 -157 131 -267 336 -267c207 0 365 110 400 275h137c-43 -240 -256 -395 -544 -395c-283 0 -470 151 -470 378c0 217 158 383 410 404l1 5c-130 33 -217 137 -217 283c0 237 206 419 501 419c280 0 459 -161 425 -386h-126
c14 161 -108 267 -307 267c-207 0 -357 -128 -357 -291c0 -154 123 -248 313 -248h139zM711 1613c-49 0 -91 41 -91 91c0 51 42 91 91 91c50 0 92 -40 92 -91c0 -50 -42 -91 -92 -91zM1052 1613c-50 0 -92 41 -92 91c0 51 42 91 92 91s91 -40 91 -91c0 -50 -41 -91 -91 -91z
" />
    <glyph glyph-name="uni0474" unicode="&#x474;" horiz-adv-x="1431" 
d="M649 0h-139l-231 1443h132l200 -1261h4l605 1053c52 91 97 145 146 179c45 32 95 46 155 46c63 0 121 -14 158 -38l-63 -113c-35 15 -61 21 -90 21c-38 0 -67 -10 -97 -35c-31 -25 -60 -66 -103 -139z" />
    <glyph glyph-name="uni051C" unicode="&#x51c;" horiz-adv-x="1855" 
d="M1123 1212l-605 -1212h-134l-90 1443h129l68 -1225h4l608 1225h129l101 -1224h4l580 1224h145l-698 -1443h-133l-104 1212h-4z" />
    <glyph glyph-name="Djecyrillic" unicode="&#x402;" horiz-adv-x="1646" 
d="M490 0l281 1320h-482l26 123h1104l-26 -123h-483l-123 -579h11c90 91 227 149 364 149c265 0 418 -153 418 -406c0 -294 -204 -498 -498 -498c-59 0 -125 7 -147 15l27 123c20 -8 75 -13 122 -13c204 0 357 153 357 359c0 188 -104 296 -293 296
c-145 0 -309 -84 -398 -198l-120 -568h-140z" />
    <glyph glyph-name="Dzecyrillic" unicode="&#x405;" horiz-adv-x="1224" 
d="M110 416h137c17 -186 176 -314 413 -314c210 0 364 105 364 281c0 134 -80 207 -266 271l-107 37c-241 83 -352 193 -352 378c0 235 200 396 486 396c284 0 493 -160 498 -410h-137c-10 168 -149 286 -363 286c-218 0 -343 -121 -343 -262c0 -122 81 -197 273 -263
l108 -38c233 -78 346 -193 346 -370c0 -229 -183 -430 -509 -430c-301 0 -539 168 -548 438z" />
    <glyph glyph-name="Jecyrillic" unicode="&#x408;" horiz-adv-x="1006" 
d="M70 318v22h138v-6c0 -139 99 -229 250 -229c154 0 255 100 295 290l222 1048h139l-229 -1083c-51 -242 -207 -383 -441 -383c-218 0 -374 145 -374 341z" />
    <glyph glyph-name="a" unicode="a" horiz-adv-x="1001" 
d="M435 97c167 0 312 110 347 267l31 141l-310 -17c-186 -10 -292 -86 -292 -210c0 -110 91 -181 224 -181zM402 -17c-183 0 -325 116 -325 281c0 200 157 315 427 330l331 18l16 74c5 22 6 43 6 63c0 118 -85 191 -234 191c-158 0 -260 -79 -286 -199h-138
c33 187 200 316 434 316c216 0 357 -118 357 -290c0 -31 -3 -62 -8 -89l-144 -678h-128l33 153h-3c-73 -104 -198 -170 -338 -170z" />
    <glyph glyph-name="agrave" unicode="&#xe0;" horiz-adv-x="1001" 
d="M435 97c167 0 312 110 347 267l31 141l-310 -17c-186 -10 -292 -86 -292 -210c0 -110 91 -181 224 -181zM402 -17c-183 0 -325 116 -325 281c0 200 157 315 427 330l331 18l16 74c5 22 6 43 6 63c0 118 -85 191 -234 191c-158 0 -260 -79 -286 -199h-138
c33 187 200 316 434 316c216 0 357 -118 357 -290c0 -31 -3 -62 -8 -89l-144 -678h-128l33 153h-3c-73 -104 -198 -170 -338 -170zM745 1222h-109l-183 302h136z" />
    <glyph glyph-name="aacute" unicode="&#xe1;" horiz-adv-x="1001" 
d="M435 97c167 0 312 110 347 267l31 141l-310 -17c-186 -10 -292 -86 -292 -210c0 -110 91 -181 224 -181zM402 -17c-183 0 -325 116 -325 281c0 200 157 315 427 330l331 18l16 74c5 22 6 43 6 63c0 118 -85 191 -234 191c-158 0 -260 -79 -286 -199h-138
c33 187 200 316 434 316c216 0 357 -118 357 -290c0 -31 -3 -62 -8 -89l-144 -678h-128l33 153h-3c-73 -104 -198 -170 -338 -170zM741 1222h-127l286 302h152z" />
    <glyph glyph-name="adieresis" unicode="&#xe4;" horiz-adv-x="1001" 
d="M435 97c167 0 312 110 347 267l31 141l-310 -17c-186 -10 -292 -86 -292 -210c0 -110 91 -181 224 -181zM402 -17c-183 0 -325 116 -325 281c0 200 157 315 427 330l331 18l16 74c5 22 6 43 6 63c0 118 -85 191 -234 191c-158 0 -260 -79 -286 -199h-138
c33 187 200 316 434 316c216 0 357 -118 357 -290c0 -31 -3 -62 -8 -89l-144 -678h-128l33 153h-3c-73 -104 -198 -170 -338 -170zM529 1227c-49 0 -91 41 -91 91c0 51 42 91 91 91c50 0 92 -40 92 -91c0 -50 -42 -91 -92 -91zM870 1227c-50 0 -92 41 -92 91
c0 51 42 91 92 91s91 -40 91 -91c0 -50 -41 -91 -91 -91z" />
    <glyph glyph-name="adieresismacron" unicode="&#x1df;" horiz-adv-x="1001" 
d="M435 97c167 0 312 110 347 267l31 141l-310 -17c-186 -10 -292 -86 -292 -210c0 -110 91 -181 224 -181zM402 -17c-183 0 -325 116 -325 281c0 200 157 315 427 330l331 18l16 74c5 22 6 43 6 63c0 118 -85 191 -234 191c-158 0 -260 -79 -286 -199h-138
c33 187 200 316 434 316c216 0 357 -118 357 -290c0 -31 -3 -62 -8 -89l-144 -678h-128l33 153h-3c-73 -104 -198 -170 -338 -170zM529 1209c-49 0 -91 41 -91 91c0 51 42 91 91 91c50 0 92 -40 92 -91c0 -50 -42 -91 -92 -91zM870 1209c-50 0 -92 41 -92 91
c0 51 42 91 92 91c49 0 91 -40 91 -91c0 -50 -42 -91 -91 -91zM1052 1668l-19 -92h-550l19 92h550z" />
    <glyph glyph-name="aring" unicode="&#xe5;" horiz-adv-x="1001" 
d="M435 97c167 0 312 110 347 267l31 141l-310 -17c-186 -10 -292 -86 -292 -210c0 -110 91 -181 224 -181zM402 -17c-183 0 -325 116 -325 281c0 200 157 315 427 330l331 18l16 74c5 22 6 43 6 63c0 118 -85 191 -234 191c-158 0 -260 -79 -286 -199h-138
c33 187 200 316 434 316c216 0 357 -118 357 -290c0 -31 -3 -62 -8 -89l-144 -678h-128l33 153h-3c-73 -104 -198 -170 -338 -170zM701 1156c-98 0 -180 70 -180 176c0 109 82 188 185 188c100 0 181 -69 180 -176c-1 -109 -80 -188 -185 -188zM701 1226
c66 0 113 47 112 116c-1 64 -44 108 -107 108c-65 0 -112 -46 -112 -116c0 -64 46 -108 107 -108z" />
    <glyph glyph-name="aringacute" unicode="&#x1fb;" horiz-adv-x="1001" 
d="M435 97c167 0 312 110 347 267l31 141l-310 -17c-186 -10 -292 -86 -292 -210c0 -110 91 -181 224 -181zM402 -17c-183 0 -325 116 -325 281c0 200 157 315 427 330l331 18l16 74c5 22 6 43 6 63c0 118 -85 191 -234 191c-158 0 -260 -79 -286 -199h-138
c33 187 200 316 434 316c216 0 357 -118 357 -290c0 -31 -3 -62 -8 -89l-144 -678h-128l33 153h-3c-73 -104 -198 -170 -338 -170zM703 1621l174 186h132l-188 -186h-118zM708 1180c-98 0 -179 70 -179 176c0 109 81 189 185 189c99 0 181 -70 180 -176
c-1 -109 -81 -189 -186 -189zM602 1358c0 -64 45 -108 106 -108c67 0 114 47 113 117c-1 64 -45 108 -107 108c-65 0 -112 -47 -112 -117z" />
    <glyph glyph-name="atilde" unicode="&#xe3;" horiz-adv-x="1001" 
d="M435 97c167 0 312 110 347 267l31 141l-310 -17c-186 -10 -292 -86 -292 -210c0 -110 91 -181 224 -181zM402 -17c-183 0 -325 116 -325 281c0 200 157 315 427 330l331 18l16 74c5 22 6 43 6 63c0 118 -85 191 -234 191c-158 0 -260 -79 -286 -199h-138
c33 187 200 316 434 316c216 0 357 -118 357 -290c0 -31 -3 -62 -8 -89l-144 -678h-128l33 153h-3c-73 -104 -198 -170 -338 -170zM827 1228c-132 0 -156 157 -246 157c-51 0 -97 -52 -114 -147h-93c26 149 109 237 214 237c138 0 160 -157 246 -157c47 0 92 49 112 147h93
c-30 -148 -111 -237 -212 -237z" />
    <glyph glyph-name="abrevegrave" unicode="&#x1eb1;" horiz-adv-x="1001" 
d="M435 97c167 0 312 110 347 267l31 141l-310 -17c-186 -10 -292 -86 -292 -210c0 -110 91 -181 224 -181zM402 -17c-183 0 -325 116 -325 281c0 200 157 315 427 330l331 18l16 74c5 22 6 43 6 63c0 118 -85 191 -234 191c-158 0 -260 -79 -286 -199h-138
c33 187 200 316 434 316c216 0 357 -118 357 -290c0 -31 -3 -62 -8 -89l-144 -678h-128l33 153h-3c-73 -104 -198 -170 -338 -170zM805 1512h-103l-176 298h119zM1028 1490c-31 -176 -160 -286 -346 -286c-149 0 -260 90 -260 225c0 23 3 43 8 61h99c-3 -13 -6 -29 -6 -45
c0 -95 67 -154 173 -154c117 0 212 76 232 199h100z" />
    <glyph glyph-name="adotmacron" unicode="&#x1e1;" horiz-adv-x="1001" 
d="M435 97c167 0 312 110 347 267l31 141l-310 -17c-186 -10 -292 -86 -292 -210c0 -110 91 -181 224 -181zM402 -17c-183 0 -325 116 -325 281c0 200 157 315 427 330l331 18l16 74c5 22 6 43 6 63c0 118 -85 191 -234 191c-158 0 -260 -79 -286 -199h-138
c33 187 200 316 434 316c216 0 357 -118 357 -290c0 -31 -3 -62 -8 -89l-144 -678h-128l33 153h-3c-73 -104 -198 -170 -338 -170zM700 1202c-56 0 -100 45 -100 101s44 100 100 100c57 0 101 -44 101 -100s-44 -101 -101 -101zM1052 1668l-19 -92h-550l19 92h550z" />
    <glyph glyph-name="aringbelow" unicode="&#x1e01;" horiz-adv-x="1001" 
d="M435 97c167 0 312 110 347 267l31 141l-310 -17c-186 -10 -292 -86 -292 -210c0 -110 91 -181 224 -181zM402 -17c-183 0 -325 116 -325 281c0 200 157 315 427 330l331 18l16 74c5 22 6 43 6 63c0 118 -85 191 -234 191c-158 0 -260 -79 -286 -199h-138
c33 187 200 316 434 316c216 0 357 -118 357 -290c0 -31 -3 -62 -8 -89l-144 -678h-128l33 153h-3c-73 -104 -198 -170 -338 -170zM408 -476c-98 0 -180 70 -180 176c0 109 82 188 185 188c100 0 181 -69 180 -176c-1 -109 -80 -188 -185 -188zM408 -406
c66 0 113 47 112 116c-1 64 -44 108 -107 108c-65 0 -112 -46 -112 -116c0 -64 46 -108 107 -108z" />
    <glyph glyph-name="acircumflex" unicode="&#xe2;" horiz-adv-x="1001" 
d="M435 97c167 0 312 110 347 267l31 141l-310 -17c-186 -10 -292 -86 -292 -210c0 -110 91 -181 224 -181zM402 -17c-183 0 -325 116 -325 281c0 200 157 315 427 330l331 18l16 74c5 22 6 43 6 63c0 118 -85 191 -234 191c-158 0 -260 -79 -286 -199h-138
c33 187 200 316 434 316c216 0 357 -118 357 -290c0 -31 -3 -62 -8 -89l-144 -678h-128l33 153h-3c-73 -104 -198 -170 -338 -170zM800 1524l201 -302h-124l-142 216h-4l-234 -216h-134l330 302h107z" />
    <glyph glyph-name="acircumflexdotbelow" unicode="&#x1ead;" horiz-adv-x="1001" 
d="M435 97c167 0 312 110 347 267l31 141l-310 -17c-186 -10 -292 -86 -292 -210c0 -110 91 -181 224 -181zM402 -17c-183 0 -325 116 -325 281c0 200 157 315 427 330l331 18l16 74c5 22 6 43 6 63c0 118 -85 191 -234 191c-158 0 -260 -79 -286 -199h-138
c33 187 200 316 434 316c216 0 357 -118 357 -290c0 -31 -3 -62 -8 -89l-144 -678h-128l33 153h-3c-73 -104 -198 -170 -338 -170zM800 1524l201 -302h-124l-142 216h-4l-234 -216h-134l330 302h107zM415 -380c-57 0 -104 47 -104 104s47 104 104 104s104 -47 104 -104
s-47 -104 -104 -104z" />
    <glyph glyph-name="acircumflexacute" unicode="&#x1ea5;" horiz-adv-x="1001" 
d="M435 97c167 0 312 110 347 267l31 141l-310 -17c-186 -10 -292 -86 -292 -210c0 -110 91 -181 224 -181zM402 -17c-183 0 -325 116 -325 281c0 200 157 315 427 330l331 18l16 74c5 22 6 43 6 63c0 118 -85 191 -234 191c-158 0 -260 -79 -286 -199h-138
c33 187 200 316 434 316c216 0 357 -118 357 -290c0 -31 -3 -62 -8 -89l-144 -678h-128l33 153h-3c-73 -104 -198 -170 -338 -170zM786 1496l213 -285h-120l-153 203h-5l-239 -203h-139l335 285h108zM921 1510l286 300h136l-303 -300h-119z" />
    <glyph glyph-name="acircumflextilde" unicode="&#x1eab;" horiz-adv-x="1001" 
d="M435 97c167 0 312 110 347 267l31 141l-310 -17c-186 -10 -292 -86 -292 -210c0 -110 91 -181 224 -181zM402 -17c-183 0 -325 116 -325 281c0 200 157 315 427 330l331 18l16 74c5 22 6 43 6 63c0 118 -85 191 -234 191c-158 0 -260 -79 -286 -199h-138
c33 187 200 316 434 316c216 0 357 -118 357 -290c0 -31 -3 -62 -8 -89l-144 -678h-128l33 153h-3c-73 -104 -198 -170 -338 -170zM786 1496l213 -285h-120l-153 203h-5l-239 -203h-139l335 285h108zM892 1579c-130 0 -157 149 -241 149c-49 0 -92 -52 -103 -130h-92
c21 135 102 217 206 217c128 0 154 -149 240 -149c47 0 86 49 101 131h92c-23 -135 -103 -218 -203 -218z" />
    <glyph glyph-name="acircumflexgrave" unicode="&#x1ea7;" horiz-adv-x="1001" 
d="M435 97c167 0 312 110 347 267l31 141l-310 -17c-186 -10 -292 -86 -292 -210c0 -110 91 -181 224 -181zM402 -17c-183 0 -325 116 -325 281c0 200 157 315 427 330l331 18l16 74c5 22 6 43 6 63c0 118 -85 191 -234 191c-158 0 -260 -79 -286 -199h-138
c33 187 200 316 434 316c216 0 357 -118 357 -290c0 -31 -3 -62 -8 -89l-144 -678h-128l33 153h-3c-73 -104 -198 -170 -338 -170zM1065 1512h-103l-176 298h119zM786 1496l213 -285h-120l-153 203h-5l-239 -203h-139l335 285h108z" />
    <glyph glyph-name="acircumflexhookabove" unicode="&#x1ea9;" horiz-adv-x="1001" 
d="M435 97c167 0 312 110 347 267l31 141l-310 -17c-186 -10 -292 -86 -292 -210c0 -110 91 -181 224 -181zM402 -17c-183 0 -325 116 -325 281c0 200 157 315 427 330l331 18l16 74c5 22 6 43 6 63c0 118 -85 191 -234 191c-158 0 -260 -79 -286 -199h-138
c33 187 200 316 434 316c216 0 357 -118 357 -290c0 -31 -3 -62 -8 -89l-144 -678h-128l33 153h-3c-73 -104 -198 -170 -338 -170zM817 1697l17 78c24 13 71 23 109 23c95 0 154 -47 154 -123c0 -84 -71 -168 -163 -196l-43 58c61 20 109 70 109 115c0 39 -32 65 -81 65
c-35 0 -70 -7 -102 -20zM786 1496l213 -285h-120l-153 203h-5l-239 -203h-139l335 285h108z" />
    <glyph glyph-name="abreve" unicode="&#x103;" horiz-adv-x="1001" 
d="M435 97c167 0 312 110 347 267l31 141l-310 -17c-186 -10 -292 -86 -292 -210c0 -110 91 -181 224 -181zM402 -17c-183 0 -325 116 -325 281c0 200 157 315 427 330l331 18l16 74c5 22 6 43 6 63c0 118 -85 191 -234 191c-158 0 -260 -79 -286 -199h-138
c33 187 200 316 434 316c216 0 357 -118 357 -290c0 -31 -3 -62 -8 -89l-144 -678h-128l33 153h-3c-73 -104 -198 -170 -338 -170zM430 1501h99c-3 -13 -6 -29 -6 -45c0 -95 67 -154 173 -154c117 0 211 76 232 199h99c-30 -176 -159 -286 -345 -286
c-149 0 -260 90 -260 225c0 23 3 43 8 61z" />
    <glyph glyph-name="abreveacute" unicode="&#x1eaf;" horiz-adv-x="1001" 
d="M435 97c167 0 312 110 347 267l31 141l-310 -17c-186 -10 -292 -86 -292 -210c0 -110 91 -181 224 -181zM402 -17c-183 0 -325 116 -325 281c0 200 157 315 427 330l331 18l16 74c5 22 6 43 6 63c0 118 -85 191 -234 191c-158 0 -260 -79 -286 -199h-138
c33 187 200 316 434 316c216 0 357 -118 357 -290c0 -31 -3 -62 -8 -89l-144 -678h-128l33 153h-3c-73 -104 -198 -170 -338 -170zM657 1510l286 300h136l-302 -300h-120zM1028 1490c-31 -176 -160 -286 -346 -286c-149 0 -260 90 -260 225c0 23 3 43 8 61h99
c-3 -13 -6 -29 -6 -45c0 -95 67 -154 173 -154c117 0 212 76 232 199h100z" />
    <glyph glyph-name="abrevetilde" unicode="&#x1eb5;" horiz-adv-x="1001" 
d="M435 97c167 0 312 110 347 267l31 141l-310 -17c-186 -10 -292 -86 -292 -210c0 -110 91 -181 224 -181zM402 -17c-183 0 -325 116 -325 281c0 200 157 315 427 330l331 18l16 74c5 22 6 43 6 63c0 118 -85 191 -234 191c-158 0 -260 -79 -286 -199h-138
c33 187 200 316 434 316c216 0 357 -118 357 -290c0 -31 -3 -62 -8 -89l-144 -678h-128l33 153h-3c-73 -104 -198 -170 -338 -170zM1028 1490c-31 -176 -160 -286 -346 -286c-149 0 -260 90 -260 225c0 23 3 43 8 61h99c-3 -13 -6 -29 -6 -45c0 -95 67 -154 173 -154
c117 0 212 76 232 199h100zM898 1579c-130 0 -157 149 -241 149c-50 0 -92 -52 -103 -130h-92c21 135 101 217 205 217c129 0 155 -149 240 -149c48 0 87 49 102 131h92c-23 -135 -103 -218 -203 -218z" />
    <glyph glyph-name="abrevehookabove" unicode="&#x1eb3;" horiz-adv-x="1001" 
d="M435 97c167 0 312 110 347 267l31 141l-310 -17c-186 -10 -292 -86 -292 -210c0 -110 91 -181 224 -181zM402 -17c-183 0 -325 116 -325 281c0 200 157 315 427 330l331 18l16 74c5 22 6 43 6 63c0 118 -85 191 -234 191c-158 0 -260 -79 -286 -199h-138
c33 187 200 316 434 316c216 0 357 -118 357 -290c0 -31 -3 -62 -8 -89l-144 -678h-128l33 153h-3c-73 -104 -198 -170 -338 -170zM608 1687l17 76c24 13 72 24 109 24c95 0 154 -48 154 -124c0 -83 -71 -167 -162 -196l-44 60c61 20 109 71 109 115c0 39 -32 65 -81 65
c-36 0 -70 -7 -102 -20zM1028 1490c-31 -176 -160 -286 -346 -286c-149 0 -260 90 -260 225c0 23 3 43 8 61h99c-3 -13 -6 -29 -6 -45c0 -95 67 -154 173 -154c117 0 212 76 232 199h100z" />
    <glyph glyph-name="abrevedotbelow" unicode="&#x1eb7;" horiz-adv-x="1001" 
d="M435 97c167 0 312 110 347 267l31 141l-310 -17c-186 -10 -292 -86 -292 -210c0 -110 91 -181 224 -181zM402 -17c-183 0 -325 116 -325 281c0 200 157 315 427 330l331 18l16 74c5 22 6 43 6 63c0 118 -85 191 -234 191c-158 0 -260 -79 -286 -199h-138
c33 187 200 316 434 316c216 0 357 -118 357 -290c0 -31 -3 -62 -8 -89l-144 -678h-128l33 153h-3c-73 -104 -198 -170 -338 -170zM430 1501h99c-3 -13 -6 -29 -6 -45c0 -95 67 -154 173 -154c117 0 211 76 232 199h99c-30 -176 -159 -286 -345 -286
c-149 0 -260 90 -260 225c0 23 3 43 8 61zM415 -380c-57 0 -104 47 -104 104s47 104 104 104s104 -47 104 -104s-47 -104 -104 -104z" />
    <glyph glyph-name="ainvertedbreve" unicode="&#x203;" horiz-adv-x="1001" 
d="M435 97c167 0 312 110 347 267l31 141l-310 -17c-186 -10 -292 -86 -292 -210c0 -110 91 -181 224 -181zM402 -17c-183 0 -325 116 -325 281c0 200 157 315 427 330l331 18l16 74c5 22 6 43 6 63c0 118 -85 191 -234 191c-158 0 -260 -79 -286 -199h-138
c33 187 200 316 434 316c216 0 357 -118 357 -290c0 -31 -3 -62 -8 -89l-144 -678h-128l33 153h-3c-73 -104 -198 -170 -338 -170zM981 1204h-100c3 10 6 26 6 42c0 95 -66 158 -173 158c-116 0 -210 -79 -232 -200h-99c31 175 159 286 346 286c148 0 259 -94 259 -228
c0 -22 -3 -43 -7 -58z" />
    <glyph glyph-name="acaron" unicode="&#x1ce;" horiz-adv-x="1001" 
d="M435 97c167 0 312 110 347 267l31 141l-310 -17c-186 -10 -292 -86 -292 -210c0 -110 91 -181 224 -181zM402 -17c-183 0 -325 116 -325 281c0 200 157 315 427 330l331 18l16 74c5 22 6 43 6 63c0 118 -85 191 -234 191c-158 0 -260 -79 -286 -199h-138
c33 187 200 316 434 316c216 0 357 -118 357 -290c0 -31 -3 -62 -8 -89l-144 -678h-128l33 153h-3c-73 -104 -198 -170 -338 -170zM744 1222h-107l-201 302h121l140 -219h5l235 219h138z" />
    <glyph glyph-name="adotaccent" unicode="&#x227;" horiz-adv-x="1001" 
d="M435 97c167 0 312 110 347 267l31 141l-310 -17c-186 -10 -292 -86 -292 -210c0 -110 91 -181 224 -181zM402 -17c-183 0 -325 116 -325 281c0 200 157 315 427 330l331 18l16 74c5 22 6 43 6 63c0 118 -85 191 -234 191c-158 0 -260 -79 -286 -199h-138
c33 187 200 316 434 316c216 0 357 -118 357 -290c0 -31 -3 -62 -8 -89l-144 -678h-128l33 153h-3c-73 -104 -198 -170 -338 -170zM701 1222c-57 0 -104 47 -104 104s47 104 104 104s104 -47 104 -104s-47 -104 -104 -104z" />
    <glyph glyph-name="adotbelow" unicode="&#x1ea1;" horiz-adv-x="1001" 
d="M435 97c167 0 312 110 347 267l31 141l-310 -17c-186 -10 -292 -86 -292 -210c0 -110 91 -181 224 -181zM402 -17c-183 0 -325 116 -325 281c0 200 157 315 427 330l331 18l16 74c5 22 6 43 6 63c0 118 -85 191 -234 191c-158 0 -260 -79 -286 -199h-138
c33 187 200 316 434 316c216 0 357 -118 357 -290c0 -31 -3 -62 -8 -89l-144 -678h-128l33 153h-3c-73 -104 -198 -170 -338 -170zM415 -380c-57 0 -104 47 -104 104s47 104 104 104s104 -47 104 -104s-47 -104 -104 -104z" />
    <glyph glyph-name="ahookabove" unicode="&#x1ea3;" horiz-adv-x="1001" 
d="M435 97c167 0 312 110 347 267l31 141l-310 -17c-186 -10 -292 -86 -292 -210c0 -110 91 -181 224 -181zM402 -17c-183 0 -325 116 -325 281c0 200 157 315 427 330l331 18l16 74c5 22 6 43 6 63c0 118 -85 191 -234 191c-158 0 -260 -79 -286 -199h-138
c33 187 200 316 434 316c216 0 357 -118 357 -290c0 -31 -3 -62 -8 -89l-144 -678h-128l33 153h-3c-73 -104 -198 -170 -338 -170zM570 1424l18 84c25 14 69 24 116 24c91 0 160 -57 160 -134c0 -94 -73 -173 -183 -206l-36 68c75 24 113 69 113 118c0 41 -34 70 -84 70
c-36 0 -76 -9 -104 -24z" />
    <glyph glyph-name="adblgrave" unicode="&#x201;" horiz-adv-x="1001" 
d="M435 97c167 0 312 110 347 267l31 141l-310 -17c-186 -10 -292 -86 -292 -210c0 -110 91 -181 224 -181zM402 -17c-183 0 -325 116 -325 281c0 200 157 315 427 330l331 18l16 74c5 22 6 43 6 63c0 118 -85 191 -234 191c-158 0 -260 -79 -286 -199h-138
c33 187 200 316 434 316c216 0 357 -118 357 -290c0 -31 -3 -62 -8 -89l-144 -678h-128l33 153h-3c-73 -104 -198 -170 -338 -170zM598 1222h-101l-180 302h134zM882 1222h-101l-179 302h133z" />
    <glyph glyph-name="amacron" unicode="&#x101;" horiz-adv-x="1001" 
d="M435 97c167 0 312 110 347 267l31 141l-310 -17c-186 -10 -292 -86 -292 -210c0 -110 91 -181 224 -181zM402 -17c-183 0 -325 116 -325 281c0 200 157 315 427 330l331 18l16 74c5 22 6 43 6 63c0 118 -85 191 -234 191c-158 0 -260 -79 -286 -199h-138
c33 187 200 316 434 316c216 0 357 -118 357 -290c0 -31 -3 -62 -8 -89l-144 -678h-128l33 153h-3c-73 -104 -198 -170 -338 -170zM991 1381l-19 -92h-550l19 92h550z" />
    <glyph glyph-name="aogonek" unicode="&#x105;" horiz-adv-x="1001" 
d="M433 103c174 0 316 108 349 261l31 141l-313 -17c-183 -10 -289 -87 -289 -210c0 -105 89 -175 222 -175zM743 -384c-16 -11 -58 -19 -99 -19c-105 0 -176 60 -176 146c0 101 79 189 246 272l29 138h-3c-72 -103 -194 -164 -340 -164c-186 0 -323 117 -323 275
c0 198 154 315 430 330l328 18l16 74c4 19 6 37 6 63c0 115 -90 185 -239 185c-150 0 -255 -73 -281 -193h-138c33 187 203 310 429 310c217 0 362 -114 362 -284c0 -36 -2 -65 -8 -89l-146 -685l-5 -2c-153 -60 -243 -139 -243 -212c0 -51 40 -83 103 -83c28 0 53 4 72 12z
" />
    <glyph glyph-name="a.1" horiz-adv-x="1123" 
d="M528 100c239 0 407 231 407 519c0 190 -117 320 -294 320c-225 0 -395 -230 -395 -511c0 -200 109 -328 282 -328zM952 0h-128l43 200h-4c-73 -128 -218 -217 -364 -217c-234 0 -386 176 -386 440c0 349 229 634 526 634c180 0 316 -111 347 -273h6l53 256h128z" />
    <glyph glyph-name="agrave.1" horiz-adv-x="1123" 
d="M528 100c239 0 407 231 407 519c0 190 -117 320 -294 320c-225 0 -395 -230 -395 -511c0 -200 109 -328 282 -328zM952 0h-128l43 200h-4c-73 -128 -218 -217 -364 -217c-234 0 -386 176 -386 440c0 349 229 634 526 634c180 0 316 -111 347 -273h6l53 256h128zM813 1222
h-109l-183 302h136z" />
    <glyph glyph-name="aacute.1" horiz-adv-x="1123" 
d="M528 100c239 0 407 231 407 519c0 190 -117 320 -294 320c-225 0 -395 -230 -395 -511c0 -200 109 -328 282 -328zM952 0h-128l43 200h-4c-73 -128 -218 -217 -364 -217c-234 0 -386 176 -386 440c0 349 229 634 526 634c180 0 316 -111 347 -273h6l53 256h128zM809 1222
h-127l286 302h152z" />
    <glyph glyph-name="adieresis.1" horiz-adv-x="1123" 
d="M528 100c239 0 407 231 407 519c0 190 -117 320 -294 320c-225 0 -395 -230 -395 -511c0 -200 109 -328 282 -328zM952 0h-128l43 200h-4c-73 -128 -218 -217 -364 -217c-234 0 -386 176 -386 440c0 349 229 634 526 634c180 0 316 -111 347 -273h6l53 256h128zM597 1227
c-49 0 -91 41 -91 91c0 51 42 91 91 91c50 0 92 -40 92 -91c0 -50 -42 -91 -92 -91zM938 1227c-50 0 -92 41 -92 91c0 51 42 91 92 91s91 -40 91 -91c0 -50 -41 -91 -91 -91z" />
    <glyph glyph-name="adieresismacron.1" horiz-adv-x="1123" 
d="M528 100c239 0 407 231 407 519c0 190 -117 320 -294 320c-225 0 -395 -230 -395 -511c0 -200 109 -328 282 -328zM952 0h-128l43 200h-4c-73 -128 -218 -217 -364 -217c-234 0 -386 176 -386 440c0 349 229 634 526 634c180 0 316 -111 347 -273h6l53 256h128zM597 1209
c-49 0 -91 41 -91 91c0 51 42 91 91 91c50 0 92 -40 92 -91c0 -50 -42 -91 -92 -91zM938 1209c-50 0 -92 41 -92 91c0 51 42 91 92 91c49 0 91 -40 91 -91c0 -50 -42 -91 -91 -91zM1120 1668l-19 -92h-550l19 92h550z" />
    <glyph glyph-name="aring.1" horiz-adv-x="1123" 
d="M528 100c239 0 407 231 407 519c0 190 -117 320 -294 320c-225 0 -395 -230 -395 -511c0 -200 109 -328 282 -328zM952 0h-128l43 200h-4c-73 -128 -218 -217 -364 -217c-234 0 -386 176 -386 440c0 349 229 634 526 634c180 0 316 -111 347 -273h6l53 256h128zM769 1156
c-98 0 -180 70 -180 176c0 109 82 188 185 188c100 0 181 -69 180 -176c-1 -109 -80 -188 -185 -188zM769 1226c66 0 113 47 112 116c-1 64 -44 108 -107 108c-65 0 -112 -46 -112 -116c0 -64 46 -108 107 -108z" />
    <glyph glyph-name="aringacute.1" horiz-adv-x="1123" 
d="M528 100c239 0 407 231 407 519c0 190 -117 320 -294 320c-225 0 -395 -230 -395 -511c0 -200 109 -328 282 -328zM952 0h-128l43 200h-4c-73 -128 -218 -217 -364 -217c-234 0 -386 176 -386 440c0 349 229 634 526 634c180 0 316 -111 347 -273h6l53 256h128zM771 1621
l174 186h132l-188 -186h-118zM776 1180c-98 0 -179 70 -179 176c0 109 81 189 185 189c99 0 181 -70 180 -176c-1 -109 -81 -189 -186 -189zM670 1358c0 -64 45 -108 106 -108c67 0 114 47 113 117c-1 64 -45 108 -107 108c-65 0 -112 -47 -112 -117z" />
    <glyph glyph-name="atilde.1" horiz-adv-x="1123" 
d="M528 100c239 0 407 231 407 519c0 190 -117 320 -294 320c-225 0 -395 -230 -395 -511c0 -200 109 -328 282 -328zM952 0h-128l43 200h-4c-73 -128 -218 -217 -364 -217c-234 0 -386 176 -386 440c0 349 229 634 526 634c180 0 316 -111 347 -273h6l53 256h128zM895 1228
c-132 0 -156 157 -246 157c-51 0 -97 -52 -114 -147h-93c26 149 109 237 214 237c138 0 160 -157 246 -157c47 0 92 49 112 147h93c-30 -148 -111 -237 -212 -237z" />
    <glyph glyph-name="abrevegrave.1" horiz-adv-x="1123" 
d="M528 100c239 0 407 231 407 519c0 190 -117 320 -294 320c-225 0 -395 -230 -395 -511c0 -200 109 -328 282 -328zM952 0h-128l43 200h-4c-73 -128 -218 -217 -364 -217c-234 0 -386 176 -386 440c0 349 229 634 526 634c180 0 316 -111 347 -273h6l53 256h128zM873 1512
h-103l-176 298h119zM1096 1490c-31 -176 -160 -286 -346 -286c-149 0 -260 90 -260 225c0 23 3 43 8 61h99c-3 -13 -6 -29 -6 -45c0 -95 67 -154 173 -154c117 0 212 76 232 199h100z" />
    <glyph glyph-name="adotmacron.1" horiz-adv-x="1123" 
d="M528 100c239 0 407 231 407 519c0 190 -117 320 -294 320c-225 0 -395 -230 -395 -511c0 -200 109 -328 282 -328zM952 0h-128l43 200h-4c-73 -128 -218 -217 -364 -217c-234 0 -386 176 -386 440c0 349 229 634 526 634c180 0 316 -111 347 -273h6l53 256h128zM768 1202
c-56 0 -100 45 -100 101s44 100 100 100c57 0 101 -44 101 -100s-44 -101 -101 -101zM1120 1668l-19 -92h-550l19 92h550z" />
    <glyph glyph-name="aringbelow.1" horiz-adv-x="1123" 
d="M528 100c239 0 407 231 407 519c0 190 -117 320 -294 320c-225 0 -395 -230 -395 -511c0 -200 109 -328 282 -328zM952 0h-128l43 200h-4c-73 -128 -218 -217 -364 -217c-234 0 -386 176 -386 440c0 349 229 634 526 634c180 0 316 -111 347 -273h6l53 256h128zM443 -476
c-98 0 -180 70 -180 176c0 109 82 188 185 188c100 0 181 -69 180 -176c-1 -109 -80 -188 -185 -188zM443 -406c66 0 113 47 112 116c-1 64 -44 108 -107 108c-65 0 -112 -46 -112 -116c0 -64 46 -108 107 -108z" />
    <glyph glyph-name="acircumflex.1" horiz-adv-x="1123" 
d="M528 100c239 0 407 231 407 519c0 190 -117 320 -294 320c-225 0 -395 -230 -395 -511c0 -200 109 -328 282 -328zM952 0h-128l43 200h-4c-73 -128 -218 -217 -364 -217c-234 0 -386 176 -386 440c0 349 229 634 526 634c180 0 316 -111 347 -273h6l53 256h128zM868 1524
l201 -302h-124l-142 216h-4l-234 -216h-134l330 302h107z" />
    <glyph glyph-name="acircumflexdotbelow.1" horiz-adv-x="1123" 
d="M528 100c239 0 407 231 407 519c0 190 -117 320 -294 320c-225 0 -395 -230 -395 -511c0 -200 109 -328 282 -328zM952 0h-128l43 200h-4c-73 -128 -218 -217 -364 -217c-234 0 -386 176 -386 440c0 349 229 634 526 634c180 0 316 -111 347 -273h6l53 256h128zM868 1524
l201 -302h-124l-142 216h-4l-234 -216h-134l330 302h107zM450 -380c-57 0 -104 47 -104 104s47 104 104 104s104 -47 104 -104s-47 -104 -104 -104z" />
    <glyph glyph-name="acircumflexacute.1" horiz-adv-x="1123" 
d="M528 100c239 0 407 231 407 519c0 190 -117 320 -294 320c-225 0 -395 -230 -395 -511c0 -200 109 -328 282 -328zM952 0h-128l43 200h-4c-73 -128 -218 -217 -364 -217c-234 0 -386 176 -386 440c0 349 229 634 526 634c180 0 316 -111 347 -273h6l53 256h128zM854 1496
l213 -285h-120l-153 203h-5l-239 -203h-139l335 285h108zM989 1510l286 300h136l-303 -300h-119z" />
    <glyph glyph-name="acircumflextilde.1" horiz-adv-x="1123" 
d="M528 100c239 0 407 231 407 519c0 190 -117 320 -294 320c-225 0 -395 -230 -395 -511c0 -200 109 -328 282 -328zM952 0h-128l43 200h-4c-73 -128 -218 -217 -364 -217c-234 0 -386 176 -386 440c0 349 229 634 526 634c180 0 316 -111 347 -273h6l53 256h128zM854 1496
l213 -285h-120l-153 203h-5l-239 -203h-139l335 285h108zM960 1579c-130 0 -157 149 -241 149c-49 0 -92 -52 -103 -130h-92c21 135 102 217 206 217c128 0 154 -149 240 -149c47 0 86 49 101 131h92c-23 -135 -103 -218 -203 -218z" />
    <glyph glyph-name="acircumflexgrave.1" horiz-adv-x="1123" 
d="M528 100c239 0 407 231 407 519c0 190 -117 320 -294 320c-225 0 -395 -230 -395 -511c0 -200 109 -328 282 -328zM952 0h-128l43 200h-4c-73 -128 -218 -217 -364 -217c-234 0 -386 176 -386 440c0 349 229 634 526 634c180 0 316 -111 347 -273h6l53 256h128z
M1133 1512h-103l-176 298h119zM854 1496l213 -285h-120l-153 203h-5l-239 -203h-139l335 285h108z" />
    <glyph glyph-name="acircumflexhookabove.1" horiz-adv-x="1123" 
d="M528 100c239 0 407 231 407 519c0 190 -117 320 -294 320c-225 0 -395 -230 -395 -511c0 -200 109 -328 282 -328zM952 0h-128l43 200h-4c-73 -128 -218 -217 -364 -217c-234 0 -386 176 -386 440c0 349 229 634 526 634c180 0 316 -111 347 -273h6l53 256h128zM885 1697
l17 78c24 13 71 23 109 23c95 0 154 -47 154 -123c0 -84 -71 -168 -163 -196l-43 58c61 20 109 70 109 115c0 39 -32 65 -81 65c-35 0 -70 -7 -102 -20zM854 1496l213 -285h-120l-153 203h-5l-239 -203h-139l335 285h108z" />
    <glyph glyph-name="abreve.1" horiz-adv-x="1123" 
d="M528 100c239 0 407 231 407 519c0 190 -117 320 -294 320c-225 0 -395 -230 -395 -511c0 -200 109 -328 282 -328zM952 0h-128l43 200h-4c-73 -128 -218 -217 -364 -217c-234 0 -386 176 -386 440c0 349 229 634 526 634c180 0 316 -111 347 -273h6l53 256h128zM498 1501
h99c-3 -13 -6 -29 -6 -45c0 -95 67 -154 173 -154c117 0 211 76 232 199h99c-30 -176 -159 -286 -345 -286c-149 0 -260 90 -260 225c0 23 3 43 8 61z" />
    <glyph glyph-name="abreveacute.1" horiz-adv-x="1123" 
d="M528 100c239 0 407 231 407 519c0 190 -117 320 -294 320c-225 0 -395 -230 -395 -511c0 -200 109 -328 282 -328zM952 0h-128l43 200h-4c-73 -128 -218 -217 -364 -217c-234 0 -386 176 -386 440c0 349 229 634 526 634c180 0 316 -111 347 -273h6l53 256h128zM725 1510
l286 300h136l-302 -300h-120zM1096 1490c-31 -176 -160 -286 -346 -286c-149 0 -260 90 -260 225c0 23 3 43 8 61h99c-3 -13 -6 -29 -6 -45c0 -95 67 -154 173 -154c117 0 212 76 232 199h100z" />
    <glyph glyph-name="abrevetilde.1" horiz-adv-x="1123" 
d="M528 100c239 0 407 231 407 519c0 190 -117 320 -294 320c-225 0 -395 -230 -395 -511c0 -200 109 -328 282 -328zM952 0h-128l43 200h-4c-73 -128 -218 -217 -364 -217c-234 0 -386 176 -386 440c0 349 229 634 526 634c180 0 316 -111 347 -273h6l53 256h128z
M1096 1490c-31 -176 -160 -286 -346 -286c-149 0 -260 90 -260 225c0 23 3 43 8 61h99c-3 -13 -6 -29 -6 -45c0 -95 67 -154 173 -154c117 0 212 76 232 199h100zM966 1579c-130 0 -157 149 -241 149c-50 0 -92 -52 -103 -130h-92c21 135 101 217 205 217
c129 0 155 -149 240 -149c48 0 87 49 102 131h92c-23 -135 -103 -218 -203 -218z" />
    <glyph glyph-name="abrevehookabove.1" horiz-adv-x="1123" 
d="M528 100c239 0 407 231 407 519c0 190 -117 320 -294 320c-225 0 -395 -230 -395 -511c0 -200 109 -328 282 -328zM952 0h-128l43 200h-4c-73 -128 -218 -217 -364 -217c-234 0 -386 176 -386 440c0 349 229 634 526 634c180 0 316 -111 347 -273h6l53 256h128zM676 1687
l17 76c24 13 72 24 109 24c95 0 154 -48 154 -124c0 -83 -71 -167 -162 -196l-44 60c61 20 109 71 109 115c0 39 -32 65 -81 65c-36 0 -70 -7 -102 -20zM1096 1490c-31 -176 -160 -286 -346 -286c-149 0 -260 90 -260 225c0 23 3 43 8 61h99c-3 -13 -6 -29 -6 -45
c0 -95 67 -154 173 -154c117 0 212 76 232 199h100z" />
    <glyph glyph-name="abrevedotbelow.1" horiz-adv-x="1123" 
d="M528 100c239 0 407 231 407 519c0 190 -117 320 -294 320c-225 0 -395 -230 -395 -511c0 -200 109 -328 282 -328zM952 0h-128l43 200h-4c-73 -128 -218 -217 -364 -217c-234 0 -386 176 -386 440c0 349 229 634 526 634c180 0 316 -111 347 -273h6l53 256h128zM498 1501
h99c-3 -13 -6 -29 -6 -45c0 -95 67 -154 173 -154c117 0 211 76 232 199h99c-30 -176 -159 -286 -345 -286c-149 0 -260 90 -260 225c0 23 3 43 8 61zM450 -380c-57 0 -104 47 -104 104s47 104 104 104s104 -47 104 -104s-47 -104 -104 -104z" />
    <glyph glyph-name="ainvertedbreve.1" horiz-adv-x="1123" 
d="M528 100c239 0 407 231 407 519c0 190 -117 320 -294 320c-225 0 -395 -230 -395 -511c0 -200 109 -328 282 -328zM952 0h-128l43 200h-4c-73 -128 -218 -217 -364 -217c-234 0 -386 176 -386 440c0 349 229 634 526 634c180 0 316 -111 347 -273h6l53 256h128z
M1049 1204h-100c3 10 6 26 6 42c0 95 -66 158 -173 158c-116 0 -210 -79 -232 -200h-99c31 175 159 286 346 286c148 0 259 -94 259 -228c0 -22 -3 -43 -7 -58z" />
    <glyph glyph-name="acaron.1" horiz-adv-x="1123" 
d="M528 100c239 0 407 231 407 519c0 190 -117 320 -294 320c-225 0 -395 -230 -395 -511c0 -200 109 -328 282 -328zM952 0h-128l43 200h-4c-73 -128 -218 -217 -364 -217c-234 0 -386 176 -386 440c0 349 229 634 526 634c180 0 316 -111 347 -273h6l53 256h128zM812 1222
h-107l-201 302h121l140 -219h5l235 219h138z" />
    <glyph glyph-name="adotaccent.1" horiz-adv-x="1123" 
d="M528 100c239 0 407 231 407 519c0 190 -117 320 -294 320c-225 0 -395 -230 -395 -511c0 -200 109 -328 282 -328zM952 0h-128l43 200h-4c-73 -128 -218 -217 -364 -217c-234 0 -386 176 -386 440c0 349 229 634 526 634c180 0 316 -111 347 -273h6l53 256h128zM769 1222
c-57 0 -104 47 -104 104s47 104 104 104s104 -47 104 -104s-47 -104 -104 -104z" />
    <glyph glyph-name="adotbelow.1" horiz-adv-x="1123" 
d="M528 100c239 0 407 231 407 519c0 190 -117 320 -294 320c-225 0 -395 -230 -395 -511c0 -200 109 -328 282 -328zM952 0h-128l43 200h-4c-73 -128 -218 -217 -364 -217c-234 0 -386 176 -386 440c0 349 229 634 526 634c180 0 316 -111 347 -273h6l53 256h128zM450 -380
c-57 0 -104 47 -104 104s47 104 104 104s104 -47 104 -104s-47 -104 -104 -104z" />
    <glyph glyph-name="ahookabove.1" horiz-adv-x="1123" 
d="M528 100c239 0 407 231 407 519c0 190 -117 320 -294 320c-225 0 -395 -230 -395 -511c0 -200 109 -328 282 -328zM952 0h-128l43 200h-4c-73 -128 -218 -217 -364 -217c-234 0 -386 176 -386 440c0 349 229 634 526 634c180 0 316 -111 347 -273h6l53 256h128zM638 1424
l18 84c25 14 69 24 116 24c91 0 160 -57 160 -134c0 -94 -73 -173 -183 -206l-36 68c75 24 113 69 113 118c0 41 -34 70 -84 70c-36 0 -76 -9 -104 -24z" />
    <glyph glyph-name="adblgrave.1" horiz-adv-x="1123" 
d="M528 100c239 0 407 231 407 519c0 190 -117 320 -294 320c-225 0 -395 -230 -395 -511c0 -200 109 -328 282 -328zM952 0h-128l43 200h-4c-73 -128 -218 -217 -364 -217c-234 0 -386 176 -386 440c0 349 229 634 526 634c180 0 316 -111 347 -273h6l53 256h128zM666 1222
h-101l-180 302h134zM950 1222h-101l-179 302h133z" />
    <glyph glyph-name="amacron.1" horiz-adv-x="1123" 
d="M528 100c239 0 407 231 407 519c0 190 -117 320 -294 320c-225 0 -395 -230 -395 -511c0 -200 109 -328 282 -328zM952 0h-128l43 200h-4c-73 -128 -218 -217 -364 -217c-234 0 -386 176 -386 440c0 349 229 634 526 634c180 0 316 -111 347 -273h6l53 256h128z
M1059 1381l-19 -92h-550l19 92h550z" />
    <glyph glyph-name="aogonek.1" horiz-adv-x="1123" 
d="M528 100c239 0 407 231 407 519c0 190 -117 320 -294 320c-225 0 -395 -230 -395 -511c0 -200 109 -328 282 -328zM862 -381c-17 -10 -59 -17 -98 -17c-106 0 -177 59 -177 146c0 100 76 186 240 266l40 186h-4c-73 -128 -218 -217 -364 -217c-234 0 -386 176 -386 440
c0 349 229 634 526 634c180 0 316 -111 347 -273h6l53 256h128l-222 -1046l-8 -3c-154 -59 -236 -137 -236 -208c0 -51 39 -83 103 -83c26 0 52 4 71 11z" />
    <glyph glyph-name="b" unicode="b" horiz-adv-x="1122" 
d="M595 -17c-178 0 -325 114 -353 269h-5l-53 -252h-126l307 1443h132l-126 -596h3c68 126 206 210 352 210c234 0 387 -169 387 -451c0 -325 -203 -623 -518 -623zM594 101c228 0 387 225 387 503c0 208 -105 336 -285 336c-231 0 -401 -237 -401 -519
c0 -189 120 -320 299 -320z" />
    <glyph glyph-name="blinebelow" unicode="&#x1e07;" horiz-adv-x="1123" 
d="M595 -17c-178 0 -325 114 -353 269h-5l-53 -252h-126l307 1443h132l-126 -596h3c68 126 206 210 352 210c234 0 387 -169 387 -451c0 -325 -203 -623 -518 -623zM594 101c228 0 387 225 387 503c0 208 -105 336 -285 336c-231 0 -401 -237 -401 -519
c0 -189 120 -320 299 -320zM779 -242l-20 -92h-617l20 92h617z" />
    <glyph glyph-name="bdotbelow" unicode="&#x1e05;" horiz-adv-x="1123" 
d="M595 -17c-178 0 -325 114 -353 269h-5l-53 -252h-126l307 1443h132l-126 -596h3c68 126 206 210 352 210c234 0 387 -169 387 -451c0 -325 -203 -623 -518 -623zM594 101c228 0 387 225 387 503c0 208 -105 336 -285 336c-231 0 -401 -237 -401 -519
c0 -189 120 -320 299 -320zM459 -380c-57 0 -104 47 -104 104s47 104 104 104s104 -47 104 -104s-47 -104 -104 -104z" />
    <glyph glyph-name="bdotaccent" unicode="&#x1e03;" horiz-adv-x="1123" 
d="M595 -17c-178 0 -325 114 -353 269h-5l-53 -252h-126l307 1443h132l-126 -596h3c68 126 206 210 352 210c234 0 387 -169 387 -451c0 -325 -203 -623 -518 -623zM594 101c228 0 387 225 387 503c0 208 -105 336 -285 336c-231 0 -401 -237 -401 -519
c0 -189 120 -320 299 -320zM488 1625c-57 0 -104 47 -104 104s47 104 104 104s104 -47 104 -104s-47 -104 -104 -104z" />
    <glyph glyph-name="c" unicode="c" horiz-adv-x="1021" 
d="M647 1057c255 0 398 -162 405 -351v-5h-129c-10 135 -113 239 -277 239c-228 0 -394 -213 -394 -504c0 -206 115 -336 288 -336c147 0 262 83 312 210h131c-57 -191 -233 -327 -444 -327c-270 0 -423 185 -423 448c0 353 223 626 531 626z" />
    <glyph glyph-name="cacute" unicode="&#x107;" horiz-adv-x="1021" 
d="M647 1057c255 0 398 -162 405 -351v-5h-129c-10 135 -113 239 -277 239c-228 0 -394 -213 -394 -504c0 -206 115 -336 288 -336c147 0 262 83 312 210h131c-57 -191 -233 -327 -444 -327c-270 0 -423 185 -423 448c0 353 223 626 531 626zM769 1222h-127l286 302h152z
" />
    <glyph glyph-name="ccaron" unicode="&#x10d;" horiz-adv-x="1021" 
d="M647 1057c255 0 398 -162 405 -351v-5h-129c-10 135 -113 239 -277 239c-228 0 -394 -213 -394 -504c0 -206 115 -336 288 -336c147 0 262 83 312 210h131c-57 -191 -233 -327 -444 -327c-270 0 -423 185 -423 448c0 353 223 626 531 626zM772 1222h-107l-201 302h121
l140 -219h5l235 219h138z" />
    <glyph glyph-name="ccircumflex" unicode="&#x109;" horiz-adv-x="1021" 
d="M647 1057c255 0 398 -162 405 -351v-5h-129c-10 135 -113 239 -277 239c-228 0 -394 -213 -394 -504c0 -206 115 -336 288 -336c147 0 262 83 312 210h131c-57 -191 -233 -327 -444 -327c-270 0 -423 185 -423 448c0 353 223 626 531 626zM828 1524l201 -302h-124
l-142 216h-4l-234 -216h-134l330 302h107z" />
    <glyph glyph-name="cdotaccent" unicode="&#x10b;" horiz-adv-x="1021" 
d="M647 1057c255 0 398 -162 405 -351v-5h-129c-10 135 -113 239 -277 239c-228 0 -394 -213 -394 -504c0 -206 115 -336 288 -336c147 0 262 83 312 210h131c-57 -191 -233 -327 -444 -327c-270 0 -423 185 -423 448c0 353 223 626 531 626zM729 1222
c-57 0 -104 47 -104 104s47 104 104 104s104 -47 104 -104s-47 -104 -104 -104z" />
    <glyph glyph-name="ccedilla" unicode="&#xe7;" horiz-adv-x="1021" 
d="M1052 701h-129c-10 135 -113 239 -277 239c-228 0 -394 -213 -394 -504c0 -206 115 -336 288 -336c147 0 262 83 312 210h131c-53 -179 -211 -309 -404 -325l-75 -125c118 -1 187 -54 187 -148c0 -114 -94 -188 -232 -188c-62 0 -129 13 -173 33l19 90
c43 -19 91 -30 145 -30c83 0 135 31 135 87c0 53 -49 79 -151 82l-56 1l14 59l82 141c-230 28 -358 203 -358 444c0 353 223 626 531 626c255 0 398 -162 405 -351v-5z" />
    <glyph glyph-name="ccedillaacute" unicode="&#x1e09;" horiz-adv-x="1021" 
d="M1080 1524l-311 -302h-127l286 302h152zM392 -154l82 141c-230 28 -358 203 -358 444c0 353 223 626 531 626c255 0 398 -162 405 -351v-5h-129c-10 135 -113 239 -277 239c-228 0 -394 -213 -394 -504c0 -206 115 -336 288 -336c147 0 262 83 312 210h131
c-53 -179 -211 -309 -404 -325l-75 -125c118 -1 187 -54 187 -148c0 -114 -94 -188 -232 -188c-62 0 -129 13 -173 33l19 90c43 -19 91 -30 145 -30c83 0 135 31 135 87c0 53 -49 79 -151 82l-56 1z" />
    <glyph glyph-name="d" unicode="d" horiz-adv-x="1131" 
d="M498 -17c-233 0 -384 176 -384 437c0 359 235 637 528 637c178 0 319 -114 346 -267h5l140 653h133l-307 -1443h-134l41 195h-4c-71 -124 -215 -212 -364 -212zM528 100c236 0 407 231 407 519c0 190 -114 320 -292 320c-219 0 -396 -222 -396 -512
c0 -200 107 -327 281 -327z" />
    <glyph glyph-name="ddotaccent" unicode="&#x1e0b;" horiz-adv-x="1131" 
d="M498 -17c-233 0 -384 176 -384 437c0 359 235 637 528 637c178 0 319 -114 346 -267h5l140 653h133l-307 -1443h-134l41 195h-4c-71 -124 -215 -212 -364 -212zM528 100c236 0 407 231 407 519c0 190 -114 320 -292 320c-219 0 -396 -222 -396 -512
c0 -200 107 -327 281 -327zM1261 1625c-57 0 -104 47 -104 104s47 104 104 104s104 -47 104 -104s-47 -104 -104 -104z" />
    <glyph glyph-name="dcircumflexbelow" unicode="&#x1e13;" horiz-adv-x="1131" 
d="M498 -17c-233 0 -384 176 -384 437c0 359 235 637 528 637c178 0 319 -114 346 -267h5l140 653h133l-307 -1443h-134l41 195h-4c-71 -124 -215 -212 -364 -212zM528 100c236 0 407 231 407 519c0 190 -114 320 -292 320c-219 0 -396 -222 -396 -512
c0 -200 107 -327 281 -327zM553 -165l213 -294h-121l-149 209h-5l-238 -209h-140l337 294h103z" />
    <glyph glyph-name="dcommaaccent" unicode="&#x1e11;" horiz-adv-x="1131" 
d="M498 -17c-233 0 -384 176 -384 437c0 359 235 637 528 637c178 0 319 -114 346 -267h5l140 653h133l-307 -1443h-134l41 195h-4c-71 -124 -215 -212 -364 -212zM528 100c236 0 407 231 407 519c0 190 -114 320 -292 320c-219 0 -396 -222 -396 -512
c0 -200 107 -327 281 -327zM386 -475h-104l179 351h128z" />
    <glyph glyph-name="dlinebelow" unicode="&#x1e0f;" horiz-adv-x="1131" 
d="M498 -17c-233 0 -384 176 -384 437c0 359 235 637 528 637c178 0 319 -114 346 -267h5l140 653h133l-307 -1443h-134l41 195h-4c-71 -124 -215 -212 -364 -212zM528 100c236 0 407 231 407 519c0 190 -114 320 -292 320c-219 0 -396 -222 -396 -512
c0 -200 107 -327 281 -327zM804 -242l-20 -92h-617l20 92h617z" />
    <glyph glyph-name="dcaron" unicode="&#x10f;" horiz-adv-x="1305" 
d="M1425 1443h130l-132 -444h-93zM498 -17c-233 0 -384 176 -384 437c0 359 235 637 528 637c178 0 319 -114 346 -267h5l140 653h133l-307 -1443h-134l41 195h-4c-71 -124 -215 -212 -364 -212zM528 100c236 0 407 231 407 519c0 190 -114 320 -292 320
c-219 0 -396 -222 -396 -512c0 -200 107 -327 281 -327z" />
    <glyph glyph-name="ddotbelow" unicode="&#x1e0d;" horiz-adv-x="1131" 
d="M498 -17c-233 0 -384 176 -384 437c0 359 235 637 528 637c178 0 319 -114 346 -267h5l140 653h133l-307 -1443h-134l41 195h-4c-71 -124 -215 -212 -364 -212zM528 100c236 0 407 231 407 519c0 190 -114 320 -292 320c-219 0 -396 -222 -396 -512
c0 -200 107 -327 281 -327zM484 -380c-57 0 -104 47 -104 104s47 104 104 104s104 -47 104 -104s-47 -104 -104 -104z" />
    <glyph glyph-name="dcroat" unicode="&#x111;" horiz-adv-x="1131" 
d="M528 100c236 0 407 231 407 519c0 190 -114 320 -292 320c-219 0 -396 -222 -396 -512c0 -200 107 -327 281 -327zM1355 1320l-24 -110h-115l-257 -1210h-134l41 195h-4c-71 -124 -215 -212 -364 -212c-233 0 -384 176 -384 437c0 359 235 637 528 637
c178 0 319 -114 346 -267h5l90 420h-261l23 110h262l26 123h133l-26 -123h115z" />
    <glyph glyph-name="e" unicode="e" horiz-adv-x="1047" 
d="M270 599h636c3 16 3 29 3 49c0 161 -89 293 -275 293c-185 0 -321 -146 -364 -342zM534 -19c-271 0 -420 185 -420 446c0 352 219 630 522 630c251 0 407 -163 407 -426c0 -44 -3 -97 -11 -139h-779c-3 -23 -4 -44 -4 -60c0 -206 112 -333 288 -333c156 0 270 81 321 211
h131c-57 -192 -234 -329 -455 -329z" />
    <glyph glyph-name="egrave" unicode="&#xe8;" horiz-adv-x="1047" 
d="M270 599h636c3 16 3 29 3 49c0 161 -89 293 -275 293c-185 0 -321 -146 -364 -342zM534 -19c-271 0 -420 185 -420 446c0 352 219 630 522 630c251 0 407 -163 407 -426c0 -44 -3 -97 -11 -139h-779c-3 -23 -4 -44 -4 -60c0 -206 112 -333 288 -333c156 0 270 81 321 211
h131c-57 -192 -234 -329 -455 -329zM760 1222h-109l-183 302h136z" />
    <glyph glyph-name="edblgrave" unicode="&#x205;" horiz-adv-x="1047" 
d="M270 599h636c3 16 3 29 3 49c0 161 -89 293 -275 293c-185 0 -321 -146 -364 -342zM534 -19c-271 0 -420 185 -420 446c0 352 219 630 522 630c251 0 407 -163 407 -426c0 -44 -3 -97 -11 -139h-779c-3 -23 -4 -44 -4 -60c0 -206 112 -333 288 -333c156 0 270 81 321 211
h131c-57 -192 -234 -329 -455 -329zM613 1222h-101l-180 302h134zM897 1222h-101l-179 302h133z" />
    <glyph glyph-name="eacute" unicode="&#xe9;" horiz-adv-x="1047" 
d="M270 599h636c3 16 3 29 3 49c0 161 -89 293 -275 293c-185 0 -321 -146 -364 -342zM534 -19c-271 0 -420 185 -420 446c0 352 219 630 522 630c251 0 407 -163 407 -426c0 -44 -3 -97 -11 -139h-779c-3 -23 -4 -44 -4 -60c0 -206 112 -333 288 -333c156 0 270 81 321 211
h131c-57 -192 -234 -329 -455 -329zM756 1222h-127l286 302h152z" />
    <glyph glyph-name="ecircumflex" unicode="&#xea;" horiz-adv-x="1047" 
d="M270 599h636c3 16 3 29 3 49c0 161 -89 293 -275 293c-185 0 -321 -146 -364 -342zM534 -19c-271 0 -420 185 -420 446c0 352 219 630 522 630c251 0 407 -163 407 -426c0 -44 -3 -97 -11 -139h-779c-3 -23 -4 -44 -4 -60c0 -206 112 -333 288 -333c156 0 270 81 321 211
h131c-57 -192 -234 -329 -455 -329zM815 1524l201 -302h-124l-142 216h-4l-234 -216h-134l330 302h107z" />
    <glyph glyph-name="ecircumflexhookabove" unicode="&#x1ec3;" horiz-adv-x="1047" 
d="M270 599h636c3 16 3 29 3 49c0 161 -89 293 -275 293c-185 0 -321 -146 -364 -342zM534 -19c-271 0 -420 185 -420 446c0 352 219 630 522 630c251 0 407 -163 407 -426c0 -44 -3 -97 -11 -139h-779c-3 -23 -4 -44 -4 -60c0 -206 112 -333 288 -333c156 0 270 81 321 211
h131c-57 -192 -234 -329 -455 -329zM832 1697l17 78c24 13 71 23 109 23c95 0 154 -47 154 -123c0 -84 -71 -168 -163 -196l-43 58c61 20 109 70 109 115c0 39 -32 65 -81 65c-35 0 -70 -7 -102 -20zM801 1496l213 -285h-120l-153 203h-5l-239 -203h-139l335 285h108z" />
    <glyph glyph-name="ecircumflexgrave" unicode="&#x1ec1;" horiz-adv-x="1047" 
d="M270 599h636c3 16 3 29 3 49c0 161 -89 293 -275 293c-185 0 -321 -146 -364 -342zM534 -19c-271 0 -420 185 -420 446c0 352 219 630 522 630c251 0 407 -163 407 -426c0 -44 -3 -97 -11 -139h-779c-3 -23 -4 -44 -4 -60c0 -206 112 -333 288 -333c156 0 270 81 321 211
h131c-57 -192 -234 -329 -455 -329zM1080 1512h-103l-176 298h119zM801 1496l213 -285h-120l-153 203h-5l-239 -203h-139l335 285h108z" />
    <glyph glyph-name="ecircumflextilde" unicode="&#x1ec5;" horiz-adv-x="1047" 
d="M270 599h636c3 16 3 29 3 49c0 161 -89 293 -275 293c-185 0 -321 -146 -364 -342zM534 -19c-271 0 -420 185 -420 446c0 352 219 630 522 630c251 0 407 -163 407 -426c0 -44 -3 -97 -11 -139h-779c-3 -23 -4 -44 -4 -60c0 -206 112 -333 288 -333c156 0 270 81 321 211
h131c-57 -192 -234 -329 -455 -329zM801 1496l213 -285h-120l-153 203h-5l-239 -203h-139l335 285h108zM907 1579c-130 0 -157 149 -241 149c-49 0 -92 -52 -103 -130h-92c21 135 102 217 206 217c128 0 154 -149 240 -149c47 0 86 49 101 131h92
c-23 -135 -103 -218 -203 -218z" />
    <glyph glyph-name="ecircumflexdotbelow" unicode="&#x1ec7;" horiz-adv-x="1047" 
d="M270 599h636c3 16 3 29 3 49c0 161 -89 293 -275 293c-185 0 -321 -146 -364 -342zM534 -19c-271 0 -420 185 -420 446c0 352 219 630 522 630c251 0 407 -163 407 -426c0 -44 -3 -97 -11 -139h-779c-3 -23 -4 -44 -4 -60c0 -206 112 -333 288 -333c156 0 270 81 321 211
h131c-57 -192 -234 -329 -455 -329zM815 1524l201 -302h-124l-142 216h-4l-234 -216h-134l330 302h107zM458 -380c-57 0 -104 47 -104 104s47 104 104 104s104 -47 104 -104s-47 -104 -104 -104z" />
    <glyph glyph-name="ecircumflexacute" unicode="&#x1ebf;" horiz-adv-x="1047" 
d="M270 599h636c3 16 3 29 3 49c0 161 -89 293 -275 293c-185 0 -321 -146 -364 -342zM534 -19c-271 0 -420 185 -420 446c0 352 219 630 522 630c251 0 407 -163 407 -426c0 -44 -3 -97 -11 -139h-779c-3 -23 -4 -44 -4 -60c0 -206 112 -333 288 -333c156 0 270 81 321 211
h131c-57 -192 -234 -329 -455 -329zM801 1496l213 -285h-120l-153 203h-5l-239 -203h-139l335 285h108zM936 1510l286 300h136l-303 -300h-119z" />
    <glyph glyph-name="edieresis" unicode="&#xeb;" horiz-adv-x="1047" 
d="M270 599h636c3 16 3 29 3 49c0 161 -89 293 -275 293c-185 0 -321 -146 -364 -342zM534 -19c-271 0 -420 185 -420 446c0 352 219 630 522 630c251 0 407 -163 407 -426c0 -44 -3 -97 -11 -139h-779c-3 -23 -4 -44 -4 -60c0 -206 112 -333 288 -333c156 0 270 81 321 211
h131c-57 -192 -234 -329 -455 -329zM544 1227c-49 0 -91 41 -91 91c0 51 42 91 91 91c50 0 92 -40 92 -91c0 -50 -42 -91 -92 -91zM885 1227c-50 0 -92 41 -92 91c0 51 42 91 92 91s91 -40 91 -91c0 -50 -41 -91 -91 -91z" />
    <glyph glyph-name="edotbelow" unicode="&#x1eb9;" horiz-adv-x="1047" 
d="M270 599h636c3 16 3 29 3 49c0 161 -89 293 -275 293c-185 0 -321 -146 -364 -342zM534 -19c-271 0 -420 185 -420 446c0 352 219 630 522 630c251 0 407 -163 407 -426c0 -44 -3 -97 -11 -139h-779c-3 -23 -4 -44 -4 -60c0 -206 112 -333 288 -333c156 0 270 81 321 211
h131c-57 -192 -234 -329 -455 -329zM458 -380c-57 0 -104 47 -104 104s47 104 104 104s104 -47 104 -104s-47 -104 -104 -104z" />
    <glyph glyph-name="einvertedbreve" unicode="&#x207;" horiz-adv-x="1047" 
d="M270 599h636c3 16 3 29 3 49c0 161 -89 293 -275 293c-185 0 -321 -146 -364 -342zM534 -19c-271 0 -420 185 -420 446c0 352 219 630 522 630c251 0 407 -163 407 -426c0 -44 -3 -97 -11 -139h-779c-3 -23 -4 -44 -4 -60c0 -206 112 -333 288 -333c156 0 270 81 321 211
h131c-57 -192 -234 -329 -455 -329zM996 1204h-100c3 10 6 26 6 42c0 95 -66 158 -173 158c-116 0 -210 -79 -232 -200h-99c31 175 159 286 346 286c148 0 259 -94 259 -228c0 -22 -3 -43 -7 -58z" />
    <glyph glyph-name="ehookabove" unicode="&#x1ebb;" horiz-adv-x="1047" 
d="M270 599h636c3 16 3 29 3 49c0 161 -89 293 -275 293c-185 0 -321 -146 -364 -342zM534 -19c-271 0 -420 185 -420 446c0 352 219 630 522 630c251 0 407 -163 407 -426c0 -44 -3 -97 -11 -139h-779c-3 -23 -4 -44 -4 -60c0 -206 112 -333 288 -333c156 0 270 81 321 211
h131c-57 -192 -234 -329 -455 -329zM585 1424l18 84c25 14 69 24 116 24c91 0 160 -57 160 -134c0 -94 -73 -173 -183 -206l-36 68c75 24 113 69 113 118c0 41 -34 70 -84 70c-36 0 -76 -9 -104 -24z" />
    <glyph glyph-name="ecaron" unicode="&#x11b;" horiz-adv-x="1047" 
d="M270 599h636c3 16 3 29 3 49c0 161 -89 293 -275 293c-185 0 -321 -146 -364 -342zM534 -19c-271 0 -420 185 -420 446c0 352 219 630 522 630c251 0 407 -163 407 -426c0 -44 -3 -97 -11 -139h-779c-3 -23 -4 -44 -4 -60c0 -206 112 -333 288 -333c156 0 270 81 321 211
h131c-57 -192 -234 -329 -455 -329zM759 1222h-107l-201 302h121l140 -219h5l235 219h138z" />
    <glyph glyph-name="emacron" unicode="&#x113;" horiz-adv-x="1047" 
d="M270 599h636c3 16 3 29 3 49c0 161 -89 293 -275 293c-185 0 -321 -146 -364 -342zM534 -19c-271 0 -420 185 -420 446c0 352 219 630 522 630c251 0 407 -163 407 -426c0 -44 -3 -97 -11 -139h-779c-3 -23 -4 -44 -4 -60c0 -206 112 -333 288 -333c156 0 270 81 321 211
h131c-57 -192 -234 -329 -455 -329zM1006 1381l-19 -92h-550l19 92h550z" />
    </font>
</defs>
</svg>
