<?xml version="1.0" standalone="no"?>
<!DOCTYPE svg PUBLIC "-//W3C//DTD SVG 1.1//EN" "http://www.w3.org/Graphics/SVG/1.1/DTD/svg11.dtd" >
<svg xmlns="http://www.w3.org/2000/svg" xmlns:xlink="http://www.w3.org/1999/xlink" version="1.1">
<metadata>
Created by FontForge 20201107 at Wed May 31 04:49:00 2017
 By Jimmy Wärting
(c) 2015-2017 Apple Inc. All rights reserved.
</metadata>
<defs>
<font id="SFProDisplay-BlackItalic" horiz-adv-x="0" >
  <font-face 
    font-family="SF Pro Display"
    font-weight="900"
    font-style="italic"
    font-stretch="normal"
    units-per-em="2048"
    panose-1="0 0 10 0 0 0 0 0 0 0"
    ascent="1638"
    descent="-410"
    x-height="1104"
    cap-height="1443"
    bbox="-615 -545 2894 2234"
    underline-thickness="260"
    underline-position="-380"
    slope="-12"
    stemh="335"
    stemv="420"
    unicode-range="U+0020-FB02"
  />
<missing-glyph horiz-adv-x="2048" 
d="M-95 -494l27 128h1847l-27 -128h-1847zM3 -31l28 128h1847l-27 -128h-1848zM102 432l27 129h1847l-27 -129h-1847zM200 896l28 128h1847l-27 -128h-1848zM299 1359l27 128h1847l-27 -128h-1847zM397 1822l27 128h1848l-28 -128h-1847z" />
    <glyph glyph-name=".notdef" horiz-adv-x="2048" 
d="M-95 -494l27 128h1847l-27 -128h-1847zM3 -31l28 128h1847l-27 -128h-1848zM102 432l27 129h1847l-27 -129h-1847zM200 896l28 128h1847l-27 -128h-1848zM299 1359l27 128h1847l-27 -128h-1847zM397 1822l27 128h1848l-28 -128h-1847z" />
    <glyph glyph-name=".null" 
 />
    <glyph glyph-name="nonmarkingreturn" 
 />
    <glyph glyph-name="space" unicode=" " horiz-adv-x="412" 
 />
    <glyph glyph-name="A" unicode="A" horiz-adv-x="1494" 
d="M902 1089l-247 -503h278l-22 503h-9zM959 0l-13 287h-438l-141 -287h-447l794 1443h532l148 -1443h-435z" />
    <glyph glyph-name="Agrave" unicode="&#xc0;" horiz-adv-x="1494" 
d="M902 1089l-247 -503h278l-22 503h-9zM959 0l-13 287h-438l-141 -287h-447l794 1443h532l148 -1443h-435zM862 1555l-206 321h332l164 -321h-290z" />
    <glyph glyph-name="Aacute" unicode="&#xc1;" horiz-adv-x="1494" 
d="M902 1089l-247 -503h278l-22 503h-9zM959 0l-13 287h-438l-141 -287h-447l794 1443h532l148 -1443h-435zM1168 1555h-322l300 321h364z" />
    <glyph glyph-name="Adieresis" unicode="&#xc4;" horiz-adv-x="1494" 
d="M902 1089l-247 -503h278l-22 503h-9zM959 0l-13 287h-438l-141 -287h-447l794 1443h532l148 -1443h-435zM826 1559c-86 0 -149 63 -149 141s63 141 149 141s149 -63 149 -141s-63 -141 -149 -141zM1244 1559c-86 0 -149 63 -149 141s63 141 149 141s149 -63 149 -141
s-63 -141 -149 -141z" />
    <glyph glyph-name="Adieresismacron" unicode="&#x1de;" horiz-adv-x="1494" 
d="M902 1089l-247 -503h278l-22 503h-9zM959 0l-13 287h-438l-141 -287h-447l794 1443h532l148 -1443h-435zM810 1836c92 0 158 -67 158 -150c0 -82 -66 -150 -158 -150s-158 68 -158 150c0 83 66 150 158 150zM1499 2120l-38 -180h-748l38 180h748zM1254 1836
c92 0 158 -67 158 -150c0 -82 -66 -150 -158 -150s-158 68 -158 150c0 83 66 150 158 150z" />
    <glyph glyph-name="Aring" unicode="&#xc5;" horiz-adv-x="1494" 
d="M902 1089l-247 -503h278l-22 503h-9zM959 0l-13 287h-438l-141 -287h-447l794 1443h532l148 -1443h-435zM1074 1574c-132 0 -244 106 -244 235c0 130 112 236 244 236s243 -106 243 -236c0 -129 -111 -235 -243 -235zM1074 1725c47 0 88 38 88 84c0 47 -41 86 -88 86
s-88 -39 -88 -86c0 -46 41 -84 88 -84z" />
    <glyph glyph-name="Aringacute" unicode="&#x1fa;" horiz-adv-x="1494" 
d="M902 1089l-247 -503h278l-22 503h-9zM959 0l-13 287h-438l-141 -287h-447l794 1443h532l148 -1443h-435zM1040 1518c-124 0 -214 86 -214 205s90 205 214 205s214 -86 214 -205s-90 -205 -214 -205zM1040 1653c40 0 70 30 70 70s-30 70 -70 70s-70 -30 -70 -70
s30 -70 70 -70zM1109 2201h323l-204 -202h-276z" />
    <glyph glyph-name="Atilde" unicode="&#xc3;" horiz-adv-x="1494" 
d="M902 1089l-247 -503h278l-22 503h-9zM959 0l-13 287h-438l-141 -287h-447l794 1443h532l148 -1443h-435zM1179 1546c-146 0 -182 119 -261 119c-40 0 -71 -38 -88 -101h-205c37 178 152 293 293 293c146 0 182 -119 261 -119c42 0 71 37 89 106h205
c-39 -180 -155 -298 -294 -298z" />
    <glyph glyph-name="Abrevegrave" unicode="&#x1eb0;" horiz-adv-x="1494" 
d="M902 1089l-247 -503h278l-22 503h-9zM959 0l-13 287h-438l-141 -287h-447l794 1443h532l148 -1443h-435zM1231 1925h-270l-178 281h306zM672 1850h232c-1 -6 -1 -12 -1 -18c0 -59 44 -110 133 -110c98 0 168 62 186 128h240c-40 -164 -202 -314 -460 -314
c-218 0 -335 124 -335 260c0 18 1 36 5 54z" />
    <glyph glyph-name="Adotmacron" unicode="&#x1e0;" horiz-adv-x="1494" 
d="M902 1089l-247 -503h278l-22 503h-9zM959 0l-13 287h-438l-141 -287h-447l794 1443h532l148 -1443h-435zM1032 1536c-92 0 -158 68 -158 150s66 150 158 150s158 -68 158 -150s-66 -150 -158 -150zM1499 2120l-38 -180h-748l38 180h748z" />
    <glyph glyph-name="Aringbelow" unicode="&#x1e00;" horiz-adv-x="1494" 
d="M902 1089l-247 -503h278l-22 503h-9zM959 0l-13 287h-438l-141 -287h-447l794 1443h532l148 -1443h-435zM603 -545c-132 0 -244 106 -244 235c0 130 112 236 244 236s243 -106 243 -236c0 -129 -111 -235 -243 -235zM603 -394c47 0 88 38 88 84c0 47 -41 86 -88 86
s-88 -39 -88 -86c0 -46 41 -84 88 -84z" />
    <glyph glyph-name="Acircumflex" unicode="&#xc2;" horiz-adv-x="1494" 
d="M902 1089l-247 -503h278l-22 503h-9zM959 0l-13 287h-438l-141 -287h-447l794 1443h532l148 -1443h-435zM1229 1872l183 -336h-276l-91 192h-8l-173 -192h-276l327 336h314z" />
    <glyph glyph-name="Acircumflexdotbelow" unicode="&#x1eac;" horiz-adv-x="1494" 
d="M902 1089l-247 -503h278l-22 503h-9zM959 0l-13 287h-438l-141 -287h-447l794 1443h532l148 -1443h-435zM1229 1872l183 -336h-276l-91 192h-8l-173 -192h-276l327 336h314zM587 -482c-100 0 -177 78 -177 173s77 173 177 173s177 -78 177 -173s-77 -173 -177 -173z" />
    <glyph glyph-name="Acircumflexacute" unicode="&#x1ea4;" horiz-adv-x="1494" 
d="M902 1089l-247 -503h278l-22 503h-9zM959 0l-13 287h-438l-141 -287h-447l794 1443h532l148 -1443h-435zM899 1842h310l189 -306h-268l-90 166h-8l-162 -166h-292zM1130 1925l262 281h338l-298 -281h-302z" />
    <glyph glyph-name="Acircumflextilde" unicode="&#x1eaa;" horiz-adv-x="1494" 
d="M902 1089l-247 -503h278l-22 503h-9zM959 0l-13 287h-438l-141 -287h-447l794 1443h532l148 -1443h-435zM1238 1913c-140 0 -185 121 -254 121c-40 0 -76 -39 -92 -101h-202c38 177 156 293 298 293c140 0 184 -121 253 -121c43 0 78 39 95 106h202
c-39 -178 -159 -298 -300 -298zM899 1842h310l189 -306h-268l-90 166h-8l-162 -166h-292z" />
    <glyph glyph-name="Acircumflexgrave" unicode="&#x1ea6;" horiz-adv-x="1494" 
d="M902 1089l-247 -503h278l-22 503h-9zM959 0l-13 287h-438l-141 -287h-447l794 1443h532l148 -1443h-435zM899 1842h310l189 -306h-268l-90 166h-8l-162 -166h-292zM1431 1925h-270l-178 281h306z" />
    <glyph glyph-name="Acircumflexhookabove" unicode="&#x1ea8;" horiz-adv-x="1494" 
d="M902 1089l-247 -503h278l-22 503h-9zM959 0l-13 287h-438l-141 -287h-447l794 1443h532l148 -1443h-435zM899 1842h310l189 -306h-268l-90 166h-8l-162 -166h-292zM1207 2016l37 167c44 18 111 29 170 29c142 0 234 -68 234 -178c0 -138 -108 -254 -249 -311l-78 135
c57 22 93 66 93 114c0 39 -37 64 -94 64c-38 0 -78 -7 -113 -20z" />
    <glyph glyph-name="Abreve" unicode="&#x102;" horiz-adv-x="1494" 
d="M902 1089l-247 -503h278l-22 503h-9zM959 0l-13 287h-438l-141 -287h-447l794 1443h532l148 -1443h-435zM677 1870h230c-2 -11 -3 -21 -3 -31c0 -70 44 -117 132 -117c100 0 167 62 189 148h242c-47 -182 -213 -334 -465 -334c-224 0 -331 124 -331 272c0 20 2 41 6 62z
" />
    <glyph glyph-name="Abreveacute" unicode="&#x1eae;" horiz-adv-x="1494" 
d="M902 1089l-247 -503h278l-22 503h-9zM959 0l-13 287h-438l-141 -287h-447l794 1443h532l148 -1443h-435zM920 1925l262 281h338l-298 -281h-302zM1002 1536c-218 0 -335 124 -335 260c0 18 1 36 5 54h232c-1 -6 -1 -12 -1 -18c0 -59 44 -110 133 -110
c98 0 168 62 186 128h240c-40 -164 -202 -314 -460 -314z" />
    <glyph glyph-name="Abrevetilde" unicode="&#x1eb4;" horiz-adv-x="1494" 
d="M902 1089l-247 -503h278l-22 503h-9zM959 0l-13 287h-438l-141 -287h-447l794 1443h532l148 -1443h-435zM1238 1913c-140 0 -185 121 -254 121c-40 0 -76 -39 -92 -101h-202c38 177 156 293 298 293c140 0 184 -121 253 -121c43 0 78 39 95 106h202
c-39 -178 -159 -298 -300 -298zM1002 1536c-218 0 -335 124 -335 260c0 18 1 36 5 54h232c-1 -6 -1 -12 -1 -18c0 -59 44 -110 133 -110c98 0 168 62 186 128h240c-40 -164 -202 -314 -460 -314z" />
    <glyph glyph-name="Abrevehookabove" unicode="&#x1eb2;" horiz-adv-x="1494" 
d="M902 1089l-247 -503h278l-22 503h-9zM959 0l-13 287h-438l-141 -287h-447l794 1443h532l148 -1443h-435zM882 2061l35 152c47 12 93 18 133 18c129 0 220 -68 220 -165c0 -108 -98 -206 -219 -242l-73 115c49 17 80 48 80 80c0 35 -33 56 -84 56c-37 0 -73 -6 -92 -14z
M1002 1536c-218 0 -335 124 -335 260c0 18 1 36 5 54h232c-1 -6 -1 -12 -1 -18c0 -59 44 -110 133 -110c98 0 168 62 186 128h240c-40 -164 -202 -314 -460 -314z" />
    <glyph glyph-name="Abrevedotbelow" unicode="&#x1eb6;" horiz-adv-x="1494" 
d="M902 1089l-247 -503h278l-22 503h-9zM959 0l-13 287h-438l-141 -287h-447l794 1443h532l148 -1443h-435zM677 1870h230c-2 -11 -3 -21 -3 -31c0 -70 44 -117 132 -117c100 0 167 62 189 148h242c-47 -182 -213 -334 -465 -334c-224 0 -331 124 -331 272c0 20 2 41 6 62z
M587 -482c-100 0 -177 78 -177 173s77 173 177 173s177 -78 177 -173s-77 -173 -177 -173z" />
    <glyph glyph-name="Ainvertedbreve" unicode="&#x202;" horiz-adv-x="1494" 
d="M902 1089l-247 -503h278l-22 503h-9zM959 0l-13 287h-438l-141 -287h-447l794 1443h532l148 -1443h-435zM1393 1536h-230c2 11 3 21 3 31c0 70 -44 117 -132 117c-100 0 -167 -62 -189 -148h-242c47 182 213 334 465 334c224 0 331 -124 331 -272c0 -20 -2 -41 -6 -62z
" />
    <glyph glyph-name="Acaron" unicode="&#x1cd;" horiz-adv-x="1494" 
d="M902 1089l-247 -503h278l-22 503h-9zM959 0l-13 287h-438l-141 -287h-447l794 1443h532l148 -1443h-435zM843 1536l-183 336h276l91 -192h8l173 192h276l-327 -336h-314z" />
    <glyph glyph-name="Adotaccent" unicode="&#x226;" horiz-adv-x="1494" 
d="M902 1089l-247 -503h278l-22 503h-9zM959 0l-13 287h-438l-141 -287h-447l794 1443h532l148 -1443h-435zM1051 1603c-100 0 -177 78 -177 173s77 173 177 173s177 -78 177 -173s-77 -173 -177 -173z" />
    <glyph glyph-name="Adotbelow" unicode="&#x1ea0;" horiz-adv-x="1494" 
d="M902 1089l-247 -503h278l-22 503h-9zM959 0l-13 287h-438l-141 -287h-447l794 1443h532l148 -1443h-435zM587 -482c-100 0 -177 78 -177 173s77 173 177 173s177 -78 177 -173s-77 -173 -177 -173z" />
    <glyph glyph-name="Ahookabove" unicode="&#x1ea2;" horiz-adv-x="1494" 
d="M902 1089l-247 -503h278l-22 503h-9zM959 0l-13 287h-438l-141 -287h-447l794 1443h532l148 -1443h-435zM846 1807l36 167c44 17 112 29 171 29c141 0 234 -71 234 -177c0 -123 -116 -258 -280 -326l-82 136c79 30 132 78 132 126c0 39 -38 63 -97 63
c-33 0 -85 -8 -114 -18z" />
    <glyph glyph-name="Adblgrave" unicode="&#x200;" horiz-adv-x="1494" 
d="M902 1089l-247 -503h278l-22 503h-9zM959 0l-13 287h-438l-141 -287h-447l794 1443h532l148 -1443h-435zM612 1555l-206 321h332l164 -321h-290zM1082 1555l-206 321h332l164 -321h-290z" />
    <glyph glyph-name="Amacron" unicode="&#x100;" horiz-adv-x="1494" 
d="M902 1089l-247 -503h278l-22 503h-9zM959 0l-13 287h-438l-141 -287h-447l794 1443h532l148 -1443h-435zM1428 1786l-38 -180h-748l38 180h748z" />
    <glyph glyph-name="Aogonek" unicode="&#x104;" horiz-adv-x="1494" 
d="M1194 -275l-41 -193c-43 -17 -103 -26 -177 -26c-150 0 -260 80 -260 208c0 110 114 228 243 281l-13 292h-438l-141 -287h-447l794 1443h532l146 -1423l-26 -6c-233 -54 -353 -136 -353 -224c0 -46 37 -74 107 -74c31 0 63 5 74 9zM902 1089l-247 -503h278l-22 503h-9z
" />
    <glyph glyph-name="B" unicode="B" horiz-adv-x="1387" 
d="M808 0h-790l307 1443h669c286 0 429 -135 429 -307c0 -194 -141 -338 -340 -375l-1 -8c152 -35 268 -143 268 -293c0 -268 -228 -460 -542 -460zM682 1180l-62 -293h180c121 0 201 73 201 172c0 71 -52 121 -155 121h-164zM494 291h206c141 0 228 77 228 196
c0 83 -61 137 -178 137h-186z" />
    <glyph glyph-name="Blinebelow" unicode="&#x1e06;" horiz-adv-x="1387" 
d="M808 0h-790l307 1443h669c286 0 429 -135 429 -307c0 -194 -141 -338 -340 -375l-1 -8c152 -35 268 -143 268 -293c0 -268 -228 -460 -542 -460zM682 1180l-62 -293h180c121 0 201 73 201 172c0 71 -52 121 -155 121h-164zM494 291h206c141 0 228 77 228 196
c0 83 -61 137 -178 137h-186zM878 -219l-38 -180h-748l38 180h748z" />
    <glyph glyph-name="Bdotbelow" unicode="&#x1e04;" horiz-adv-x="1387" 
d="M808 0h-790l307 1443h669c286 0 429 -135 429 -307c0 -194 -141 -338 -340 -375l-1 -8c152 -35 268 -143 268 -293c0 -268 -228 -460 -542 -460zM682 1180l-62 -293h180c121 0 201 73 201 172c0 71 -52 121 -155 121h-164zM494 291h206c141 0 228 77 228 196
c0 83 -61 137 -178 137h-186zM485 -482c-100 0 -177 78 -177 173s77 173 177 173s177 -78 177 -173s-77 -173 -177 -173z" />
    <glyph glyph-name="Bdotaccent" unicode="&#x1e02;" horiz-adv-x="1387" 
d="M808 0h-790l307 1443h669c286 0 429 -135 429 -307c0 -194 -141 -338 -340 -375l-1 -8c152 -35 268 -143 268 -293c0 -268 -228 -460 -542 -460zM682 1180l-62 -293h180c121 0 201 73 201 172c0 71 -52 121 -155 121h-164zM494 291h206c141 0 228 77 228 196
c0 83 -61 137 -178 137h-186zM893 1603c-100 0 -177 78 -177 173s77 173 177 173s177 -78 177 -173s-77 -173 -177 -173z" />
    <glyph glyph-name="C" unicode="C" horiz-adv-x="1540" 
d="M1153 862c1 6 1 10 1 40c0 127 -100 225 -230 225c-212 0 -362 -216 -362 -521c0 -177 88 -286 232 -286c140 0 253 89 295 232h411c-50 -345 -346 -577 -736 -577c-387 0 -639 238 -639 605c0 541 329 888 843 888c349 0 601 -227 601 -542c0 -25 -2 -48 -5 -64h-411z
" />
    <glyph glyph-name="Cacute" unicode="&#x106;" horiz-adv-x="1540" 
d="M1153 862c1 6 1 10 1 40c0 127 -100 225 -230 225c-212 0 -362 -216 -362 -521c0 -177 88 -286 232 -286c140 0 253 89 295 232h411c-50 -345 -346 -577 -736 -577c-387 0 -639 238 -639 605c0 541 329 888 843 888c349 0 601 -227 601 -542c0 -25 -2 -48 -5 -64h-411z
M1150 1555h-322l300 321h364z" />
    <glyph glyph-name="Ccaron" unicode="&#x10c;" horiz-adv-x="1540" 
d="M1153 862c1 6 1 10 1 40c0 127 -100 225 -230 225c-212 0 -362 -216 -362 -521c0 -177 88 -286 232 -286c140 0 253 89 295 232h411c-50 -345 -346 -577 -736 -577c-387 0 -639 238 -639 605c0 541 329 888 843 888c349 0 601 -227 601 -542c0 -25 -2 -48 -5 -64h-411z
M825 1536l-183 336h276l91 -192h8l173 192h276l-327 -336h-314z" />
    <glyph glyph-name="Ccircumflex" unicode="&#x108;" horiz-adv-x="1540" 
d="M1153 862c1 6 1 10 1 40c0 127 -100 225 -230 225c-212 0 -362 -216 -362 -521c0 -177 88 -286 232 -286c140 0 253 89 295 232h411c-50 -345 -346 -577 -736 -577c-387 0 -639 238 -639 605c0 541 329 888 843 888c349 0 601 -227 601 -542c0 -25 -2 -48 -5 -64h-411z
M1211 1872l183 -336h-276l-91 192h-8l-173 -192h-276l327 336h314z" />
    <glyph glyph-name="Cdotaccent" unicode="&#x10a;" horiz-adv-x="1540" 
d="M1153 862c1 6 1 10 1 40c0 127 -100 225 -230 225c-212 0 -362 -216 -362 -521c0 -177 88 -286 232 -286c140 0 253 89 295 232h411c-50 -345 -346 -577 -736 -577c-387 0 -639 238 -639 605c0 541 329 888 843 888c349 0 601 -227 601 -542c0 -25 -2 -48 -5 -64h-411z
M1033 1603c-100 0 -177 78 -177 173s77 173 177 173s177 -78 177 -173s-77 -173 -177 -173z" />
    <glyph glyph-name="Ccedilla" unicode="&#xc7;" horiz-adv-x="1540" 
d="M1564 862h-411c1 6 1 10 1 40c0 127 -100 225 -230 225c-212 0 -362 -216 -362 -521c0 -177 88 -286 232 -286c140 0 253 89 295 232h411c-47 -322 -307 -545 -659 -574l-44 -54c90 -13 138 -65 138 -149c0 -136 -139 -236 -328 -236c-60 0 -114 6 -138 15l35 161
c25 -7 69 -12 110 -12c74 0 112 16 112 47c0 29 -28 39 -111 39h-58l29 125l58 69c-318 45 -519 270 -519 597c0 541 329 888 843 888c349 0 601 -227 601 -542c0 -25 -2 -48 -5 -64z" />
    <glyph glyph-name="Ccedillaacute" unicode="&#x1e08;" horiz-adv-x="1540" 
d="M1492 1876l-342 -321h-322l300 321h364zM1564 862h-411c1 6 1 10 1 40c0 127 -100 225 -230 225c-212 0 -362 -216 -362 -521c0 -177 88 -286 232 -286c140 0 253 89 295 232h411c-47 -322 -307 -545 -659 -574l-44 -54c90 -13 138 -65 138 -149
c0 -136 -139 -236 -328 -236c-60 0 -114 6 -138 15l35 161c25 -7 69 -12 110 -12c74 0 112 16 112 47c0 29 -28 39 -111 39h-58l29 125l58 69c-318 45 -519 270 -519 597c0 541 329 888 843 888c349 0 601 -227 601 -542c0 -25 -2 -48 -5 -64z" />
    <glyph glyph-name="D" unicode="D" horiz-adv-x="1492" 
d="M325 1443h600c334 0 573 -203 573 -551c0 -519 -304 -892 -761 -892h-719zM681 1108l-163 -772h158c226 0 386 188 386 502c0 161 -88 270 -238 270h-143z" />
    <glyph glyph-name="Ddotaccent" unicode="&#x1e0a;" horiz-adv-x="1492" 
d="M325 1443h600c334 0 573 -203 573 -551c0 -519 -304 -892 -761 -892h-719zM681 1108l-163 -772h158c226 0 386 188 386 502c0 161 -88 270 -238 270h-143zM898 1603c-100 0 -177 78 -177 173s77 173 177 173s177 -78 177 -173s-77 -173 -177 -173z" />
    <glyph glyph-name="Dcircumflexbelow" unicode="&#x1e12;" horiz-adv-x="1492" 
d="M325 1443h600c334 0 573 -203 573 -551c0 -519 -304 -892 -761 -892h-719zM681 1108l-163 -772h158c226 0 386 188 386 502c0 161 -88 270 -238 270h-143zM715 -165l183 -336h-276l-91 192h-8l-173 -192h-276l327 336h314z" />
    <glyph glyph-name="Dcommaaccent" unicode="&#x1e10;" horiz-adv-x="1492" 
d="M325 1443h600c334 0 573 -203 573 -551c0 -519 -304 -892 -761 -892h-719zM681 1108l-163 -772h158c226 0 386 188 386 502c0 161 -88 270 -238 270h-143zM425 -475h-308l220 321h359z" />
    <glyph glyph-name="Dlinebelow" unicode="&#x1e0e;" horiz-adv-x="1492" 
d="M325 1443h600c334 0 573 -203 573 -551c0 -519 -304 -892 -761 -892h-719zM681 1108l-163 -772h158c226 0 386 188 386 502c0 161 -88 270 -238 270h-143zM921 -219l-38 -180h-748l38 180h748z" />
    <glyph glyph-name="Dcaron" unicode="&#x10e;" horiz-adv-x="1492" 
d="M325 1443h600c334 0 573 -203 573 -551c0 -519 -304 -892 -761 -892h-719zM681 1108l-163 -772h158c226 0 386 188 386 502c0 161 -88 270 -238 270h-143zM690 1536l-183 336h276l91 -192h8l173 192h276l-327 -336h-314z" />
    <glyph glyph-name="Ddotbelow" unicode="&#x1e0c;" horiz-adv-x="1492" 
d="M325 1443h600c334 0 573 -203 573 -551c0 -519 -304 -892 -761 -892h-719zM681 1108l-163 -772h158c226 0 386 188 386 502c0 161 -88 270 -238 270h-143zM528 -482c-100 0 -177 78 -177 173s77 173 177 173s177 -78 177 -173s-77 -173 -177 -173z" />
    <glyph glyph-name="Dcroat" unicode="&#x110;" horiz-adv-x="1492" 
d="M518 336h158c226 0 386 188 386 502c0 161 -88 270 -238 270h-143l-45 -215h189l-72 -336h-188zM325 1443h600c334 0 573 -203 573 -551c0 -519 -304 -892 -761 -892h-719l119 557h-109l72 336h108z" />
    <glyph glyph-name="E" unicode="E" horiz-adv-x="1208" 
d="M1107 336l-71 -336h-1018l307 1443h1017l-72 -336h-593l-49 -234h556l-65 -304h-556l-50 -233h594z" />
    <glyph glyph-name="Egrave" unicode="&#xc8;" horiz-adv-x="1208" 
d="M1107 336l-71 -336h-1018l307 1443h1017l-72 -336h-593l-49 -234h556l-65 -304h-556l-50 -233h594zM689 1555l-206 321h332l164 -321h-290z" />
    <glyph glyph-name="Edblgrave" unicode="&#x204;" horiz-adv-x="1208" 
d="M1107 336l-71 -336h-1018l307 1443h1017l-72 -336h-593l-49 -234h556l-65 -304h-556l-50 -233h594zM439 1555l-206 321h332l164 -321h-290zM909 1555l-206 321h332l164 -321h-290z" />
    <glyph glyph-name="Eacute" unicode="&#xc9;" horiz-adv-x="1208" 
d="M1107 336l-71 -336h-1018l307 1443h1017l-72 -336h-593l-49 -234h556l-65 -304h-556l-50 -233h594zM995 1555h-322l300 321h364z" />
    <glyph glyph-name="Ecircumflex" unicode="&#xca;" horiz-adv-x="1208" 
d="M1107 336l-71 -336h-1018l307 1443h1017l-72 -336h-593l-49 -234h556l-65 -304h-556l-50 -233h594zM1056 1872l183 -336h-276l-91 192h-8l-173 -192h-276l327 336h314z" />
    <glyph glyph-name="Ecircumflexhookabove" unicode="&#x1ec2;" horiz-adv-x="1208" 
d="M1107 336l-71 -336h-1018l307 1443h1017l-72 -336h-593l-49 -234h556l-65 -304h-556l-50 -233h594zM726 1842h310l189 -306h-268l-90 166h-8l-162 -166h-292zM1034 2016l37 167c44 18 111 29 170 29c142 0 234 -68 234 -178c0 -138 -108 -254 -249 -311l-78 135
c57 22 93 66 93 114c0 39 -37 64 -94 64c-38 0 -78 -7 -113 -20z" />
    <glyph glyph-name="Ecircumflexgrave" unicode="&#x1ec0;" horiz-adv-x="1208" 
d="M1107 336l-71 -336h-1018l307 1443h1017l-72 -336h-593l-49 -234h556l-65 -304h-556l-50 -233h594zM726 1842h310l189 -306h-268l-90 166h-8l-162 -166h-292zM1258 1925h-270l-178 281h306z" />
    <glyph glyph-name="Ecircumflextilde" unicode="&#x1ec4;" horiz-adv-x="1208" 
d="M1107 336l-71 -336h-1018l307 1443h1017l-72 -336h-593l-49 -234h556l-65 -304h-556l-50 -233h594zM1065 1913c-140 0 -185 121 -254 121c-40 0 -76 -39 -92 -101h-202c38 177 156 293 298 293c140 0 184 -121 253 -121c43 0 78 39 95 106h202
c-39 -178 -159 -298 -300 -298zM726 1842h310l189 -306h-268l-90 166h-8l-162 -166h-292z" />
    <glyph glyph-name="Ecircumflexdotbelow" unicode="&#x1ec6;" horiz-adv-x="1208" 
d="M1107 336l-71 -336h-1018l307 1443h1017l-72 -336h-593l-49 -234h556l-65 -304h-556l-50 -233h594zM1056 1872l183 -336h-276l-91 192h-8l-173 -192h-276l327 336h314zM482 -482c-100 0 -177 78 -177 173s77 173 177 173s177 -78 177 -173s-77 -173 -177 -173z" />
    <glyph glyph-name="Ecircumflexacute" unicode="&#x1ebe;" horiz-adv-x="1208" 
d="M1107 336l-71 -336h-1018l307 1443h1017l-72 -336h-593l-49 -234h556l-65 -304h-556l-50 -233h594zM726 1842h310l189 -306h-268l-90 166h-8l-162 -166h-292zM957 1925l262 281h338l-298 -281h-302z" />
    <glyph glyph-name="Edieresis" unicode="&#xcb;" horiz-adv-x="1208" 
d="M1107 336l-71 -336h-1018l307 1443h1017l-72 -336h-593l-49 -234h556l-65 -304h-556l-50 -233h594zM653 1559c-86 0 -149 63 -149 141s63 141 149 141s149 -63 149 -141s-63 -141 -149 -141zM1071 1559c-86 0 -149 63 -149 141s63 141 149 141s149 -63 149 -141
s-63 -141 -149 -141z" />
    <glyph glyph-name="Edotbelow" unicode="&#x1eb8;" horiz-adv-x="1208" 
d="M1107 336l-71 -336h-1018l307 1443h1017l-72 -336h-593l-49 -234h556l-65 -304h-556l-50 -233h594zM482 -482c-100 0 -177 78 -177 173s77 173 177 173s177 -78 177 -173s-77 -173 -177 -173z" />
    <glyph glyph-name="Einvertedbreve" unicode="&#x206;" horiz-adv-x="1208" 
d="M1107 336l-71 -336h-1018l307 1443h1017l-72 -336h-593l-49 -234h556l-65 -304h-556l-50 -233h594zM1220 1536h-230c2 11 3 21 3 31c0 70 -44 117 -132 117c-100 0 -167 -62 -189 -148h-242c47 182 213 334 465 334c224 0 331 -124 331 -272c0 -20 -2 -41 -6 -62z" />
    <glyph glyph-name="Ehookabove" unicode="&#x1eba;" horiz-adv-x="1208" 
d="M1107 336l-71 -336h-1018l307 1443h1017l-72 -336h-593l-49 -234h556l-65 -304h-556l-50 -233h594zM673 1807l36 167c44 17 112 29 171 29c141 0 234 -71 234 -177c0 -123 -116 -258 -280 -326l-82 136c79 30 132 78 132 126c0 39 -38 63 -97 63c-33 0 -85 -8 -114 -18z
" />
    <glyph glyph-name="Ecaron" unicode="&#x11a;" horiz-adv-x="1208" 
d="M1107 336l-71 -336h-1018l307 1443h1017l-72 -336h-593l-49 -234h556l-65 -304h-556l-50 -233h594zM670 1536l-183 336h276l91 -192h8l173 192h276l-327 -336h-314z" />
    <glyph glyph-name="Emacron" unicode="&#x112;" horiz-adv-x="1208" 
d="M1107 336l-71 -336h-1018l307 1443h1017l-72 -336h-593l-49 -234h556l-65 -304h-556l-50 -233h594zM1255 1786l-38 -180h-748l38 180h748z" />
    <glyph glyph-name="Emacrongrave" unicode="&#x1e14;" horiz-adv-x="1208" 
d="M1107 336l-71 -336h-1018l307 1443h1017l-72 -336h-593l-49 -234h556l-65 -304h-556l-50 -233h594zM1216 1606h-748l38 180h748zM1058 1925h-270l-178 281h306z" />
    <glyph glyph-name="Emacronacute" unicode="&#x1e16;" horiz-adv-x="1208" 
d="M1107 336l-71 -336h-1018l307 1443h1017l-72 -336h-593l-49 -234h556l-65 -304h-556l-50 -233h594zM1216 1606h-748l38 180h748zM747 1925l262 281h338l-298 -281h-302z" />
    <glyph glyph-name="Etilde" unicode="&#x1ebc;" horiz-adv-x="1208" 
d="M1107 336l-71 -336h-1018l307 1443h1017l-72 -336h-593l-49 -234h556l-65 -304h-556l-50 -233h594zM1006 1546c-146 0 -182 119 -261 119c-40 0 -71 -38 -88 -101h-205c37 178 152 293 293 293c146 0 182 -119 261 -119c42 0 71 37 89 106h205
c-39 -180 -155 -298 -294 -298z" />
    <glyph glyph-name="Ecircumflexbelow" unicode="&#x1e18;" horiz-adv-x="1208" 
d="M1107 336l-71 -336h-1018l307 1443h1017l-72 -336h-593l-49 -234h556l-65 -304h-556l-50 -233h594zM669 -165l183 -336h-276l-91 192h-8l-173 -192h-276l327 336h314z" />
    <glyph glyph-name="Ebreve" unicode="&#x114;" horiz-adv-x="1208" 
d="M1107 336l-71 -336h-1018l307 1443h1017l-72 -336h-593l-49 -234h556l-65 -304h-556l-50 -233h594zM504 1870h230c-2 -11 -3 -21 -3 -31c0 -70 44 -117 132 -117c100 0 167 62 189 148h242c-47 -182 -213 -334 -465 -334c-224 0 -331 124 -331 272c0 20 2 41 6 62z" />
    <glyph glyph-name="Etildebelow" unicode="&#x1e1a;" horiz-adv-x="1208" 
d="M1107 336l-71 -336h-1018l307 1443h1017l-72 -336h-593l-49 -234h556l-65 -304h-556l-50 -233h594zM625 -465c-146 0 -182 119 -261 119c-40 0 -71 -38 -88 -101h-205c37 178 152 293 293 293c146 0 182 -119 261 -119c42 0 71 37 89 106h205
c-39 -180 -155 -298 -294 -298z" />
    <glyph glyph-name="Edotaccent" unicode="&#x116;" horiz-adv-x="1208" 
d="M1107 336l-71 -336h-1018l307 1443h1017l-72 -336h-593l-49 -234h556l-65 -304h-556l-50 -233h594zM878 1603c-100 0 -177 78 -177 173s77 173 177 173s177 -78 177 -173s-77 -173 -177 -173z" />
    <glyph glyph-name="Ecedilla" unicode="&#x228;" horiz-adv-x="1208" 
d="M1270 1107h-593l-49 -234h556l-65 -304h-556l-50 -233h594l-71 -336h-400l-62 -76c90 -13 138 -65 138 -149c0 -136 -139 -236 -328 -236c-60 0 -114 6 -138 15l35 161c25 -7 69 -12 110 -12c74 0 112 16 112 47c0 29 -28 39 -111 39h-58l29 125l72 86h-417l307 1443
h1017z" />
    <glyph glyph-name="Ecedillabreve" unicode="&#x1e1c;" horiz-adv-x="1208" 
d="M1052 1870h242c-47 -182 -213 -334 -465 -334c-224 0 -331 124 -331 272c0 20 2 41 6 62h230c-2 -11 -3 -21 -3 -31c0 -70 44 -117 132 -117c100 0 167 62 189 148zM1270 1107h-593l-49 -234h556l-65 -304h-556l-50 -233h594l-71 -336h-400l-62 -76
c90 -13 138 -65 138 -149c0 -136 -139 -236 -328 -236c-60 0 -114 6 -138 15l35 161c25 -7 69 -12 110 -12c74 0 112 16 112 47c0 29 -28 39 -111 39h-58l29 125l72 86h-417l307 1443h1017z" />
    <glyph glyph-name="Eogonek" unicode="&#x118;" horiz-adv-x="1208" 
d="M18 0l307 1443h1017l-72 -336h-593l-49 -234h556l-65 -304h-556l-50 -233h594l-71 -336l-52 -13c-140 -35 -241 -118 -241 -197c0 -47 39 -74 107 -74c26 0 61 4 74 9l-41 -193c-43 -17 -104 -26 -177 -26c-155 0 -260 84 -260 208c0 107 99 228 231 282l1 4h-660z" />
    <glyph glyph-name="F" unicode="F" horiz-adv-x="1169" 
d="M460 0h-442l307 1443h1013l-72 -336h-571l-59 -278h516l-69 -318h-515z" />
    <glyph glyph-name="Fdotaccent" unicode="&#x1e1e;" horiz-adv-x="1169" 
d="M460 0h-442l307 1443h1013l-72 -336h-571l-59 -278h516l-69 -318h-515zM903 1603c-100 0 -177 78 -177 173s77 173 177 173s177 -78 177 -173s-77 -173 -177 -173z" />
    <glyph glyph-name="G" unicode="G" horiz-adv-x="1539" 
d="M1544 790l-26 -154c-72 -429 -338 -661 -747 -661c-385 0 -645 245 -645 621c0 508 336 872 816 872c370 0 626 -230 626 -482c0 -10 -1 -24 -2 -32h-406c-8 102 -98 180 -230 180c-218 0 -373 -222 -373 -520c0 -188 93 -305 264 -305c130 0 235 87 264 199v0h-233
l60 282h632z" />
    <glyph glyph-name="Gacute" unicode="&#x1f4;" horiz-adv-x="1539" 
d="M1544 790l-26 -154c-72 -429 -338 -661 -747 -661c-385 0 -645 245 -645 621c0 508 336 872 816 872c370 0 626 -230 626 -482c0 -10 -1 -24 -2 -32h-406c-8 102 -98 180 -230 180c-218 0 -373 -222 -373 -520c0 -188 93 -305 264 -305c130 0 235 87 264 199v0h-233
l60 282h632zM1120 1555h-322l300 321h364z" />
    <glyph glyph-name="Gcaron" unicode="&#x1e6;" horiz-adv-x="1539" 
d="M1544 790l-26 -154c-72 -429 -338 -661 -747 -661c-385 0 -645 245 -645 621c0 508 336 872 816 872c370 0 626 -230 626 -482c0 -10 -1 -24 -2 -32h-406c-8 102 -98 180 -230 180c-218 0 -373 -222 -373 -520c0 -188 93 -305 264 -305c130 0 235 87 264 199v0h-233
l60 282h632zM795 1536l-183 336h276l91 -192h8l173 192h276l-327 -336h-314z" />
    <glyph glyph-name="Gcircumflex" unicode="&#x11c;" horiz-adv-x="1539" 
d="M1544 790l-26 -154c-72 -429 -338 -661 -747 -661c-385 0 -645 245 -645 621c0 508 336 872 816 872c370 0 626 -230 626 -482c0 -10 -1 -24 -2 -32h-406c-8 102 -98 180 -230 180c-218 0 -373 -222 -373 -520c0 -188 93 -305 264 -305c130 0 235 87 264 199v0h-233
l60 282h632zM1181 1872l183 -336h-276l-91 192h-8l-173 -192h-276l327 336h314z" />
    <glyph glyph-name="Gbreve" unicode="&#x11e;" horiz-adv-x="1539" 
d="M1544 790l-26 -154c-72 -429 -338 -661 -747 -661c-385 0 -645 245 -645 621c0 508 336 872 816 872c370 0 626 -230 626 -482c0 -10 -1 -24 -2 -32h-406c-8 102 -98 180 -230 180c-218 0 -373 -222 -373 -520c0 -188 93 -305 264 -305c130 0 235 87 264 199v0h-233
l60 282h632zM629 1870h230c-2 -11 -3 -21 -3 -31c0 -70 44 -117 132 -117c100 0 167 62 189 148h242c-47 -182 -213 -334 -465 -334c-224 0 -331 124 -331 272c0 20 2 41 6 62z" />
    <glyph glyph-name="Gmacron" unicode="&#x1e20;" horiz-adv-x="1539" 
d="M1544 790l-26 -154c-72 -429 -338 -661 -747 -661c-385 0 -645 245 -645 621c0 508 336 872 816 872c370 0 626 -230 626 -482c0 -10 -1 -24 -2 -32h-406c-8 102 -98 180 -230 180c-218 0 -373 -222 -373 -520c0 -188 93 -305 264 -305c130 0 235 87 264 199v0h-233
l60 282h632zM1380 1786l-38 -180h-748l38 180h748z" />
    <glyph glyph-name="Gdotaccent" unicode="&#x120;" horiz-adv-x="1539" 
d="M1544 790l-26 -154c-72 -429 -338 -661 -747 -661c-385 0 -645 245 -645 621c0 508 336 872 816 872c370 0 626 -230 626 -482c0 -10 -1 -24 -2 -32h-406c-8 102 -98 180 -230 180c-218 0 -373 -222 -373 -520c0 -188 93 -305 264 -305c130 0 235 87 264 199v0h-233
l60 282h632zM1003 1603c-100 0 -177 78 -177 173s77 173 177 173s177 -78 177 -173s-77 -173 -177 -173z" />
    <glyph glyph-name="Gcommaaccent" unicode="&#x122;" horiz-adv-x="1539" 
d="M1544 790l-26 -154c-72 -429 -338 -661 -747 -661c-385 0 -645 245 -645 621c0 508 336 872 816 872c370 0 626 -230 626 -482c0 -10 -1 -24 -2 -32h-406c-8 102 -98 180 -230 180c-218 0 -373 -222 -373 -520c0 -188 93 -305 264 -305c130 0 235 87 264 199v0h-233
l60 282h632zM642 -475h-308l220 321h359z" />
    <glyph glyph-name="H" unicode="H" horiz-adv-x="1572" 
d="M1374 0h-434l120 562h-488l-120 -562h-434l307 1443h434l-118 -551h488l118 551h434z" />
    <glyph glyph-name="Hdieresis" unicode="&#x1e26;" horiz-adv-x="1572" 
d="M1374 0h-434l120 562h-488l-120 -562h-434l307 1443h434l-118 -551h488l118 551h434zM849 1559c-86 0 -149 63 -149 141s63 141 149 141s149 -63 149 -141s-63 -141 -149 -141zM1267 1559c-86 0 -149 63 -149 141s63 141 149 141s149 -63 149 -141s-63 -141 -149 -141z
" />
    <glyph glyph-name="Hcaron" unicode="&#x21e;" horiz-adv-x="1572" 
d="M1374 0h-434l120 562h-488l-120 -562h-434l307 1443h434l-118 -551h488l118 551h434zM866 1536l-183 336h276l91 -192h8l173 192h276l-327 -336h-314z" />
    <glyph glyph-name="Hcircumflex" unicode="&#x124;" horiz-adv-x="1572" 
d="M1374 0h-434l120 562h-488l-120 -562h-434l307 1443h434l-118 -551h488l118 551h434zM1252 1872l183 -336h-276l-91 192h-8l-173 -192h-276l327 336h314z" />
    <glyph glyph-name="Hdotbelow" unicode="&#x1e24;" horiz-adv-x="1572" 
d="M1374 0h-434l120 562h-488l-120 -562h-434l307 1443h434l-118 -551h488l118 551h434zM630 -482c-100 0 -177 78 -177 173s77 173 177 173s177 -78 177 -173s-77 -173 -177 -173z" />
    <glyph glyph-name="Hdotaccent" unicode="&#x1e22;" horiz-adv-x="1572" 
d="M1374 0h-434l120 562h-488l-120 -562h-434l307 1443h434l-118 -551h488l118 551h434zM1074 1603c-100 0 -177 78 -177 173s77 173 177 173s177 -78 177 -173s-77 -173 -177 -173z" />
    <glyph glyph-name="Hbrevebelow" unicode="&#x1e2a;" horiz-adv-x="1572" 
d="M1374 0h-434l120 562h-488l-120 -562h-434l307 1443h434l-118 -551h488l118 551h434zM270 -142h230c-2 -11 -3 -21 -3 -31c0 -70 44 -117 132 -117c100 0 167 62 189 148h242c-47 -182 -213 -334 -465 -334c-224 0 -331 124 -331 272c0 20 2 41 6 62z" />
    <glyph glyph-name="Hcedilla" unicode="&#x1e28;" horiz-adv-x="1572" 
d="M1247 1443h434l-307 -1443h-434l120 562h-488l-120 -562l-62 -76c90 -13 138 -65 138 -149c0 -136 -139 -236 -328 -236c-60 0 -114 6 -138 15l35 161c25 -7 69 -12 110 -12c74 0 112 16 112 47c0 29 -28 39 -111 39h-58l29 125l72 86h-233l307 1443h434l-118 -551h488z
" />
    <glyph glyph-name="Hbar" unicode="&#x126;" horiz-adv-x="1572" 
d="M1129 892l31 146h-488l-31 -146h488zM1760 1306l-57 -268h-108l-221 -1038h-434l120 562h-488l-120 -562h-434l221 1038h-109l57 268h109l29 137h434l-29 -137h488l29 137h434l-29 -137h108z" />
    <glyph glyph-name="I" unicode="I" horiz-adv-x="640" 
d="M442 0h-424l307 1443h424z" />
    <glyph glyph-name="Idotaccent" unicode="&#x130;" horiz-adv-x="640" 
d="M442 0h-424l307 1443h424zM608 1603c-100 0 -177 78 -177 173s77 173 177 173s177 -78 177 -173s-77 -173 -177 -173z" />
    <glyph glyph-name="Igrave" unicode="&#xcc;" horiz-adv-x="640" 
d="M442 0h-424l307 1443h424zM419 1555l-206 321h332l164 -321h-290z" />
    <glyph glyph-name="Idblgrave" unicode="&#x208;" horiz-adv-x="640" 
d="M442 0h-424l307 1443h424zM169 1555l-206 321h332l164 -321h-290zM639 1555l-206 321h332l164 -321h-290z" />
    <glyph glyph-name="Iacute" unicode="&#xcd;" horiz-adv-x="640" 
d="M442 0h-424l307 1443h424zM725 1555h-322l300 321h364z" />
    <glyph glyph-name="Icircumflex" unicode="&#xce;" horiz-adv-x="640" 
d="M442 0h-424l307 1443h424zM786 1872l183 -336h-276l-91 192h-8l-173 -192h-276l327 336h314z" />
    <glyph glyph-name="Icaron" unicode="&#x1cf;" horiz-adv-x="640" 
d="M442 0h-424l307 1443h424zM400 1536l-183 336h276l91 -192h8l173 192h276l-327 -336h-314z" />
    <glyph glyph-name="Idieresis" unicode="&#xcf;" horiz-adv-x="640" 
d="M442 0h-424l307 1443h424zM383 1559c-86 0 -149 63 -149 141s63 141 149 141s149 -63 149 -141s-63 -141 -149 -141zM801 1559c-86 0 -149 63 -149 141s63 141 149 141s149 -63 149 -141s-63 -141 -149 -141z" />
    <glyph glyph-name="Idieresisacute" unicode="&#x1e2e;" horiz-adv-x="640" 
d="M442 0h-424l307 1443h424zM477 1925l262 281h338l-298 -281h-302zM383 1559c-86 0 -149 63 -149 141s63 141 149 141s149 -63 149 -141s-63 -141 -149 -141zM801 1559c-86 0 -149 63 -149 141s63 141 149 141s149 -63 149 -141s-63 -141 -149 -141z" />
    <glyph glyph-name="Ibreve" unicode="&#x12c;" horiz-adv-x="640" 
d="M442 0h-424l307 1443h424zM234 1870h230c-2 -11 -3 -21 -3 -31c0 -70 44 -117 132 -117c100 0 167 62 189 148h242c-47 -182 -213 -334 -465 -334c-224 0 -331 124 -331 272c0 20 2 41 6 62z" />
    <glyph glyph-name="Idotbelow" unicode="&#x1eca;" horiz-adv-x="640" 
d="M442 0h-424l307 1443h424zM165 -482c-100 0 -177 78 -177 173s77 173 177 173s177 -78 177 -173s-77 -173 -177 -173z" />
    <glyph glyph-name="Iinvertedbreve" unicode="&#x20a;" horiz-adv-x="640" 
d="M442 0h-424l307 1443h424zM950 1536h-230c2 11 3 21 3 31c0 70 -44 117 -132 117c-100 0 -167 -62 -189 -148h-242c47 182 213 334 465 334c224 0 331 -124 331 -272c0 -20 -2 -41 -6 -62z" />
    <glyph glyph-name="Imacron" unicode="&#x12a;" horiz-adv-x="640" 
d="M442 0h-424l307 1443h424zM985 1786l-38 -180h-748l38 180h748z" />
    <glyph glyph-name="Itildebelow" unicode="&#x1e2c;" horiz-adv-x="640" 
d="M442 0h-424l307 1443h424zM308 -465c-146 0 -182 119 -261 119c-40 0 -71 -38 -88 -101h-205c37 178 152 293 293 293c146 0 182 -119 261 -119c42 0 71 37 89 106h205c-39 -180 -155 -298 -294 -298z" />
    <glyph glyph-name="Ihookabove" unicode="&#x1ec8;" horiz-adv-x="640" 
d="M442 0h-424l307 1443h424zM403 1807l36 167c44 17 112 29 171 29c141 0 234 -71 234 -177c0 -123 -116 -258 -280 -326l-82 136c79 30 132 78 132 126c0 39 -38 63 -97 63c-33 0 -85 -8 -114 -18z" />
    <glyph glyph-name="Itilde" unicode="&#x128;" horiz-adv-x="640" 
d="M442 0h-424l307 1443h424zM736 1546c-146 0 -182 119 -261 119c-40 0 -71 -38 -88 -101h-205c37 178 152 293 293 293c146 0 182 -119 261 -119c42 0 71 37 89 106h205c-39 -180 -155 -298 -294 -298z" />
    <glyph glyph-name="Iogonek" unicode="&#x12e;" horiz-adv-x="640" 
d="M162 -494c-154 0 -260 85 -260 210c0 92 67 195 181 280l-65 4l307 1443h424l-307 -1443l-42 -13c-110 -34 -201 -122 -201 -195c0 -48 40 -76 107 -76c27 0 61 4 74 9l-41 -193c-43 -17 -104 -26 -177 -26z" />
    <glyph glyph-name="I.1" horiz-adv-x="1084" 
d="M1168 1122h-266l-171 -801h267l-68 -321h-267h-424h-265l68 321h265l171 801h-266l69 321h265h424h267z" />
    <glyph glyph-name="Idotaccent.1" horiz-adv-x="1084" 
d="M829 1603c-100 0 -177 78 -177 173s77 173 177 173s177 -78 177 -173s-77 -173 -177 -173zM1168 1122h-266l-171 -801h267l-68 -321h-267h-424h-265l68 321h265l171 801h-266l69 321h265h424h267z" />
    <glyph glyph-name="Igrave.1" horiz-adv-x="1084" 
d="M930 1555h-290l-206 321h332zM1168 1122h-266l-171 -801h267l-68 -321h-267h-424h-265l68 321h265l171 801h-266l69 321h265h424h267z" />
    <glyph glyph-name="Idblgrave.1" horiz-adv-x="1084" 
d="M1150 1555h-290l-206 321h332zM680 1555h-290l-206 321h332zM1168 1122h-266l-171 -801h267l-68 -321h-267h-424h-265l68 321h265l171 801h-266l69 321h265h424h267z" />
    <glyph glyph-name="Iacute.1" horiz-adv-x="1084" 
d="M1288 1876l-342 -321h-322l300 321h364zM546 1443h424h267l-69 -321h-266l-171 -801h267l-68 -321h-267h-424h-265l68 321h265l171 801h-266l69 321h265z" />
    <glyph glyph-name="Icircumflex.1" horiz-adv-x="1084" 
d="M815 1728l-173 -192h-276l327 336h314l183 -336h-276l-91 192h-8zM1168 1122h-266l-171 -801h267l-68 -321h-267h-424h-265l68 321h265l171 801h-266l69 321h265h424h267z" />
    <glyph glyph-name="Icaron.1" horiz-adv-x="1084" 
d="M935 1536h-314l-183 336h276l91 -192h8l173 192h276zM546 1443h424h267l-69 -321h-266l-171 -801h267l-68 -321h-267h-424h-265l68 321h265l171 801h-266l69 321h265z" />
    <glyph glyph-name="Idieresis.1" horiz-adv-x="1084" 
d="M1022 1559c-86 0 -149 63 -149 141s63 141 149 141s149 -63 149 -141s-63 -141 -149 -141zM604 1559c-86 0 -149 63 -149 141s63 141 149 141s149 -63 149 -141s-63 -141 -149 -141zM1168 1122h-266l-171 -801h267l-68 -321h-267h-424h-265l68 321h265l171 801h-266
l69 321h265h424h267z" />
    <glyph glyph-name="Idieresisacute.1" horiz-adv-x="1084" 
d="M1298 2206l-298 -281h-302l262 281h338zM873 1700c0 78 63 141 149 141s149 -63 149 -141s-63 -141 -149 -141s-149 63 -149 141zM604 1559c-86 0 -149 63 -149 141s63 141 149 141s149 -63 149 -141s-63 -141 -149 -141zM546 1443h424h267l-69 -321h-266l-171 -801h267
l-68 -321h-267h-424h-265l68 321h265l171 801h-266l69 321h265z" />
    <glyph glyph-name="Ibreve.1" horiz-adv-x="1084" 
d="M1003 1870h242c-47 -182 -213 -334 -465 -334c-224 0 -331 124 -331 272c0 20 2 41 6 62h230c-2 -11 -3 -21 -3 -31c0 -70 44 -117 132 -117c100 0 167 62 189 148zM546 1443h424h267l-69 -321h-266l-171 -801h267l-68 -321h-267h-424h-265l68 321h265l171 801h-266
l69 321h265z" />
    <glyph glyph-name="Idotbelow.1" horiz-adv-x="1084" 
d="M387 -136c100 0 177 -78 177 -173s-77 -173 -177 -173s-177 78 -177 173s77 173 177 173zM1168 1122h-266l-171 -801h267l-68 -321h-267h-424h-265l68 321h265l171 801h-266l69 321h265h424h267z" />
    <glyph glyph-name="Iinvertedbreve.1" horiz-adv-x="1084" 
d="M1171 1536h-230c2 11 3 21 3 31c0 70 -44 117 -132 117c-100 0 -167 -62 -189 -148h-242c47 182 213 334 465 334c224 0 331 -124 331 -272c0 -20 -2 -41 -6 -62zM1168 1122h-266l-171 -801h267l-68 -321h-267h-424h-265l68 321h265l171 801h-266l69 321h265h424h267z
" />
    <glyph glyph-name="Imacron.1" horiz-adv-x="1084" 
d="M1206 1786l-38 -180h-748l38 180h748zM1168 1122h-266l-171 -801h267l-68 -321h-267h-424h-265l68 321h265l171 801h-266l69 321h265h424h267z" />
    <glyph glyph-name="Itildebelow.1" horiz-adv-x="1084" 
d="M181 -447h-205c37 178 152 293 293 293c146 0 182 -119 261 -119c42 0 71 37 89 106h205c-39 -180 -155 -298 -294 -298c-146 0 -182 119 -261 119c-40 0 -71 -38 -88 -101zM1168 1122h-266l-171 -801h267l-68 -321h-267h-424h-265l68 321h265l171 801h-266l69 321h265
h424h267z" />
    <glyph glyph-name="Ihookabove.1" horiz-adv-x="1084" 
d="M785 1500l-82 136c79 30 132 78 132 126c0 39 -38 63 -97 63c-33 0 -85 -8 -114 -18l36 167c44 17 112 29 171 29c141 0 234 -71 234 -177c0 -123 -116 -258 -280 -326zM1168 1122h-266l-171 -801h267l-68 -321h-267h-424h-265l68 321h265l171 801h-266l69 321h265h424
h267z" />
    <glyph glyph-name="Itilde.1" horiz-adv-x="1084" 
d="M1046 1844h205c-39 -180 -155 -298 -294 -298c-146 0 -182 119 -261 119c-40 0 -71 -38 -88 -101h-205c37 178 152 293 293 293c146 0 182 -119 261 -119c42 0 71 37 89 106zM546 1443h424h267l-69 -321h-266l-171 -801h267l-68 -321h-267h-424h-265l68 321h265l171 801
h-266l69 321h265z" />
    <glyph glyph-name="Iogonek.1" horiz-adv-x="1084" 
d="M212 1122l69 321h956l-69 -321h-266l-171 -801h267l-68 -321l-52 -13c-124 -31 -241 -109 -241 -197c0 -46 37 -74 107 -74c31 0 63 5 74 9l-41 -193c-43 -17 -103 -26 -177 -26c-150 0 -260 80 -260 208c0 110 102 229 231 282l1 4h-598l68 321h265l171 801h-266z" />
    <glyph glyph-name="J" unicode="J" horiz-adv-x="1260" 
d="M38 434c0 19 1 50 3 71h404v-21c0 -90 49 -149 137 -149c84 0 137 54 160 160l202 948h424l-212 -996c-65 -307 -265 -472 -577 -472c-329 0 -541 181 -541 459z" />
    <glyph glyph-name="Jcircumflex" unicode="&#x134;" horiz-adv-x="1260" 
d="M38 434c0 19 1 50 3 71h404v-21c0 -90 49 -149 137 -149c84 0 137 54 160 160l202 948h424l-212 -996c-65 -307 -265 -472 -577 -472c-329 0 -541 181 -541 459zM1405 1872l183 -336h-276l-91 192h-8l-173 -192h-276l327 336h314z" />
    <glyph glyph-name="K" unicode="K" horiz-adv-x="1457" 
d="M442 0h-424l307 1443h424l-126 -590h8l561 590h480l-644 -675l322 -768h-464l-212 530l-154 -162z" />
    <glyph glyph-name="Kacute" unicode="&#x1e30;" horiz-adv-x="1457" 
d="M442 0h-424l307 1443h424l-126 -590h8l561 590h480l-644 -675l322 -768h-464l-212 530l-154 -162zM1138 1555h-322l300 321h364z" />
    <glyph glyph-name="Kcaron" unicode="&#x1e8;" horiz-adv-x="1457" 
d="M442 0h-424l307 1443h424l-126 -590h8l561 590h480l-644 -675l322 -768h-464l-212 530l-154 -162zM813 1536l-183 336h276l91 -192h8l173 192h276l-327 -336h-314z" />
    <glyph glyph-name="Kdotbelow" unicode="&#x1e32;" horiz-adv-x="1457" 
d="M442 0h-424l307 1443h424l-126 -590h8l561 590h480l-644 -675l322 -768h-464l-212 530l-154 -162zM592 -482c-100 0 -177 78 -177 173s77 173 177 173s177 -78 177 -173s-77 -173 -177 -173z" />
    <glyph glyph-name="Klinebelow" unicode="&#x1e34;" horiz-adv-x="1457" 
d="M442 0h-424l307 1443h424l-126 -590h8l561 590h480l-644 -675l322 -768h-464l-212 530l-154 -162zM985 -219l-38 -180h-748l38 180h748z" />
    <glyph glyph-name="Kcommaaccent" unicode="&#x136;" horiz-adv-x="1457" 
d="M442 0h-424l307 1443h424l-126 -590h8l561 590h480l-644 -675l322 -768h-464l-212 530l-154 -162zM489 -475h-308l220 321h359z" />
    <glyph glyph-name="L" unicode="L" horiz-adv-x="1154" 
d="M1103 346l-74 -346h-1011l307 1443h424l-233 -1097h587z" />
    <glyph glyph-name="Lacute" unicode="&#x139;" horiz-adv-x="1154" 
d="M1103 346l-74 -346h-1011l307 1443h424l-233 -1097h587zM725 1555h-322l300 321h364z" />
    <glyph glyph-name="Lcircumflexbelow" unicode="&#x1e3c;" horiz-adv-x="1154" 
d="M1103 346l-74 -346h-1011l307 1443h424l-233 -1097h587zM662 -165l183 -336h-276l-91 192h-8l-173 -192h-276l327 336h314z" />
    <glyph glyph-name="Ldotbelow" unicode="&#x1e36;" horiz-adv-x="1154" 
d="M1103 346l-74 -346h-1011l307 1443h424l-233 -1097h587zM475 -482c-100 0 -177 78 -177 173s77 173 177 173s177 -78 177 -173s-77 -173 -177 -173z" />
    <glyph glyph-name="Ldotbelowmacron" unicode="&#x1e38;" horiz-adv-x="1154" 
d="M1103 346l-74 -346h-1011l307 1443h424l-233 -1097h587zM475 -482c-100 0 -177 78 -177 173s77 173 177 173s177 -78 177 -173s-77 -173 -177 -173zM985 1786l-38 -180h-748l38 180h748z" />
    <glyph glyph-name="Llinebelow" unicode="&#x1e3a;" horiz-adv-x="1154" 
d="M1103 346l-74 -346h-1011l307 1443h424l-233 -1097h587zM868 -219l-38 -180h-748l38 180h748z" />
    <glyph glyph-name="Lcommaaccent" unicode="&#x13b;" horiz-adv-x="1154" 
d="M1103 346l-74 -346h-1011l307 1443h424l-233 -1097h587zM372 -475h-308l220 321h359z" />
    <glyph glyph-name="Lcaron" unicode="&#x13d;" horiz-adv-x="1154" 
d="M967 1443h322l-160 -518h-272zM1103 346l-74 -346h-1011l307 1443h424l-233 -1097h587z" />
    <glyph glyph-name="Lslash" unicode="&#x141;" horiz-adv-x="1154" 
d="M516 346h587l-74 -346h-1011l88 415l-120 -56l74 348l120 56l145 680h424l-98 -461l259 121l-74 -348l-259 -121z" />
    <glyph glyph-name="M" unicode="M" horiz-adv-x="1850" 
d="M393 0h-374l306 1443h491l119 -905h8l487 905h529l-307 -1443h-375l195 908h-12l-502 -908h-244l-120 908h-8z" />
    <glyph glyph-name="Macute" unicode="&#x1e3e;" horiz-adv-x="1850" 
d="M393 0h-374l306 1443h491l119 -905h8l487 905h529l-307 -1443h-375l195 908h-12l-502 -908h-244l-120 908h-8zM1295 1555h-322l300 321h364z" />
    <glyph glyph-name="Mdotaccent" unicode="&#x1e40;" horiz-adv-x="1850" 
d="M393 0h-374l306 1443h491l119 -905h8l487 905h529l-307 -1443h-375l195 908h-12l-502 -908h-244l-120 908h-8zM1178 1603c-100 0 -177 78 -177 173s77 173 177 173s177 -78 177 -173s-77 -173 -177 -173z" />
    <glyph glyph-name="Mdotbelow" unicode="&#x1e42;" horiz-adv-x="1850" 
d="M393 0h-374l306 1443h491l119 -905h8l487 905h529l-307 -1443h-375l195 908h-12l-502 -908h-244l-120 908h-8zM775 -482c-100 0 -177 78 -177 173s77 173 177 173s177 -78 177 -173s-77 -173 -177 -173z" />
    <glyph glyph-name="N" unicode="N" horiz-adv-x="1509" 
d="M423 0h-405l307 1443h320l393 -792h8l167 792h405l-307 -1443h-320l-393 792h-8z" />
    <glyph glyph-name="Ngrave" unicode="&#x1f8;" horiz-adv-x="1509" 
d="M423 0h-405l307 1443h320l393 -792h8l167 792h405l-307 -1443h-320l-393 792h-8zM808 1555l-206 321h332l164 -321h-290z" />
    <glyph glyph-name="Nacute" unicode="&#x143;" horiz-adv-x="1509" 
d="M423 0h-405l307 1443h320l393 -792h8l167 792h405l-307 -1443h-320l-393 792h-8zM1114 1555h-322l300 321h364z" />
    <glyph glyph-name="Ntilde" unicode="&#xd1;" horiz-adv-x="1509" 
d="M423 0h-405l307 1443h320l393 -792h8l167 792h405l-307 -1443h-320l-393 792h-8zM1125 1546c-146 0 -182 119 -261 119c-40 0 -71 -38 -88 -101h-205c37 178 152 293 293 293c146 0 182 -119 261 -119c42 0 71 37 89 106h205c-39 -180 -155 -298 -294 -298z" />
    <glyph glyph-name="Ndotbelow" unicode="&#x1e46;" horiz-adv-x="1509" 
d="M423 0h-405l307 1443h320l393 -792h8l167 792h405l-307 -1443h-320l-393 792h-8zM635 -482c-100 0 -177 78 -177 173s77 173 177 173s177 -78 177 -173s-77 -173 -177 -173z" />
    <glyph glyph-name="Ndotaccent" unicode="&#x1e44;" horiz-adv-x="1509" 
d="M423 0h-405l307 1443h320l393 -792h8l167 792h405l-307 -1443h-320l-393 792h-8zM997 1603c-100 0 -177 78 -177 173s77 173 177 173s177 -78 177 -173s-77 -173 -177 -173z" />
    <glyph glyph-name="Ncaron" unicode="&#x147;" horiz-adv-x="1509" 
d="M423 0h-405l307 1443h320l393 -792h8l167 792h405l-307 -1443h-320l-393 792h-8zM789 1536l-183 336h276l91 -192h8l173 192h276l-327 -336h-314z" />
    <glyph glyph-name="Ncircumflexbelow" unicode="&#x1e4a;" horiz-adv-x="1509" 
d="M423 0h-405l307 1443h320l393 -792h8l167 792h405l-307 -1443h-320l-393 792h-8zM822 -165l183 -336h-276l-91 192h-8l-173 -192h-276l327 336h314z" />
    <glyph glyph-name="Nlinebelow" unicode="&#x1e48;" horiz-adv-x="1509" 
d="M423 0h-405l307 1443h320l393 -792h8l167 792h405l-307 -1443h-320l-393 792h-8zM1028 -219l-38 -180h-748l38 180h748z" />
    <glyph glyph-name="Ncommaaccent" unicode="&#x145;" horiz-adv-x="1509" 
d="M423 0h-405l307 1443h320l393 -792h8l167 792h405l-307 -1443h-320l-393 792h-8zM532 -475h-308l220 321h359z" />
    <glyph glyph-name="O" unicode="O" horiz-adv-x="1586" 
d="M915 1130c-194 0 -359 -231 -359 -515c0 -183 95 -302 241 -302c194 0 360 230 360 516c0 184 -96 301 -242 301zM784 -25c-412 0 -658 264 -658 614c0 529 356 879 799 879c423 0 662 -265 662 -614c0 -531 -361 -879 -803 -879z" />
    <glyph glyph-name="Odieresis" unicode="&#xd6;" horiz-adv-x="1586" 
d="M915 1130c-194 0 -359 -231 -359 -515c0 -183 95 -302 241 -302c194 0 360 230 360 516c0 184 -96 301 -242 301zM784 -25c-412 0 -658 264 -658 614c0 529 356 879 799 879c423 0 662 -265 662 -614c0 -531 -361 -879 -803 -879zM783 1559c-86 0 -149 63 -149 141
s63 141 149 141s149 -63 149 -141s-63 -141 -149 -141zM1201 1559c-86 0 -149 63 -149 141s63 141 149 141s149 -63 149 -141s-63 -141 -149 -141z" />
    <glyph glyph-name="Oslash" unicode="&#xd8;" horiz-adv-x="1586" 
d="M1156 855l-497 -497c38 -29 85 -45 138 -45c194 0 360 230 360 516c0 9 0 18 -1 26zM557 588l497 497c-38 29 -85 45 -139 45c-194 0 -359 -231 -359 -515c0 -9 0 -18 1 -27zM1636 1335l-142 -142c61 -96 93 -212 93 -339c0 -531 -361 -879 -803 -879
c-160 0 -294 40 -399 109l-142 -142l-167 166l143 143c-61 96 -93 211 -93 338c0 529 356 879 799 879c163 0 299 -39 404 -108l141 141z" />
    <glyph glyph-name="Otilde" unicode="&#xd5;" horiz-adv-x="1586" 
d="M915 1130c-194 0 -359 -231 -359 -515c0 -183 95 -302 241 -302c194 0 360 230 360 516c0 184 -96 301 -242 301zM784 -25c-412 0 -658 264 -658 614c0 529 356 879 799 879c423 0 662 -265 662 -614c0 -531 -361 -879 -803 -879zM1136 1546c-146 0 -182 119 -261 119
c-40 0 -71 -38 -88 -101h-205c37 178 152 293 293 293c146 0 182 -119 261 -119c42 0 71 37 89 106h205c-39 -180 -155 -298 -294 -298z" />
    <glyph glyph-name="Oacute" unicode="&#xd3;" horiz-adv-x="1586" 
d="M915 1130c-194 0 -359 -231 -359 -515c0 -183 95 -302 241 -302c194 0 360 230 360 516c0 184 -96 301 -242 301zM784 -25c-412 0 -658 264 -658 614c0 529 356 879 799 879c423 0 662 -265 662 -614c0 -531 -361 -879 -803 -879zM1125 1555h-322l300 321h364z" />
    <glyph glyph-name="Ocircumflex" unicode="&#xd4;" horiz-adv-x="1586" 
d="M915 1130c-194 0 -359 -231 -359 -515c0 -183 95 -302 241 -302c194 0 360 230 360 516c0 184 -96 301 -242 301zM784 -25c-412 0 -658 264 -658 614c0 529 356 879 799 879c423 0 662 -265 662 -614c0 -531 -361 -879 -803 -879zM1186 1872l183 -336h-276l-91 192h-8
l-173 -192h-276l327 336h314z" />
    <glyph glyph-name="Ograve" unicode="&#xd2;" horiz-adv-x="1586" 
d="M915 1130c-194 0 -359 -231 -359 -515c0 -183 95 -302 241 -302c194 0 360 230 360 516c0 184 -96 301 -242 301zM784 -25c-412 0 -658 264 -658 614c0 529 356 879 799 879c423 0 662 -265 662 -614c0 -531 -361 -879 -803 -879zM819 1555l-206 321h332l164 -321h-290z
" />
    <glyph glyph-name="Ocircumflexhookabove" unicode="&#x1ed4;" horiz-adv-x="1586" 
d="M915 1130c-194 0 -359 -231 -359 -515c0 -183 95 -302 241 -302c194 0 360 230 360 516c0 184 -96 301 -242 301zM784 -25c-412 0 -658 264 -658 614c0 529 356 879 799 879c423 0 662 -265 662 -614c0 -531 -361 -879 -803 -879zM856 1842h310l189 -306h-268l-90 166h-8
l-162 -166h-292zM1164 2016l37 167c44 18 111 29 170 29c142 0 234 -68 234 -178c0 -138 -108 -254 -249 -311l-78 135c57 22 93 66 93 114c0 39 -37 64 -94 64c-38 0 -78 -7 -113 -20z" />
    <glyph glyph-name="Ocircumflexgrave" unicode="&#x1ed2;" horiz-adv-x="1586" 
d="M915 1130c-194 0 -359 -231 -359 -515c0 -183 95 -302 241 -302c194 0 360 230 360 516c0 184 -96 301 -242 301zM784 -25c-412 0 -658 264 -658 614c0 529 356 879 799 879c423 0 662 -265 662 -614c0 -531 -361 -879 -803 -879zM856 1842h310l189 -306h-268l-90 166h-8
l-162 -166h-292zM1388 1925h-270l-178 281h306z" />
    <glyph glyph-name="Odotbelow" unicode="&#x1ecc;" horiz-adv-x="1586" 
d="M915 1130c-194 0 -359 -231 -359 -515c0 -183 95 -302 241 -302c194 0 360 230 360 516c0 184 -96 301 -242 301zM784 -25c-412 0 -658 264 -658 614c0 529 356 879 799 879c423 0 662 -265 662 -614c0 -531 -361 -879 -803 -879zM710 -482c-100 0 -177 78 -177 173
s77 173 177 173s177 -78 177 -173s-77 -173 -177 -173z" />
    <glyph glyph-name="Odblgrave" unicode="&#x20c;" horiz-adv-x="1586" 
d="M915 1130c-194 0 -359 -231 -359 -515c0 -183 95 -302 241 -302c194 0 360 230 360 516c0 184 -96 301 -242 301zM784 -25c-412 0 -658 264 -658 614c0 529 356 879 799 879c423 0 662 -265 662 -614c0 -531 -361 -879 -803 -879zM569 1555l-206 321h332l164 -321h-290z
M1039 1555l-206 321h332l164 -321h-290z" />
    <glyph glyph-name="Otildeacute" unicode="&#x1e4c;" horiz-adv-x="1586" 
d="M915 1130c-194 0 -359 -231 -359 -515c0 -183 95 -302 241 -302c194 0 360 230 360 516c0 184 -96 301 -242 301zM784 -25c-412 0 -658 264 -658 614c0 529 356 879 799 879c423 0 662 -265 662 -614c0 -531 -361 -879 -803 -879zM877 1925l262 281h338l-298 -281h-302z
M1117 1536c-140 0 -185 121 -254 121c-40 0 -76 -39 -92 -101h-202c38 177 156 293 298 293c140 0 184 -121 253 -121c43 0 78 39 95 106h202c-39 -178 -159 -298 -300 -298z" />
    <glyph glyph-name="Omacronacute" unicode="&#x1e52;" horiz-adv-x="1586" 
d="M915 1130c-194 0 -359 -231 -359 -515c0 -183 95 -302 241 -302c194 0 360 230 360 516c0 184 -96 301 -242 301zM784 -25c-412 0 -658 264 -658 614c0 529 356 879 799 879c423 0 662 -265 662 -614c0 -531 -361 -879 -803 -879zM1346 1606h-748l38 180h748zM877 1925
l262 281h338l-298 -281h-302z" />
    <glyph glyph-name="Ocircumflextilde" unicode="&#x1ed6;" horiz-adv-x="1586" 
d="M915 1130c-194 0 -359 -231 -359 -515c0 -183 95 -302 241 -302c194 0 360 230 360 516c0 184 -96 301 -242 301zM784 -25c-412 0 -658 264 -658 614c0 529 356 879 799 879c423 0 662 -265 662 -614c0 -531 -361 -879 -803 -879zM1195 1913c-140 0 -185 121 -254 121
c-40 0 -76 -39 -92 -101h-202c38 177 156 293 298 293c140 0 184 -121 253 -121c43 0 78 39 95 106h202c-39 -178 -159 -298 -300 -298zM856 1842h310l189 -306h-268l-90 166h-8l-162 -166h-292z" />
    <glyph glyph-name="Odotaccentmacron" unicode="&#x230;" horiz-adv-x="1586" 
d="M915 1130c-194 0 -359 -231 -359 -515c0 -183 95 -302 241 -302c194 0 360 230 360 516c0 184 -96 301 -242 301zM784 -25c-412 0 -658 264 -658 614c0 529 356 879 799 879c423 0 662 -265 662 -614c0 -531 -361 -879 -803 -879zM989 1536c-92 0 -158 68 -158 150
s66 150 158 150s158 -68 158 -150s-66 -150 -158 -150zM1456 2120l-38 -180h-748l38 180h748z" />
    <glyph glyph-name="Omacrongrave" unicode="&#x1e50;" horiz-adv-x="1586" 
d="M915 1130c-194 0 -359 -231 -359 -515c0 -183 95 -302 241 -302c194 0 360 230 360 516c0 184 -96 301 -242 301zM784 -25c-412 0 -658 264 -658 614c0 529 356 879 799 879c423 0 662 -265 662 -614c0 -531 -361 -879 -803 -879zM1346 1606h-748l38 180h748zM1188 1925
h-270l-178 281h306z" />
    <glyph glyph-name="Ocaron" unicode="&#x1d1;" horiz-adv-x="1586" 
d="M915 1130c-194 0 -359 -231 -359 -515c0 -183 95 -302 241 -302c194 0 360 230 360 516c0 184 -96 301 -242 301zM784 -25c-412 0 -658 264 -658 614c0 529 356 879 799 879c423 0 662 -265 662 -614c0 -531 -361 -879 -803 -879zM800 1536l-183 336h276l91 -192h8
l173 192h276l-327 -336h-314z" />
    <glyph glyph-name="Oslashacute" unicode="&#x1fe;" horiz-adv-x="1586" 
d="M1467 1876l-342 -321h-322l300 321h364zM1156 855l-497 -497c38 -29 85 -45 138 -45c194 0 360 230 360 516c0 9 0 18 -1 26zM557 588l497 497c-38 29 -85 45 -139 45c-194 0 -359 -231 -359 -515c0 -9 0 -18 1 -27zM1636 1335l-142 -142c61 -96 93 -212 93 -339
c0 -531 -361 -879 -803 -879c-160 0 -294 40 -399 109l-142 -142l-167 166l143 143c-61 96 -93 211 -93 338c0 529 356 879 799 879c163 0 299 -39 404 -108l141 141z" />
    <glyph glyph-name="Ohungarumlaut" unicode="&#x150;" horiz-adv-x="1586" 
d="M915 1130c-194 0 -359 -231 -359 -515c0 -183 95 -302 241 -302c194 0 360 230 360 516c0 184 -96 301 -242 301zM784 -25c-412 0 -658 264 -658 614c0 529 356 879 799 879c423 0 662 -265 662 -614c0 -531 -361 -879 -803 -879zM1385 1555h-322l300 321h364zM865 1555
h-322l300 321h364z" />
    <glyph glyph-name="Obreve" unicode="&#x14e;" horiz-adv-x="1586" 
d="M915 1130c-194 0 -359 -231 -359 -515c0 -183 95 -302 241 -302c194 0 360 230 360 516c0 184 -96 301 -242 301zM784 -25c-412 0 -658 264 -658 614c0 529 356 879 799 879c423 0 662 -265 662 -614c0 -531 -361 -879 -803 -879zM634 1870h230c-2 -11 -3 -21 -3 -31
c0 -70 44 -117 132 -117c100 0 167 62 189 148h242c-47 -182 -213 -334 -465 -334c-224 0 -331 124 -331 272c0 20 2 41 6 62z" />
    <glyph glyph-name="Oinvertedbreve" unicode="&#x20e;" horiz-adv-x="1586" 
d="M915 1130c-194 0 -359 -231 -359 -515c0 -183 95 -302 241 -302c194 0 360 230 360 516c0 184 -96 301 -242 301zM784 -25c-412 0 -658 264 -658 614c0 529 356 879 799 879c423 0 662 -265 662 -614c0 -531 -361 -879 -803 -879zM1350 1536h-230c2 11 3 21 3 31
c0 70 -44 117 -132 117c-100 0 -167 -62 -189 -148h-242c47 182 213 334 465 334c224 0 331 -124 331 -272c0 -20 -2 -41 -6 -62z" />
    <glyph glyph-name="Ohookabove" unicode="&#x1ece;" horiz-adv-x="1586" 
d="M915 1130c-194 0 -359 -231 -359 -515c0 -183 95 -302 241 -302c194 0 360 230 360 516c0 184 -96 301 -242 301zM784 -25c-412 0 -658 264 -658 614c0 529 356 879 799 879c423 0 662 -265 662 -614c0 -531 -361 -879 -803 -879zM803 1807l36 167c44 17 112 29 171 29
c141 0 234 -71 234 -177c0 -123 -116 -258 -280 -326l-82 136c79 30 132 78 132 126c0 39 -38 63 -97 63c-33 0 -85 -8 -114 -18z" />
    <glyph glyph-name="Odieresismacron" unicode="&#x22a;" horiz-adv-x="1586" 
d="M915 1130c-194 0 -359 -231 -359 -515c0 -183 95 -302 241 -302c194 0 360 230 360 516c0 184 -96 301 -242 301zM784 -25c-412 0 -658 264 -658 614c0 529 356 879 799 879c423 0 662 -265 662 -614c0 -531 -361 -879 -803 -879zM767 1836c92 0 158 -67 158 -150
c0 -82 -66 -150 -158 -150s-158 68 -158 150c0 83 66 150 158 150zM1456 2120l-38 -180h-748l38 180h748zM1211 1836c92 0 158 -67 158 -150c0 -82 -66 -150 -158 -150s-158 68 -158 150c0 83 66 150 158 150z" />
    <glyph glyph-name="Otildemacron" unicode="&#x22c;" horiz-adv-x="1586" 
d="M915 1130c-194 0 -359 -231 -359 -515c0 -183 95 -302 241 -302c194 0 360 230 360 516c0 184 -96 301 -242 301zM784 -25c-412 0 -658 264 -658 614c0 529 356 879 799 879c423 0 662 -265 662 -614c0 -531 -361 -879 -803 -879zM1456 2120l-38 -180h-748l38 180h748z
M1117 1536c-140 0 -185 121 -254 121c-40 0 -76 -39 -92 -101h-202c38 177 156 293 298 293c140 0 184 -121 253 -121c43 0 78 39 95 106h202c-39 -178 -159 -298 -300 -298z" />
    <glyph glyph-name="Odotaccent" unicode="&#x22e;" horiz-adv-x="1586" 
d="M915 1130c-194 0 -359 -231 -359 -515c0 -183 95 -302 241 -302c194 0 360 230 360 516c0 184 -96 301 -242 301zM784 -25c-412 0 -658 264 -658 614c0 529 356 879 799 879c423 0 662 -265 662 -614c0 -531 -361 -879 -803 -879zM1008 1603c-100 0 -177 78 -177 173
s77 173 177 173s177 -78 177 -173s-77 -173 -177 -173z" />
    <glyph glyph-name="Ocircumflexdotbelow" unicode="&#x1ed8;" horiz-adv-x="1586" 
d="M915 1130c-194 0 -359 -231 -359 -515c0 -183 95 -302 241 -302c194 0 360 230 360 516c0 184 -96 301 -242 301zM784 -25c-412 0 -658 264 -658 614c0 529 356 879 799 879c423 0 662 -265 662 -614c0 -531 -361 -879 -803 -879zM1186 1872l183 -336h-276l-91 192h-8
l-173 -192h-276l327 336h314zM710 -482c-100 0 -177 78 -177 173s77 173 177 173s177 -78 177 -173s-77 -173 -177 -173z" />
    <glyph glyph-name="Ocircumflexacute" unicode="&#x1ed0;" horiz-adv-x="1586" 
d="M915 1130c-194 0 -359 -231 -359 -515c0 -183 95 -302 241 -302c194 0 360 230 360 516c0 184 -96 301 -242 301zM784 -25c-412 0 -658 264 -658 614c0 529 356 879 799 879c423 0 662 -265 662 -614c0 -531 -361 -879 -803 -879zM856 1842h310l189 -306h-268l-90 166h-8
l-162 -166h-292zM1087 1925l262 281h338l-298 -281h-302z" />
    <glyph glyph-name="Otildedieresis" unicode="&#x1e4e;" horiz-adv-x="1586" 
d="M915 1130c-194 0 -359 -231 -359 -515c0 -183 95 -302 241 -302c194 0 360 230 360 516c0 184 -96 301 -242 301zM784 -25c-412 0 -658 264 -658 614c0 529 356 879 799 879c423 0 662 -265 662 -614c0 -531 -361 -879 -803 -879zM1117 1536c-140 0 -185 121 -254 121
c-40 0 -76 -39 -92 -101h-202c38 177 156 293 298 293c140 0 184 -121 253 -121c43 0 78 39 95 106h202c-39 -178 -159 -298 -300 -298zM850 2227c92 0 158 -67 158 -150c0 -82 -66 -150 -158 -150s-158 68 -158 150c0 83 66 150 158 150zM1294 2227c92 0 158 -67 158 -150
c0 -82 -66 -150 -158 -150s-158 68 -158 150c0 83 66 150 158 150z" />
    <glyph glyph-name="Omacron" unicode="&#x14c;" horiz-adv-x="1586" 
d="M915 1130c-194 0 -359 -231 -359 -515c0 -183 95 -302 241 -302c194 0 360 230 360 516c0 184 -96 301 -242 301zM784 -25c-412 0 -658 264 -658 614c0 529 356 879 799 879c423 0 662 -265 662 -614c0 -531 -361 -879 -803 -879zM1385 1786l-38 -180h-748l38 180h748z
" />
    <glyph glyph-name="Oogonek" unicode="&#x1ea;" horiz-adv-x="1586" 
d="M1067 -468c-43 -17 -103 -26 -177 -26c-150 0 -260 80 -260 208c0 96 77 194 183 255v8c-7 -1 -21 -2 -29 -2c-412 0 -658 264 -658 614c0 529 356 879 799 879c423 0 662 -265 662 -614c0 -363 -184 -622 -407 -779c-142 -100 -253 -179 -253 -285c0 -46 37 -74 107 -74
c31 0 63 5 74 9zM1157 829c0 184 -96 301 -242 301c-194 0 -359 -231 -359 -515c0 -183 95 -302 241 -302c194 0 360 230 360 516z" />
    <glyph glyph-name="Oogonekmacron" unicode="&#x1ec;" horiz-adv-x="1586" 
d="M1067 -468c-43 -17 -103 -26 -177 -26c-150 0 -260 80 -260 208c0 96 77 194 183 255v8c-7 -1 -21 -2 -29 -2c-412 0 -658 264 -658 614c0 529 356 879 799 879c423 0 662 -265 662 -614c0 -363 -184 -622 -407 -779c-142 -100 -253 -179 -253 -285c0 -46 37 -74 107 -74
c31 0 63 5 74 9zM1157 829c0 184 -96 301 -242 301c-194 0 -359 -231 -359 -515c0 -183 95 -302 241 -302c194 0 360 230 360 516zM1385 1786l-38 -180h-748l38 180h748z" />
    <glyph glyph-name="Ohorn" unicode="&#x1a0;" horiz-adv-x="1586" 
d="M1157 829c0 184 -96 301 -242 301c-194 0 -359 -231 -359 -515c0 -183 95 -302 241 -302c194 0 360 230 360 516zM1587 854c0 -531 -361 -879 -803 -879c-412 0 -658 264 -658 614c0 529 356 879 799 879c355 0 432 -172 519 -172c59 0 87 30 103 106l35 163h301
l-55 -255c-33 -153 -118 -213 -204 -213c-35 0 -64 11 -77 19l-8 -9c32 -76 48 -162 48 -253z" />
    <glyph glyph-name="Ohorndotbelow" unicode="&#x1ee2;" horiz-adv-x="1586" 
d="M1157 829c0 184 -96 301 -242 301c-194 0 -359 -231 -359 -515c0 -183 95 -302 241 -302c194 0 360 230 360 516zM1587 854c0 -531 -361 -879 -803 -879c-412 0 -658 264 -658 614c0 529 356 879 799 879c355 0 432 -172 519 -172c59 0 87 30 103 106l35 163h301
l-55 -255c-33 -153 -118 -213 -204 -213c-35 0 -64 11 -77 19l-8 -9c32 -76 48 -162 48 -253zM710 -482c-100 0 -177 78 -177 173s77 173 177 173s177 -78 177 -173s-77 -173 -177 -173z" />
    <glyph glyph-name="Ohornhookabove" unicode="&#x1ede;" horiz-adv-x="1586" 
d="M1157 829c0 184 -96 301 -242 301c-194 0 -359 -231 -359 -515c0 -183 95 -302 241 -302c194 0 360 230 360 516zM1587 854c0 -531 -361 -879 -803 -879c-412 0 -658 264 -658 614c0 529 356 879 799 879c355 0 432 -172 519 -172c59 0 87 30 103 106l35 163h301
l-55 -255c-33 -153 -118 -213 -204 -213c-35 0 -64 11 -77 19l-8 -9c32 -76 48 -162 48 -253zM803 1807l36 167c44 17 112 29 171 29c141 0 234 -71 234 -177c0 -123 -116 -258 -280 -326l-82 136c79 30 132 78 132 126c0 39 -38 63 -97 63c-33 0 -85 -8 -114 -18z" />
    <glyph glyph-name="Ohorntilde" unicode="&#x1ee0;" horiz-adv-x="1586" 
d="M1157 829c0 184 -96 301 -242 301c-194 0 -359 -231 -359 -515c0 -183 95 -302 241 -302c194 0 360 230 360 516zM1587 854c0 -531 -361 -879 -803 -879c-412 0 -658 264 -658 614c0 529 356 879 799 879c355 0 432 -172 519 -172c59 0 87 30 103 106l35 163h301
l-55 -255c-33 -153 -118 -213 -204 -213c-35 0 -64 11 -77 19l-8 -9c32 -76 48 -162 48 -253zM1136 1546c-146 0 -182 119 -261 119c-40 0 -71 -38 -88 -101h-205c37 178 152 293 293 293c146 0 182 -119 261 -119c42 0 71 37 89 106h205c-39 -180 -155 -298 -294 -298z" />
    <glyph glyph-name="Ohorngrave" unicode="&#x1edc;" horiz-adv-x="1586" 
d="M1157 829c0 184 -96 301 -242 301c-194 0 -359 -231 -359 -515c0 -183 95 -302 241 -302c194 0 360 230 360 516zM1587 854c0 -531 -361 -879 -803 -879c-412 0 -658 264 -658 614c0 529 356 879 799 879c355 0 432 -172 519 -172c59 0 87 30 103 106l35 163h301
l-55 -255c-33 -153 -118 -213 -204 -213c-35 0 -64 11 -77 19l-8 -9c32 -76 48 -162 48 -253zM819 1555l-206 321h332l164 -321h-290z" />
    <glyph glyph-name="Ohornacute" unicode="&#x1eda;" horiz-adv-x="1586" 
d="M1157 829c0 184 -96 301 -242 301c-194 0 -359 -231 -359 -515c0 -183 95 -302 241 -302c194 0 360 230 360 516zM1587 854c0 -531 -361 -879 -803 -879c-412 0 -658 264 -658 614c0 529 356 879 799 879c355 0 432 -172 519 -172c59 0 87 30 103 106l35 163h301
l-55 -255c-33 -153 -118 -213 -204 -213c-35 0 -64 11 -77 19l-8 -9c32 -76 48 -162 48 -253zM1125 1555h-322l300 321h364z" />
    <glyph glyph-name="P" unicode="P" horiz-adv-x="1357" 
d="M325 1443h547c341 0 532 -180 532 -449c0 -368 -258 -600 -672 -600h-205l-84 -394h-423zM681 1123l-89 -415h143c148 0 244 107 244 248c0 114 -66 167 -187 167h-111z" />
    <glyph glyph-name="Pdotaccent" unicode="&#x1e56;" horiz-adv-x="1357" 
d="M325 1443h547c341 0 532 -180 532 -449c0 -368 -258 -600 -672 -600h-205l-84 -394h-423zM681 1123l-89 -415h143c148 0 244 107 244 248c0 114 -66 167 -187 167h-111zM798 1603c-100 0 -177 78 -177 173s77 173 177 173s177 -78 177 -173s-77 -173 -177 -173z" />
    <glyph glyph-name="Pacute" unicode="&#x1e54;" horiz-adv-x="1357" 
d="M325 1443h547c341 0 532 -180 532 -449c0 -368 -258 -600 -672 -600h-205l-84 -394h-423zM681 1123l-89 -415h143c148 0 244 107 244 248c0 114 -66 167 -187 167h-111zM915 1555h-322l300 321h364z" />
    <glyph glyph-name="Q" unicode="Q" horiz-adv-x="1586" 
d="M1387 -123h-378l-47 118c-57 -13 -117 -20 -178 -20c-412 0 -658 264 -658 614c0 529 356 879 799 879c423 0 662 -265 662 -614c0 -297 -113 -538 -311 -708zM797 313c9 0 19 1 40 4l-86 215h341v0c41 83 65 188 65 297c0 184 -96 301 -242 301
c-194 0 -359 -231 -359 -515c0 -183 95 -302 241 -302z" />
    <glyph glyph-name="R" unicode="R" horiz-adv-x="1394" 
d="M606 774h189c142 0 231 85 231 203c0 102 -64 153 -181 153h-162zM325 1443h649c304 0 477 -184 477 -431c0 -204 -119 -402 -339 -488l160 -524h-442l-136 484h-149l-103 -484h-424z" />
    <glyph glyph-name="Rcaron" unicode="&#x158;" horiz-adv-x="1394" 
d="M994 1536h-314l-183 336h276l91 -192h8l173 192h276zM606 774h189c142 0 231 85 231 203c0 102 -64 153 -181 153h-162zM325 1443h649c304 0 477 -184 477 -431c0 -204 -119 -402 -339 -488l160 -524h-442l-136 484h-149l-103 -484h-424z" />
    <glyph glyph-name="Rlinebelow" unicode="&#x1e5e;" horiz-adv-x="1394" 
d="M172 -399l38 180h748l-38 -180h-748zM606 774h189c142 0 231 85 231 203c0 102 -64 153 -181 153h-162zM325 1443h649c304 0 477 -184 477 -431c0 -204 -119 -402 -339 -488l160 -524h-442l-136 484h-149l-103 -484h-424z" />
    <glyph glyph-name="Rdotbelowmacron" unicode="&#x1e5c;" horiz-adv-x="1394" 
d="M1265 1786l-38 -180h-748l38 180h748zM565 -136c100 0 177 -78 177 -173s-77 -173 -177 -173s-177 78 -177 173s77 173 177 173zM606 774h189c142 0 231 85 231 203c0 102 -64 153 -181 153h-162zM325 1443h649c304 0 477 -184 477 -431c0 -204 -119 -402 -339 -488
l160 -524h-442l-136 484h-149l-103 -484h-424z" />
    <glyph glyph-name="Rdblgrave" unicode="&#x210;" horiz-adv-x="1394" 
d="M1209 1555h-290l-206 321h332zM739 1555h-290l-206 321h332zM606 774h189c142 0 231 85 231 203c0 102 -64 153 -181 153h-162zM325 1443h649c304 0 477 -184 477 -431c0 -204 -119 -402 -339 -488l160 -524h-442l-136 484h-149l-103 -484h-424z" />
    <glyph glyph-name="Rinvertedbreve" unicode="&#x212;" horiz-adv-x="1394" 
d="M1230 1536h-230c2 11 3 21 3 31c0 70 -44 117 -132 117c-100 0 -167 -62 -189 -148h-242c47 182 213 334 465 334c224 0 331 -124 331 -272c0 -20 -2 -41 -6 -62zM606 774h189c142 0 231 85 231 203c0 102 -64 153 -181 153h-162zM325 1443h649c304 0 477 -184 477 -431
c0 -204 -119 -402 -339 -488l160 -524h-442l-136 484h-149l-103 -484h-424z" />
    <glyph glyph-name="Racute" unicode="&#x154;" horiz-adv-x="1394" 
d="M1347 1876l-342 -321h-322l300 321h364zM606 774h189c142 0 231 85 231 203c0 102 -64 153 -181 153h-162zM325 1443h649c304 0 477 -184 477 -431c0 -204 -119 -402 -339 -488l160 -524h-442l-136 484h-149l-103 -484h-424z" />
    <glyph glyph-name="Rdotbelow" unicode="&#x1e5a;" horiz-adv-x="1394" 
d="M565 -136c100 0 177 -78 177 -173s-77 -173 -177 -173s-177 78 -177 173s77 173 177 173zM606 774h189c142 0 231 85 231 203c0 102 -64 153 -181 153h-162zM325 1443h649c304 0 477 -184 477 -431c0 -204 -119 -402 -339 -488l160 -524h-442l-136 484h-149l-103 -484
h-424z" />
    <glyph glyph-name="Rdotaccent" unicode="&#x1e58;" horiz-adv-x="1394" 
d="M888 1603c-100 0 -177 78 -177 173s77 173 177 173s177 -78 177 -173s-77 -173 -177 -173zM606 774h189c142 0 231 85 231 203c0 102 -64 153 -181 153h-162zM325 1443h649c304 0 477 -184 477 -431c0 -204 -119 -402 -339 -488l160 -524h-442l-136 484h-149l-103 -484
h-424z" />
    <glyph glyph-name="Rcommaaccent" unicode="&#x156;" horiz-adv-x="1394" 
d="M154 -475l220 321h359l-271 -321h-308zM606 774h189c142 0 231 85 231 203c0 102 -64 153 -181 153h-162zM325 1443h649c304 0 477 -184 477 -431c0 -204 -119 -402 -339 -488l160 -524h-442l-136 484h-149l-103 -484h-424z" />
    <glyph glyph-name="S" unicode="S" horiz-adv-x="1384" 
d="M62 425h401c12 -79 107 -136 226 -136c123 0 200 49 200 121c0 53 -27 84 -163 126l-151 46c-241 73 -369 203 -369 400c0 294 254 486 604 486c372 0 599 -170 601 -456h-387c-3 86 -84 143 -204 143c-111 0 -183 -50 -183 -118c0 -58 40 -98 156 -132l158 -46
c259 -75 371 -183 371 -391c0 -304 -260 -493 -641 -493c-389 0 -618 165 -619 450z" />
    <glyph glyph-name="Scaron" unicode="&#x160;" horiz-adv-x="1384" 
d="M62 425h401c12 -79 107 -136 226 -136c123 0 200 49 200 121c0 53 -27 84 -163 126l-151 46c-241 73 -369 203 -369 400c0 294 254 486 604 486c372 0 599 -170 601 -456h-387c-3 86 -84 143 -204 143c-111 0 -183 -50 -183 -118c0 -58 40 -98 156 -132l158 -46
c259 -75 371 -183 371 -391c0 -304 -260 -493 -641 -493c-389 0 -618 165 -619 450zM680 1536l-183 336h276l91 -192h8l173 192h276l-327 -336h-314z" />
    <glyph glyph-name="Scedilla" unicode="&#x15e;" horiz-adv-x="1384" 
d="M793 905l158 -46c259 -75 371 -183 371 -391c0 -286 -230 -470 -574 -491l-43 -53c90 -13 138 -65 138 -149c0 -136 -139 -236 -328 -236c-60 0 -114 6 -138 15l35 161c25 -7 69 -12 110 -12c74 0 112 16 112 47c0 29 -28 39 -111 39h-58l29 125l56 68
c-309 33 -487 192 -488 443h401c12 -79 107 -136 226 -136c123 0 200 49 200 121c0 53 -27 84 -163 126l-151 46c-241 73 -369 203 -369 400c0 294 254 486 604 486c372 0 599 -170 601 -456h-387c-3 86 -84 143 -204 143c-111 0 -183 -50 -183 -118c0 -58 40 -98 156 -132z
" />
    <glyph glyph-name="Sdotaccent" unicode="&#x1e60;" horiz-adv-x="1384" 
d="M62 425h401c12 -79 107 -136 226 -136c123 0 200 49 200 121c0 53 -27 84 -163 126l-151 46c-241 73 -369 203 -369 400c0 294 254 486 604 486c372 0 599 -170 601 -456h-387c-3 86 -84 143 -204 143c-111 0 -183 -50 -183 -118c0 -58 40 -98 156 -132l158 -46
c259 -75 371 -183 371 -391c0 -304 -260 -493 -641 -493c-389 0 -618 165 -619 450zM888 1603c-100 0 -177 78 -177 173s77 173 177 173s177 -78 177 -173s-77 -173 -177 -173z" />
    <glyph glyph-name="Sdotbelow" unicode="&#x1e62;" horiz-adv-x="1384" 
d="M62 425h401c12 -79 107 -136 226 -136c123 0 200 49 200 121c0 53 -27 84 -163 126l-151 46c-241 73 -369 203 -369 400c0 294 254 486 604 486c372 0 599 -170 601 -456h-387c-3 86 -84 143 -204 143c-111 0 -183 -50 -183 -118c0 -58 40 -98 156 -132l158 -46
c259 -75 371 -183 371 -391c0 -304 -260 -493 -641 -493c-389 0 -618 165 -619 450zM613 -482c-100 0 -177 78 -177 173s77 173 177 173s177 -78 177 -173s-77 -173 -177 -173z" />
    <glyph glyph-name="Scommaaccent" unicode="&#x218;" horiz-adv-x="1384" 
d="M62 425h401c12 -79 107 -136 226 -136c123 0 200 49 200 121c0 53 -27 84 -163 126l-151 46c-241 73 -369 203 -369 400c0 294 254 486 604 486c372 0 599 -170 601 -456h-387c-3 86 -84 143 -204 143c-111 0 -183 -50 -183 -118c0 -58 40 -98 156 -132l158 -46
c259 -75 371 -183 371 -391c0 -304 -260 -493 -641 -493c-389 0 -618 165 -619 450zM510 -475h-308l220 321h359z" />
    <glyph glyph-name="Sdotbelowdotaccent" unicode="&#x1e68;" horiz-adv-x="1384" 
d="M62 425h401c12 -79 107 -136 226 -136c123 0 200 49 200 121c0 53 -27 84 -163 126l-151 46c-241 73 -369 203 -369 400c0 294 254 486 604 486c372 0 599 -170 601 -456h-387c-3 86 -84 143 -204 143c-111 0 -183 -50 -183 -118c0 -58 40 -98 156 -132l158 -46
c259 -75 371 -183 371 -391c0 -304 -260 -493 -641 -493c-389 0 -618 165 -619 450zM613 -482c-100 0 -177 78 -177 173s77 173 177 173s177 -78 177 -173s-77 -173 -177 -173zM888 1603c-100 0 -177 78 -177 173s77 173 177 173s177 -78 177 -173s-77 -173 -177 -173z" />
    <glyph glyph-name="Scarondotaccent" unicode="&#x1e66;" horiz-adv-x="1384" 
d="M62 425h401c12 -79 107 -136 226 -136c123 0 200 49 200 121c0 53 -27 84 -163 126l-151 46c-241 73 -369 203 -369 400c0 294 254 486 604 486c372 0 599 -170 601 -456h-387c-3 86 -84 143 -204 143c-111 0 -183 -50 -183 -118c0 -58 40 -98 156 -132l158 -46
c259 -75 371 -183 371 -391c0 -304 -260 -493 -641 -493c-389 0 -618 165 -619 450zM692 1536l-189 306h268l90 -166h8l162 166h292l-321 -306h-310zM939 1870c-92 0 -158 68 -158 150c0 83 66 150 158 150s158 -67 158 -150c0 -82 -66 -150 -158 -150z" />
    <glyph glyph-name="Scircumflex" unicode="&#x15c;" horiz-adv-x="1384" 
d="M62 425h401c12 -79 107 -136 226 -136c123 0 200 49 200 121c0 53 -27 84 -163 126l-151 46c-241 73 -369 203 -369 400c0 294 254 486 604 486c372 0 599 -170 601 -456h-387c-3 86 -84 143 -204 143c-111 0 -183 -50 -183 -118c0 -58 40 -98 156 -132l158 -46
c259 -75 371 -183 371 -391c0 -304 -260 -493 -641 -493c-389 0 -618 165 -619 450zM1066 1872l183 -336h-276l-91 192h-8l-173 -192h-276l327 336h314z" />
    <glyph glyph-name="Sacutedotaccent" unicode="&#x1e64;" horiz-adv-x="1384" 
d="M62 425h401c12 -79 107 -136 226 -136c123 0 200 49 200 121c0 53 -27 84 -163 126l-151 46c-241 73 -369 203 -369 400c0 294 254 486 604 486c372 0 599 -170 601 -456h-387c-3 86 -84 143 -204 143c-111 0 -183 -50 -183 -118c0 -58 40 -98 156 -132l158 -46
c259 -75 371 -183 371 -391c0 -304 -260 -493 -641 -493c-389 0 -618 165 -619 450zM1222 1560h-322l300 321h364zM651 1557c-100 0 -177 78 -177 173s77 173 177 173s177 -78 177 -173s-77 -173 -177 -173z" />
    <glyph glyph-name="Sacute" unicode="&#x15a;" horiz-adv-x="1384" 
d="M62 425h401c12 -79 107 -136 226 -136c123 0 200 49 200 121c0 53 -27 84 -163 126l-151 46c-241 73 -369 203 -369 400c0 294 254 486 604 486c372 0 599 -170 601 -456h-387c-3 86 -84 143 -204 143c-111 0 -183 -50 -183 -118c0 -58 40 -98 156 -132l158 -46
c259 -75 371 -183 371 -391c0 -304 -260 -493 -641 -493c-389 0 -618 165 -619 450zM1005 1555h-322l300 321h364z" />
    <glyph glyph-name="germandbls.uc" unicode="&#x1e9e;" horiz-adv-x="2768" 
d="M62 425h401c12 -79 107 -136 226 -136c123 0 200 49 200 121c0 53 -27 84 -163 126l-151 46c-241 73 -369 203 -369 400c0 294 254 486 604 486c372 0 599 -170 601 -456h-387c-3 86 -84 143 -204 143c-111 0 -183 -50 -183 -118c0 -58 40 -98 156 -132l158 -46
c259 -75 371 -183 371 -391c0 -304 -260 -493 -641 -493c-389 0 -618 165 -619 450zM1446 425h401c12 -79 107 -136 226 -136c123 0 200 49 200 121c0 53 -27 84 -163 126l-151 46c-241 73 -369 203 -369 400c0 294 254 486 604 486c372 0 599 -170 601 -456h-387
c-3 86 -84 143 -204 143c-111 0 -183 -50 -183 -118c0 -58 40 -98 156 -132l158 -46c259 -75 371 -183 371 -391c0 -304 -260 -493 -641 -493c-389 0 -618 165 -619 450z" />
    <glyph glyph-name="T" unicode="T" horiz-adv-x="1306" 
d="M775 0h-424l235 1107h-401l72 336h1226l-72 -336h-401z" />
    <glyph glyph-name="Tcircumflexbelow" unicode="&#x1e70;" horiz-adv-x="1306" 
d="M775 0h-424l235 1107h-401l72 336h1226l-72 -336h-401zM685 -165l183 -336h-276l-91 192h-8l-173 -192h-276l327 336h314z" />
    <glyph glyph-name="Tdotbelow" unicode="&#x1e6c;" horiz-adv-x="1306" 
d="M775 0h-424l235 1107h-401l72 336h1226l-72 -336h-401zM498 -482c-100 0 -177 78 -177 173s77 173 177 173s177 -78 177 -173s-77 -173 -177 -173z" />
    <glyph glyph-name="Tcommaaccent" unicode="&#x21a;" horiz-adv-x="1306" 
d="M775 0h-424l235 1107h-401l72 336h1226l-72 -336h-401zM395 -475h-308l220 321h359z" />
    <glyph glyph-name="Tdotaccent" unicode="&#x1e6a;" horiz-adv-x="1306" 
d="M775 0h-424l235 1107h-401l72 336h1226l-72 -336h-401zM940 1603c-100 0 -177 78 -177 173s77 173 177 173s177 -78 177 -173s-77 -173 -177 -173z" />
    <glyph glyph-name="Tcedilla" unicode="&#x162;" horiz-adv-x="1306" 
d="M257 1443h1226l-72 -336h-401l-235 -1107l-62 -76c90 -13 138 -65 138 -149c0 -136 -139 -236 -328 -236c-60 0 -114 6 -138 15l35 161c25 -7 69 -12 110 -12c74 0 112 16 112 47c0 29 -28 39 -111 39h-58l29 125l72 86h-223l235 1107h-401z" />
    <glyph glyph-name="Tlinebelow" unicode="&#x1e6e;" horiz-adv-x="1306" 
d="M775 0h-424l235 1107h-401l72 336h1226l-72 -336h-401zM891 -219l-38 -180h-748l38 180h748z" />
    <glyph glyph-name="Tcaron" unicode="&#x164;" horiz-adv-x="1306" 
d="M775 0h-424l235 1107h-401l72 336h1226l-72 -336h-401zM732 1536l-183 336h276l91 -192h8l173 192h276l-327 -336h-314z" />
    <glyph glyph-name="Tbar" unicode="&#x166;" horiz-adv-x="1306" 
d="M1411 1107h-401l-46 -216h304l-71 -336h-304l-118 -555h-424l118 555h-254l72 336h253l46 216h-401l72 336h1226z" />
    <glyph glyph-name="U" unicode="U" horiz-adv-x="1501" 
d="M745 -25c-381 0 -615 199 -615 488c0 38 4 81 13 123l182 857h424l-181 -853c-6 -28 -9 -54 -9 -77c0 -115 92 -181 204 -181c123 0 202 73 232 214l189 897h424l-209 -991c-63 -299 -324 -477 -654 -477z" />
    <glyph glyph-name="Ugrave" unicode="&#xd9;" horiz-adv-x="1501" 
d="M745 -25c-381 0 -615 199 -615 488c0 38 4 81 13 123l182 857h424l-181 -853c-6 -28 -9 -54 -9 -77c0 -115 92 -181 204 -181c123 0 202 73 232 214l189 897h424l-209 -991c-63 -299 -324 -477 -654 -477zM839 1555l-206 321h332l164 -321h-290z" />
    <glyph glyph-name="Udblgrave" unicode="&#x214;" horiz-adv-x="1501" 
d="M745 -25c-381 0 -615 199 -615 488c0 38 4 81 13 123l182 857h424l-181 -853c-6 -28 -9 -54 -9 -77c0 -115 92 -181 204 -181c123 0 202 73 232 214l189 897h424l-209 -991c-63 -299 -324 -477 -654 -477zM589 1555l-206 321h332l164 -321h-290zM1059 1555l-206 321h332
l164 -321h-290z" />
    <glyph glyph-name="Uacute" unicode="&#xda;" horiz-adv-x="1501" 
d="M745 -25c-381 0 -615 199 -615 488c0 38 4 81 13 123l182 857h424l-181 -853c-6 -28 -9 -54 -9 -77c0 -115 92 -181 204 -181c123 0 202 73 232 214l189 897h424l-209 -991c-63 -299 -324 -477 -654 -477zM1145 1555h-322l300 321h364z" />
    <glyph glyph-name="Uhungarumlaut" unicode="&#x170;" horiz-adv-x="1501" 
d="M745 -25c-381 0 -615 199 -615 488c0 38 4 81 13 123l182 857h424l-181 -853c-6 -28 -9 -54 -9 -77c0 -115 92 -181 204 -181c123 0 202 73 232 214l189 897h424l-209 -991c-63 -299 -324 -477 -654 -477zM1405 1555h-322l300 321h364zM885 1555h-322l300 321h364z" />
    <glyph glyph-name="Ucircumflex" unicode="&#xdb;" horiz-adv-x="1501" 
d="M745 -25c-381 0 -615 199 -615 488c0 38 4 81 13 123l182 857h424l-181 -853c-6 -28 -9 -54 -9 -77c0 -115 92 -181 204 -181c123 0 202 73 232 214l189 897h424l-209 -991c-63 -299 -324 -477 -654 -477zM1206 1872l183 -336h-276l-91 192h-8l-173 -192h-276l327 336
h314z" />
    <glyph glyph-name="Ucaron" unicode="&#x1d3;" horiz-adv-x="1501" 
d="M745 -25c-381 0 -615 199 -615 488c0 38 4 81 13 123l182 857h424l-181 -853c-6 -28 -9 -54 -9 -77c0 -115 92 -181 204 -181c123 0 202 73 232 214l189 897h424l-209 -991c-63 -299 -324 -477 -654 -477zM820 1536l-183 336h276l91 -192h8l173 192h276l-327 -336h-314z
" />
    <glyph glyph-name="Ucircumflexbelow" unicode="&#x1e76;" horiz-adv-x="1501" 
d="M745 -25c-381 0 -615 199 -615 488c0 38 4 81 13 123l182 857h424l-181 -853c-6 -28 -9 -54 -9 -77c0 -115 92 -181 204 -181c123 0 202 73 232 214l189 897h424l-209 -991c-63 -299 -324 -477 -654 -477zM852 -165l183 -336h-276l-91 192h-8l-173 -192h-276l327 336h314
z" />
    <glyph glyph-name="Udieresis" unicode="&#xdc;" horiz-adv-x="1501" 
d="M745 -25c-381 0 -615 199 -615 488c0 38 4 81 13 123l182 857h424l-181 -853c-6 -28 -9 -54 -9 -77c0 -115 92 -181 204 -181c123 0 202 73 232 214l189 897h424l-209 -991c-63 -299 -324 -477 -654 -477zM803 1559c-86 0 -149 63 -149 141s63 141 149 141
s149 -63 149 -141s-63 -141 -149 -141zM1221 1559c-86 0 -149 63 -149 141s63 141 149 141s149 -63 149 -141s-63 -141 -149 -141z" />
    <glyph glyph-name="Udieresisgrave" unicode="&#x1db;" horiz-adv-x="1501" 
d="M745 -25c-381 0 -615 199 -615 488c0 38 4 81 13 123l182 857h424l-181 -853c-6 -28 -9 -54 -9 -77c0 -115 92 -181 204 -181c123 0 202 73 232 214l189 897h424l-209 -991c-63 -299 -324 -477 -654 -477zM1208 1925h-270l-178 281h306zM803 1559c-86 0 -149 63 -149 141
s63 141 149 141s149 -63 149 -141s-63 -141 -149 -141zM1221 1559c-86 0 -149 63 -149 141s63 141 149 141s149 -63 149 -141s-63 -141 -149 -141z" />
    <glyph glyph-name="Udieresisacute" unicode="&#x1d7;" horiz-adv-x="1501" 
d="M745 -25c-381 0 -615 199 -615 488c0 38 4 81 13 123l182 857h424l-181 -853c-6 -28 -9 -54 -9 -77c0 -115 92 -181 204 -181c123 0 202 73 232 214l189 897h424l-209 -991c-63 -299 -324 -477 -654 -477zM897 1925l262 281h338l-298 -281h-302zM803 1559
c-86 0 -149 63 -149 141s63 141 149 141s149 -63 149 -141s-63 -141 -149 -141zM1221 1559c-86 0 -149 63 -149 141s63 141 149 141s149 -63 149 -141s-63 -141 -149 -141z" />
    <glyph glyph-name="Udieresismacron" unicode="&#x1d5;" horiz-adv-x="1501" 
d="M745 -25c-381 0 -615 199 -615 488c0 38 4 81 13 123l182 857h424l-181 -853c-6 -28 -9 -54 -9 -77c0 -115 92 -181 204 -181c123 0 202 73 232 214l189 897h424l-209 -991c-63 -299 -324 -477 -654 -477zM787 1836c92 0 158 -67 158 -150c0 -82 -66 -150 -158 -150
s-158 68 -158 150c0 83 66 150 158 150zM1476 2120l-38 -180h-748l38 180h748zM1231 1836c92 0 158 -67 158 -150c0 -82 -66 -150 -158 -150s-158 68 -158 150c0 83 66 150 158 150z" />
    <glyph glyph-name="Udieresiscaron" unicode="&#x1d9;" horiz-adv-x="1501" 
d="M745 -25c-381 0 -615 199 -615 488c0 38 4 81 13 123l182 857h424l-181 -853c-6 -28 -9 -54 -9 -77c0 -115 92 -181 204 -181c123 0 202 73 232 214l189 897h424l-209 -991c-63 -299 -324 -477 -654 -477zM927 1926l-182 305h255l78 -153h22l144 153h279l-312 -305h-284z
M787 1836c92 0 158 -67 158 -150c0 -82 -66 -150 -158 -150s-158 68 -158 150c0 83 66 150 158 150zM1231 1836c92 0 158 -67 158 -150c0 -82 -66 -150 -158 -150s-158 68 -158 150c0 83 66 150 158 150z" />
    <glyph glyph-name="Udieresisbelow" unicode="&#x1e72;" horiz-adv-x="1501" 
d="M745 -25c-381 0 -615 199 -615 488c0 38 4 81 13 123l182 857h424l-181 -853c-6 -28 -9 -54 -9 -77c0 -115 92 -181 204 -181c123 0 202 73 232 214l189 897h424l-209 -991c-63 -299 -324 -477 -654 -477zM455 -450c-86 0 -149 63 -149 141s63 141 149 141
s149 -63 149 -141s-63 -141 -149 -141zM873 -450c-86 0 -149 63 -149 141s63 141 149 141s149 -63 149 -141s-63 -141 -149 -141z" />
    <glyph glyph-name="Utildebelow" unicode="&#x1e74;" horiz-adv-x="1501" 
d="M745 -25c-381 0 -615 199 -615 488c0 38 4 81 13 123l182 857h424l-181 -853c-6 -28 -9 -54 -9 -77c0 -115 92 -181 204 -181c123 0 202 73 232 214l189 897h424l-209 -991c-63 -299 -324 -477 -654 -477zM808 -465c-146 0 -182 119 -261 119c-40 0 -71 -38 -88 -101
h-205c37 178 152 293 293 293c146 0 182 -119 261 -119c42 0 71 37 89 106h205c-39 -180 -155 -298 -294 -298z" />
    <glyph glyph-name="Uhookabove" unicode="&#x1ee6;" horiz-adv-x="1501" 
d="M745 -25c-381 0 -615 199 -615 488c0 38 4 81 13 123l182 857h424l-181 -853c-6 -28 -9 -54 -9 -77c0 -115 92 -181 204 -181c123 0 202 73 232 214l189 897h424l-209 -991c-63 -299 -324 -477 -654 -477zM823 1807l36 167c44 17 112 29 171 29c141 0 234 -71 234 -177
c0 -123 -116 -258 -280 -326l-82 136c79 30 132 78 132 126c0 39 -38 63 -97 63c-33 0 -85 -8 -114 -18z" />
    <glyph glyph-name="Ubreve" unicode="&#x16c;" horiz-adv-x="1501" 
d="M745 -25c-381 0 -615 199 -615 488c0 38 4 81 13 123l182 857h424l-181 -853c-6 -28 -9 -54 -9 -77c0 -115 92 -181 204 -181c123 0 202 73 232 214l189 897h424l-209 -991c-63 -299 -324 -477 -654 -477zM654 1870h230c-2 -11 -3 -21 -3 -31c0 -70 44 -117 132 -117
c100 0 167 62 189 148h242c-47 -182 -213 -334 -465 -334c-224 0 -331 124 -331 272c0 20 2 41 6 62z" />
    <glyph glyph-name="Uinvertedbreve" unicode="&#x216;" horiz-adv-x="1501" 
d="M745 -25c-381 0 -615 199 -615 488c0 38 4 81 13 123l182 857h424l-181 -853c-6 -28 -9 -54 -9 -77c0 -115 92 -181 204 -181c123 0 202 73 232 214l189 897h424l-209 -991c-63 -299 -324 -477 -654 -477zM1370 1536h-230c2 11 3 21 3 31c0 70 -44 117 -132 117
c-100 0 -167 -62 -189 -148h-242c47 182 213 334 465 334c224 0 331 -124 331 -272c0 -20 -2 -41 -6 -62z" />
    <glyph glyph-name="Utildeacute" unicode="&#x1e78;" horiz-adv-x="1501" 
d="M745 -25c-381 0 -615 199 -615 488c0 38 4 81 13 123l182 857h424l-181 -853c-6 -28 -9 -54 -9 -77c0 -115 92 -181 204 -181c123 0 202 73 232 214l189 897h424l-209 -991c-63 -299 -324 -477 -654 -477zM897 1925l262 281h338l-298 -281h-302zM1137 1536
c-140 0 -185 121 -254 121c-40 0 -76 -39 -92 -101h-202c38 177 156 293 298 293c140 0 184 -121 253 -121c43 0 78 39 95 106h202c-39 -178 -159 -298 -300 -298z" />
    <glyph glyph-name="Udotbelow" unicode="&#x1ee4;" horiz-adv-x="1501" 
d="M745 -25c-381 0 -615 199 -615 488c0 38 4 81 13 123l182 857h424l-181 -853c-6 -28 -9 -54 -9 -77c0 -115 92 -181 204 -181c123 0 202 73 232 214l189 897h424l-209 -991c-63 -299 -324 -477 -654 -477zM665 -482c-100 0 -177 78 -177 173s77 173 177 173
s177 -78 177 -173s-77 -173 -177 -173z" />
    <glyph glyph-name="Utilde" unicode="&#x168;" horiz-adv-x="1501" 
d="M745 -25c-381 0 -615 199 -615 488c0 38 4 81 13 123l182 857h424l-181 -853c-6 -28 -9 -54 -9 -77c0 -115 92 -181 204 -181c123 0 202 73 232 214l189 897h424l-209 -991c-63 -299 -324 -477 -654 -477zM1156 1546c-146 0 -182 119 -261 119c-40 0 -71 -38 -88 -101
h-205c37 178 152 293 293 293c146 0 182 -119 261 -119c42 0 71 37 89 106h205c-39 -180 -155 -298 -294 -298z" />
    <glyph glyph-name="Umacron" unicode="&#x16a;" horiz-adv-x="1501" 
d="M745 -25c-381 0 -615 199 -615 488c0 38 4 81 13 123l182 857h424l-181 -853c-6 -28 -9 -54 -9 -77c0 -115 92 -181 204 -181c123 0 202 73 232 214l189 897h424l-209 -991c-63 -299 -324 -477 -654 -477zM1405 1786l-38 -180h-748l38 180h748z" />
    <glyph glyph-name="Umacrondieresis" unicode="&#x1e7a;" horiz-adv-x="1501" 
d="M745 -25c-381 0 -615 199 -615 488c0 38 4 81 13 123l182 857h424l-181 -853c-6 -28 -9 -54 -9 -77c0 -115 92 -181 204 -181c123 0 202 73 232 214l189 897h424l-209 -991c-63 -299 -324 -477 -654 -477zM1366 1606h-748l38 180h748zM871 1931c-92 0 -158 68 -158 150
c0 83 66 150 158 150s158 -67 158 -150c0 -82 -66 -150 -158 -150zM1315 1931c-92 0 -158 68 -158 150c0 83 66 150 158 150s158 -67 158 -150c0 -82 -66 -150 -158 -150z" />
    <glyph glyph-name="Uring" unicode="&#x16e;" horiz-adv-x="1501" 
d="M745 -25c-381 0 -615 199 -615 488c0 38 4 81 13 123l182 857h424l-181 -853c-6 -28 -9 -54 -9 -77c0 -115 92 -181 204 -181c123 0 202 73 232 214l189 897h424l-209 -991c-63 -299 -324 -477 -654 -477zM1051 1574c-132 0 -244 106 -244 235c0 130 112 236 244 236
s243 -106 243 -236c0 -129 -111 -235 -243 -235zM1051 1725c47 0 88 38 88 84c0 47 -41 86 -88 86s-88 -39 -88 -86c0 -46 41 -84 88 -84z" />
    <glyph glyph-name="Uogonek" unicode="&#x172;" horiz-adv-x="1501" 
d="M1025 -468c-43 -17 -103 -26 -177 -26c-150 0 -260 80 -260 208c0 96 77 194 186 255v8c-5 -1 -11 -2 -16 -2c-381 0 -628 199 -628 488c0 38 4 81 13 123l182 857h426l-182 -853c-6 -28 -9 -54 -9 -77c0 -115 91 -181 203 -181c123 0 201 73 231 214l189 897h425
l-209 -991c-36 -171 -138 -300 -270 -386c-142 -92 -244 -172 -244 -276c0 -46 37 -74 107 -74c31 0 63 5 74 9z" />
    <glyph glyph-name="Uhorn" unicode="&#x1af;" horiz-adv-x="1789" 
d="M749 -25c-376 0 -628 195 -628 488c0 41 5 84 13 123l182 857h426l-182 -853c-6 -28 -9 -54 -9 -77c0 -107 83 -181 203 -181c123 0 201 73 231 214l189 897h444c41 0 73 23 82 66l44 205h303l-62 -290c-32 -153 -146 -240 -303 -240h-137l-155 -732
c-62 -295 -307 -477 -641 -477z" />
    <glyph glyph-name="Uhorngrave" unicode="&#x1eea;" horiz-adv-x="1789" 
d="M749 -25c-376 0 -628 195 -628 488c0 41 5 84 13 123l182 857h426l-182 -853c-6 -28 -9 -54 -9 -77c0 -107 83 -181 203 -181c123 0 201 73 231 214l189 897h444c41 0 73 23 82 66l44 205h303l-62 -290c-32 -153 -146 -240 -303 -240h-137l-155 -732
c-62 -295 -307 -477 -641 -477zM834 1555l-206 321h332l164 -321h-290z" />
    <glyph glyph-name="Uhornacute" unicode="&#x1ee8;" horiz-adv-x="1789" 
d="M749 -25c-376 0 -628 195 -628 488c0 41 5 84 13 123l182 857h426l-182 -853c-6 -28 -9 -54 -9 -77c0 -107 83 -181 203 -181c123 0 201 73 231 214l189 897h444c41 0 73 23 82 66l44 205h303l-62 -290c-32 -153 -146 -240 -303 -240h-137l-155 -732
c-62 -295 -307 -477 -641 -477zM1140 1555h-322l300 321h364z" />
    <glyph glyph-name="Uhorndotbelow" unicode="&#x1ef0;" horiz-adv-x="1789" 
d="M749 -25c-376 0 -628 195 -628 488c0 41 5 84 13 123l182 857h426l-182 -853c-6 -28 -9 -54 -9 -77c0 -107 83 -181 203 -181c123 0 201 73 231 214l189 897h444c41 0 73 23 82 66l44 205h303l-62 -290c-32 -153 -146 -240 -303 -240h-137l-155 -732
c-62 -295 -307 -477 -641 -477zM627 -482c-100 0 -177 78 -177 173s77 173 177 173s177 -78 177 -173s-77 -173 -177 -173z" />
    <glyph glyph-name="Uhornhookabove" unicode="&#x1eec;" horiz-adv-x="1789" 
d="M749 -25c-376 0 -628 195 -628 488c0 41 5 84 13 123l182 857h426l-182 -853c-6 -28 -9 -54 -9 -77c0 -107 83 -181 203 -181c123 0 201 73 231 214l189 897h444c41 0 73 23 82 66l44 205h303l-62 -290c-32 -153 -146 -240 -303 -240h-137l-155 -732
c-62 -295 -307 -477 -641 -477zM818 1807l36 167c44 17 112 29 171 29c141 0 234 -71 234 -177c0 -123 -116 -258 -280 -326l-82 136c79 30 132 78 132 126c0 39 -38 63 -97 63c-33 0 -85 -8 -114 -18z" />
    <glyph glyph-name="Uhorntilde" unicode="&#x1eee;" horiz-adv-x="1789" 
d="M749 -25c-376 0 -628 195 -628 488c0 41 5 84 13 123l182 857h426l-182 -853c-6 -28 -9 -54 -9 -77c0 -107 83 -181 203 -181c123 0 201 73 231 214l189 897h444c41 0 73 23 82 66l44 205h303l-62 -290c-32 -153 -146 -240 -303 -240h-137l-155 -732
c-62 -295 -307 -477 -641 -477zM1151 1546c-146 0 -182 119 -261 119c-40 0 -71 -38 -88 -101h-205c37 178 152 293 293 293c146 0 182 -119 261 -119c42 0 71 37 89 106h205c-39 -180 -155 -298 -294 -298z" />
    <glyph glyph-name="V" unicode="V" horiz-adv-x="1445" 
d="M907 0h-532l-148 1443h473l19 -1016h8l444 1016h481z" />
    <glyph glyph-name="Vtilde" unicode="&#x1e7c;" horiz-adv-x="1445" 
d="M907 0h-532l-148 1443h473l19 -1016h8l444 1016h481zM1135 1546c-146 0 -182 119 -261 119c-40 0 -71 -38 -88 -101h-205c37 178 152 293 293 293c146 0 182 -119 261 -119c42 0 71 37 89 106h205c-39 -180 -155 -298 -294 -298z" />
    <glyph glyph-name="Vdotbelow" unicode="&#x1e7e;" horiz-adv-x="1445" 
d="M907 0h-532l-148 1443h473l19 -1016h8l444 1016h481zM576 -482c-100 0 -177 78 -177 173s77 173 177 173s177 -78 177 -173s-77 -173 -177 -173z" />
    <glyph glyph-name="W" unicode="W" horiz-adv-x="2014" 
d="M1087 821l-387 -821h-401l-66 1443h436l-24 -899h8l406 899h328l34 -899h8l350 899h436l-678 -1443h-396l-46 821h-8z" />
    <glyph glyph-name="Wgrave" unicode="&#x1e80;" horiz-adv-x="2014" 
d="M1087 821l-387 -821h-401l-66 1443h436l-24 -899h8l406 899h328l34 -899h8l350 899h436l-678 -1443h-396l-46 821h-8zM1105 1555l-206 321h332l164 -321h-290z" />
    <glyph glyph-name="Wacute" unicode="&#x1e82;" horiz-adv-x="2014" 
d="M1087 821l-387 -821h-401l-66 1443h436l-24 -899h8l406 899h328l34 -899h8l350 899h436l-678 -1443h-396l-46 821h-8zM1411 1555h-322l300 321h364z" />
    <glyph glyph-name="Wdotaccent" unicode="&#x1e86;" horiz-adv-x="2014" 
d="M1087 821l-387 -821h-401l-66 1443h436l-24 -899h8l406 899h328l34 -899h8l350 899h436l-678 -1443h-396l-46 821h-8zM1294 1603c-100 0 -177 78 -177 173s77 173 177 173s177 -78 177 -173s-77 -173 -177 -173z" />
    <glyph glyph-name="Wdotbelow" unicode="&#x1e88;" horiz-adv-x="2014" 
d="M1087 821l-387 -821h-401l-66 1443h436l-24 -899h8l406 899h328l34 -899h8l350 899h436l-678 -1443h-396l-46 821h-8zM856 -482c-100 0 -177 78 -177 173s77 173 177 173s177 -78 177 -173s-77 -173 -177 -173z" />
    <glyph glyph-name="Wdieresis" unicode="&#x1e84;" horiz-adv-x="2014" 
d="M1087 821l-387 -821h-401l-66 1443h436l-24 -899h8l406 899h328l34 -899h8l350 899h436l-678 -1443h-396l-46 821h-8zM1069 1559c-86 0 -149 63 -149 141s63 141 149 141s149 -63 149 -141s-63 -141 -149 -141zM1487 1559c-86 0 -149 63 -149 141s63 141 149 141
s149 -63 149 -141s-63 -141 -149 -141z" />
    <glyph glyph-name="Wcircumflex" unicode="&#x174;" horiz-adv-x="2014" 
d="M1087 821l-387 -821h-401l-66 1443h436l-24 -899h8l406 899h328l34 -899h8l350 899h436l-678 -1443h-396l-46 821h-8zM1472 1872l183 -336h-276l-91 192h-8l-173 -192h-276l327 336h314z" />
    <glyph glyph-name="X" unicode="X" horiz-adv-x="1476" 
d="M-64 0l609 727l-304 716h454l169 -413h8l307 413h490l-614 -724l306 -719h-453l-173 420h-8l-313 -420h-478z" />
    <glyph glyph-name="Xdotaccent" unicode="&#x1e8a;" horiz-adv-x="1476" 
d="M-64 0l609 727l-304 716h454l169 -413h8l307 413h490l-614 -724l306 -719h-453l-173 420h-8l-313 -420h-478zM1013 1603c-100 0 -177 78 -177 173s77 173 177 173s177 -78 177 -173s-77 -173 -177 -173z" />
    <glyph glyph-name="Xdieresis" unicode="&#x1e8c;" horiz-adv-x="1476" 
d="M-64 0l609 727l-304 716h454l169 -413h8l307 413h490l-614 -724l306 -719h-453l-173 420h-8l-313 -420h-478zM788 1559c-86 0 -149 63 -149 141s63 141 149 141s149 -63 149 -141s-63 -141 -149 -141zM1206 1559c-86 0 -149 63 -149 141s63 141 149 141s149 -63 149 -141
s-63 -141 -149 -141z" />
    <glyph glyph-name="Y" unicode="Y" horiz-adv-x="1430" 
d="M838 0h-424l97 457l-284 986h439l133 -585h8l371 585h459l-702 -986z" />
    <glyph glyph-name="Ygrave" unicode="&#x1ef2;" horiz-adv-x="1430" 
d="M838 0h-424l97 457l-284 986h439l133 -585h8l371 585h459l-702 -986zM809 1555l-206 321h332l164 -321h-290z" />
    <glyph glyph-name="Yacute" unicode="&#xdd;" horiz-adv-x="1430" 
d="M838 0h-424l97 457l-284 986h439l133 -585h8l371 585h459l-702 -986zM1115 1555h-322l300 321h364z" />
    <glyph glyph-name="Ydotaccent" unicode="&#x1e8e;" horiz-adv-x="1430" 
d="M838 0h-424l97 457l-284 986h439l133 -585h8l371 585h459l-702 -986zM998 1603c-100 0 -177 78 -177 173s77 173 177 173s177 -78 177 -173s-77 -173 -177 -173z" />
    <glyph glyph-name="Ydotbelow" unicode="&#x1ef4;" horiz-adv-x="1430" 
d="M838 0h-424l97 457l-284 986h439l133 -585h8l371 585h459l-702 -986zM561 -482c-100 0 -177 78 -177 173s77 173 177 173s177 -78 177 -173s-77 -173 -177 -173z" />
    <glyph glyph-name="Ydieresis" unicode="&#x178;" horiz-adv-x="1430" 
d="M838 0h-424l97 457l-284 986h439l133 -585h8l371 585h459l-702 -986zM773 1559c-86 0 -149 63 -149 141s63 141 149 141s149 -63 149 -141s-63 -141 -149 -141zM1191 1559c-86 0 -149 63 -149 141s63 141 149 141s149 -63 149 -141s-63 -141 -149 -141z" />
    <glyph glyph-name="Ytilde" unicode="&#x1ef8;" horiz-adv-x="1430" 
d="M838 0h-424l97 457l-284 986h439l133 -585h8l371 585h459l-702 -986zM1126 1546c-146 0 -182 119 -261 119c-40 0 -71 -38 -88 -101h-205c37 178 152 293 293 293c146 0 182 -119 261 -119c42 0 71 37 89 106h205c-39 -180 -155 -298 -294 -298z" />
    <glyph glyph-name="Ycircumflex" unicode="&#x176;" horiz-adv-x="1430" 
d="M838 0h-424l97 457l-284 986h439l133 -585h8l371 585h459l-702 -986zM1176 1872l183 -336h-276l-91 192h-8l-173 -192h-276l327 336h314z" />
    <glyph glyph-name="Ymacron" unicode="&#x232;" horiz-adv-x="1430" 
d="M838 0h-424l97 457l-284 986h439l133 -585h8l371 585h459l-702 -986zM1375 1786l-38 -180h-748l38 180h748z" />
    <glyph glyph-name="Yhookabove" unicode="&#x1ef6;" horiz-adv-x="1430" 
d="M838 0h-424l97 457l-284 986h439l133 -585h8l371 585h459l-702 -986zM793 1807l36 167c44 17 112 29 171 29c141 0 234 -71 234 -177c0 -123 -116 -258 -280 -326l-82 136c79 30 132 78 132 126c0 39 -38 63 -97 63c-33 0 -85 -8 -114 -18z" />
    <glyph glyph-name="Z" unicode="Z" horiz-adv-x="1281" 
d="M-18 0l57 266l772 833v8h-589l72 336h1108l-57 -265l-773 -834v-8h618l-71 -336h-1137z" />
    <glyph glyph-name="Zacute" unicode="&#x179;" horiz-adv-x="1281" 
d="M-18 0l57 266l772 833v8h-589l72 336h1108l-57 -265l-773 -834v-8h618l-71 -336h-1137zM1036 1555h-322l300 321h364z" />
    <glyph glyph-name="Zcaron" unicode="&#x17d;" horiz-adv-x="1281" 
d="M-18 0l57 266l772 833v8h-589l72 336h1108l-57 -265l-773 -834v-8h618l-71 -336h-1137zM711 1536l-183 336h276l91 -192h8l173 192h276l-327 -336h-314z" />
    <glyph glyph-name="Zcircumflex" unicode="&#x1e90;" horiz-adv-x="1281" 
d="M-18 0l57 266l772 833v8h-589l72 336h1108l-57 -265l-773 -834v-8h618l-71 -336h-1137zM1097 1872l183 -336h-276l-91 192h-8l-173 -192h-276l327 336h314z" />
    <glyph glyph-name="Zlinebelow" unicode="&#x1e94;" horiz-adv-x="1281" 
d="M-18 0l57 266l772 833v8h-589l72 336h1108l-57 -265l-773 -834v-8h618l-71 -336h-1137zM879 -219l-38 -180h-748l38 180h748z" />
    <glyph glyph-name="Zdotbelow" unicode="&#x1e92;" horiz-adv-x="1281" 
d="M-18 0l57 266l772 833v8h-589l72 336h1108l-57 -265l-773 -834v-8h618l-71 -336h-1137zM486 -482c-100 0 -177 78 -177 173s77 173 177 173s177 -78 177 -173s-77 -173 -177 -173z" />
    <glyph glyph-name="Zdotaccent" unicode="&#x17b;" horiz-adv-x="1281" 
d="M-18 0l57 266l772 833v8h-589l72 336h1108l-57 -265l-773 -834v-8h618l-71 -336h-1137zM919 1603c-100 0 -177 78 -177 173s77 173 177 173s177 -78 177 -173s-77 -173 -177 -173z" />
    <glyph glyph-name="AE" unicode="&#xc6;" horiz-adv-x="2086" 
d="M1119 1129h-112l-303 -543h300zM879 0l61 286h-403l-160 -286h-426l847 1443h1407l-72 -336h-643l-49 -234h606l-65 -304h-606l-50 -233h643l-71 -336h-1019z" />
    <glyph glyph-name="AEmacron" unicode="&#x1e2;" horiz-adv-x="2086" 
d="M1119 1129h-112l-303 -543h300zM879 0l61 286h-403l-160 -286h-426l847 1443h1407l-72 -336h-643l-49 -234h606l-65 -304h-606l-50 -233h643l-71 -336h-1019zM1950 1786l-38 -180h-748l38 180h748z" />
    <glyph glyph-name="AEacute" unicode="&#x1fc;" horiz-adv-x="2086" 
d="M1119 1129h-112l-303 -543h300zM879 0l61 286h-403l-160 -286h-426l847 1443h1407l-72 -336h-643l-49 -234h606l-65 -304h-606l-50 -233h643l-71 -336h-1019zM1690 1555h-322l300 321h364z" />
    <glyph glyph-name="OE" unicode="&#x152;" horiz-adv-x="2233" 
d="M1126 0l36 180h-8c-88 -126 -262 -205 -450 -205c-337 0 -568 251 -568 617c0 505 339 876 802 876c199 0 351 -91 436 -259h8l51 234h906l-72 -336h-593l-49 -234h556l-65 -304h-556l-50 -233h594l-71 -336h-907zM1167 829c0 183 -95 301 -242 301
c-196 0 -359 -234 -359 -515c0 -183 95 -302 241 -302c197 0 360 234 360 516z" />
    <glyph glyph-name="Eth" unicode="&#xd0;" horiz-adv-x="1492" 
d="M518 336h158c226 0 386 188 386 502c0 161 -88 270 -238 270h-143l-45 -215h189l-72 -336h-188zM325 1443h600c334 0 573 -203 573 -551c0 -519 -304 -892 -761 -892h-719l119 557h-109l72 336h108z" />
    <glyph glyph-name="Thorn" unicode="&#xde;" horiz-adv-x="1418" 
d="M44 0l307 1443h426l-44 -204h209c272 0 473 -183 473 -431c0 -310 -252 -567 -608 -567h-289l-51 -241h-423zM660 918l-76 -360h179c139 0 233 83 233 205c0 101 -63 155 -183 155h-153z" />
    <glyph glyph-name="Alphagreek" unicode="&#x391;" horiz-adv-x="1494" 
d="M902 1089l-247 -503h278l-22 503h-9zM959 0l-13 287h-438l-141 -287h-447l794 1443h532l148 -1443h-435z" />
    <glyph glyph-name="Betagreek" unicode="&#x392;" horiz-adv-x="1387" 
d="M808 0h-790l307 1443h669c286 0 429 -135 429 -307c0 -194 -141 -338 -340 -375l-1 -8c152 -35 268 -143 268 -293c0 -268 -228 -460 -542 -460zM682 1180l-62 -293h180c121 0 201 73 201 172c0 71 -52 121 -155 121h-164zM494 291h206c141 0 228 77 228 196
c0 83 -61 137 -178 137h-186z" />
    <glyph glyph-name="Gammagreek" unicode="&#x393;" horiz-adv-x="1149" 
d="M460 0h-442l307 1443h993l-72 -336h-551z" />
    <glyph glyph-name="Deltagreek" unicode="&#x394;" horiz-adv-x="1513" 
d="M1353 0h-1367l46 217l692 1226h532l143 -1228zM907 1121l-396 -777l-1 -8h456l1 8l-51 777h-9z" />
    <glyph glyph-name="Deltagreek" unicode="&#x2206;" horiz-adv-x="1513" 
d="M1353 0h-1367l46 217l692 1226h532l143 -1228zM907 1121l-396 -777l-1 -8h456l1 8l-51 777h-9z" />
    <glyph glyph-name="Epsilongreek" unicode="&#x395;" horiz-adv-x="1208" 
d="M1107 336l-71 -336h-1018l307 1443h1017l-72 -336h-593l-49 -234h556l-65 -304h-556l-50 -233h594z" />
    <glyph glyph-name="Zetagreek" unicode="&#x396;" horiz-adv-x="1281" 
d="M-18 0l57 266l772 833v8h-589l72 336h1108l-57 -265l-773 -834v-8h618l-71 -336h-1137z" />
    <glyph glyph-name="Etagreek" unicode="&#x397;" horiz-adv-x="1572" 
d="M1374 0h-434l120 562h-488l-120 -562h-434l307 1443h434l-118 -551h488l118 551h434z" />
    <glyph glyph-name="Thetagreek" unicode="&#x398;" horiz-adv-x="1669" 
d="M1067 555h-409l66 319h409zM805 -25c-417 0 -678 243 -678 630c0 513 349 862 864 862c418 0 678 -242 678 -629c0 -514 -349 -863 -864 -863zM1249 827c0 194 -103 313 -290 313c-235 0 -413 -232 -413 -527c0 -192 103 -309 290 -309c236 0 413 229 413 523z" />
    <glyph glyph-name="Iotagreek" unicode="&#x399;" horiz-adv-x="640" 
d="M442 0h-424l307 1443h424z" />
    <glyph glyph-name="Iotagreek.1" horiz-adv-x="1084" 
d="M1168 1122h-266l-171 -801h267l-68 -321h-267h-424h-265l68 321h265l171 801h-266l69 321h265h424h267z" />
    <glyph glyph-name="Kappagreek" unicode="&#x39a;" horiz-adv-x="1457" 
d="M442 0h-424l307 1443h424l-126 -590h8l561 590h480l-644 -675l322 -768h-464l-212 530l-154 -162z" />
    <glyph glyph-name="Lambdagreek" unicode="&#x39b;" horiz-adv-x="1473" 
d="M892 1089l-514 -1089h-448l774 1443h532l128 -1443h-434l-29 1089h-9z" />
    <glyph glyph-name="Mugreek" unicode="&#x39c;" horiz-adv-x="1850" 
d="M393 0h-374l306 1443h491l119 -905h8l487 905h529l-307 -1443h-375l195 908h-12l-502 -908h-244l-120 908h-8z" />
    <glyph glyph-name="Nugreek" unicode="&#x39d;" horiz-adv-x="1509" 
d="M423 0h-405l307 1443h320l393 -792h8l167 792h405l-307 -1443h-320l-393 792h-8z" />
    <glyph glyph-name="Xigreek" unicode="&#x39e;" horiz-adv-x="1281" 
d="M299 1443h1116l-74 -346h-1116zM1142 563h-942l66 314h942zM66 346h1116l-74 -346h-1116z" />
    <glyph glyph-name="Omicrongreek" unicode="&#x39f;" horiz-adv-x="1586" 
d="M915 1130c-194 0 -359 -231 -359 -515c0 -183 95 -302 241 -302c194 0 360 230 360 516c0 184 -96 301 -242 301zM784 -25c-412 0 -658 264 -658 614c0 529 356 879 799 879c423 0 662 -265 662 -614c0 -531 -361 -879 -803 -879z" />
    <glyph glyph-name="Pigreek" unicode="&#x3a0;" horiz-adv-x="1552" 
d="M1354 0h-433l235 1107h-468l-237 -1107h-433l307 1443h1336z" />
    <glyph glyph-name="Rhogreek" unicode="&#x3a1;" horiz-adv-x="1357" 
d="M325 1443h547c341 0 532 -180 532 -449c0 -368 -258 -600 -672 -600h-205l-84 -394h-423zM681 1123l-89 -415h143c148 0 244 107 244 248c0 114 -66 167 -187 167h-111z" />
    <glyph glyph-name="Sigmagreek" unicode="&#x3a3;" horiz-adv-x="1303" 
d="M578 343l-2 -8h636l-71 -335h-1159l51 239l419 486l-202 434l61 284h1113l-72 -336h-577l-2 -8l143 -353l-5 -18z" />
    <glyph glyph-name="Taugreek" unicode="&#x3a4;" horiz-adv-x="1306" 
d="M775 0h-424l235 1107h-401l72 336h1226l-72 -336h-401z" />
    <glyph glyph-name="Upsilongreek" unicode="&#x3a5;" horiz-adv-x="1430" 
d="M838 0h-424l97 457l-284 986h439l133 -585h8l371 585h459l-702 -986z" />
    <glyph glyph-name="Phigreek" unicode="&#x3a6;" horiz-adv-x="1999" 
d="M688 -153l34 156c-387 51 -595 301 -595 623c0 417 317 757 896 794l32 153h377l-34 -163c372 -48 595 -286 595 -626c0 -417 -322 -755 -896 -791l-32 -146h-377zM789 321l167 783c-248 -44 -419 -200 -419 -481c0 -165 96 -273 252 -302zM1164 309
c264 47 419 216 419 480c0 170 -100 275 -253 303z" />
    <glyph glyph-name="Chigreek" unicode="&#x3a7;" horiz-adv-x="1476" 
d="M-64 0l609 727l-304 716h454l169 -413h8l307 413h490l-614 -724l306 -719h-453l-173 420h-8l-313 -420h-478z" />
    <glyph glyph-name="Psigreek" unicode="&#x3a8;" horiz-adv-x="1847" 
d="M1030 0h-392l59 278c-331 22 -513 177 -513 439c0 41 4 82 13 124l128 602h394l-118 -556c-13 -62 -18 -92 -18 -118c0 -112 54 -162 183 -166l179 840h392l-182 -854c178 22 241 76 275 238l131 616h395l-141 -664c-72 -338 -293 -494 -729 -515z" />
    <glyph glyph-name="Omegagreek" unicode="&#x3a9;" horiz-adv-x="1637" 
d="M825 0l82 388c200 74 326 248 326 451c0 177 -125 291 -289 291c-220 0 -377 -172 -377 -430c0 -147 50 -233 152 -312l-82 -388h-628l67 316h262l2 8c-130 97 -194 237 -194 383c0 493 378 762 838 762c395 0 659 -225 659 -566c0 -237 -134 -465 -375 -579l-2 -8h283
l-67 -316h-657z" />
    <glyph glyph-name="Omegagreek" unicode="&#x2126;" horiz-adv-x="1637" 
d="M825 0l82 388c200 74 326 248 326 451c0 177 -125 291 -289 291c-220 0 -377 -172 -377 -430c0 -147 50 -233 152 -312l-82 -388h-628l67 316h262l2 8c-130 97 -194 237 -194 383c0 493 378 762 838 762c395 0 659 -225 659 -566c0 -237 -134 -465 -375 -579l-2 -8h283
l-67 -316h-657z" />
    <glyph glyph-name="Alphatonosgreek" unicode="&#x386;" horiz-adv-x="1494" 
d="M902 1089l-247 -503h278l-22 503h-9zM959 0l-13 287h-438l-141 -287h-447l794 1443h532l148 -1443h-435zM13 1102l156 341h392l-231 -341h-317z" />
    <glyph glyph-name="Epsilontonosgreek" unicode="&#x388;" horiz-adv-x="1700" 
d="M144 1102l156 341h392l-231 -341h-317zM1599 336l-71 -336h-1018l307 1443h1017l-72 -336h-593l-49 -234h556l-65 -304h-556l-50 -233h594z" />
    <glyph glyph-name="Etatonosgreek" unicode="&#x389;" horiz-adv-x="2064" 
d="M144 1102l156 341h392l-231 -341h-317zM1866 0h-434l120 562h-488l-120 -562h-434l307 1443h434l-118 -551h488l118 551h434z" />
    <glyph glyph-name="Iotatonosgreek" unicode="&#x38a;" horiz-adv-x="1132" 
d="M144 1102l156 341h392l-231 -341h-317zM934 0h-424l307 1443h424z" />
    <glyph glyph-name="Iotadieresisgreek" unicode="&#x3aa;" horiz-adv-x="640" 
d="M442 0h-424l307 1443h424zM383 1559c-86 0 -149 63 -149 141s63 141 149 141s149 -63 149 -141s-63 -141 -149 -141zM801 1559c-86 0 -149 63 -149 141s63 141 149 141s149 -63 149 -141s-63 -141 -149 -141z" />
    <glyph glyph-name="Iotatonosgreek.1" horiz-adv-x="1579" 
d="M300 1443h392l-231 -341h-317zM1663 1122h-266l-171 -801h267l-68 -321h-267h-424h-265l68 321h265l171 801h-266l69 321h265h424h267z" />
    <glyph glyph-name="Iotadieresisgreek.1" horiz-adv-x="1084" 
d="M1022 1559c-86 0 -149 63 -149 141s63 141 149 141s149 -63 149 -141s-63 -141 -149 -141zM604 1559c-86 0 -149 63 -149 141s63 141 149 141s149 -63 149 -141s-63 -141 -149 -141zM1168 1122h-266l-171 -801h267l-68 -321h-267h-424h-265l68 321h265l171 801h-266
l69 321h265h424h267z" />
    <glyph glyph-name="Omicrontonosgreek" unicode="&#x38c;" horiz-adv-x="1899" 
d="M144 1102l156 341h392l-231 -341h-317zM1228 1130c-194 0 -359 -231 -359 -515c0 -183 95 -302 241 -302c194 0 360 230 360 516c0 184 -96 301 -242 301zM1097 -25c-412 0 -658 264 -658 614c0 529 356 879 799 879c423 0 662 -265 662 -614c0 -531 -361 -879 -803 -879
z" />
    <glyph glyph-name="Upsilontonosgreek" unicode="&#x38e;" horiz-adv-x="2061" 
d="M244 1102l156 341h392l-231 -341h-317zM1469 0h-424l97 457l-284 986h439l133 -585h8l371 585h459l-702 -986z" />
    <glyph glyph-name="Upsilondieresisgreek" unicode="&#x3ab;" horiz-adv-x="1430" 
d="M838 0h-424l97 457l-284 986h439l133 -585h8l371 585h459l-702 -986zM773 1559c-86 0 -149 63 -149 141s63 141 149 141s149 -63 149 -141s-63 -141 -149 -141zM1191 1559c-86 0 -149 63 -149 141s63 141 149 141s149 -63 149 -141s-63 -141 -149 -141z" />
    <glyph glyph-name="Omegatonosgreek" unicode="&#x38f;" horiz-adv-x="1982" 
d="M144 1102l156 341h392l-231 -341h-317zM1170 0l82 388c200 74 326 248 326 451c0 177 -125 291 -289 291c-220 0 -377 -172 -377 -430c0 -147 50 -233 152 -312l-82 -388h-628l67 316h262l2 8c-130 97 -194 237 -194 383c0 493 378 762 838 762c395 0 659 -225 659 -566
c0 -237 -134 -465 -375 -579l-2 -8h283l-67 -316h-657z" />
    <glyph glyph-name="Acyrillic" unicode="&#x410;" horiz-adv-x="1504" 
d="M907 1089l-247 -503h278l-22 503h-9zM964 0l-13 287h-438l-141 -287h-447l794 1443h532l148 -1443h-435z" />
    <glyph glyph-name="uni04D0" unicode="&#x4d0;" horiz-adv-x="1504" 
d="M907 1089l-247 -503h278l-22 503h-9zM964 0l-13 287h-438l-141 -287h-447l794 1443h532l148 -1443h-435zM693 1877h229c-16 -90 35 -136 125 -136c97 0 161 46 183 136h229c-43 -196 -176 -321 -420 -321c-240 0 -377 117 -346 321z" />
    <glyph glyph-name="uni04D2" unicode="&#x4d2;" horiz-adv-x="1504" 
d="M907 1089l-247 -503h278l-22 503h-9zM964 0l-13 287h-438l-141 -287h-447l794 1443h532l148 -1443h-435zM831 1559c-86 0 -149 63 -149 141s63 141 149 141s149 -63 149 -141s-63 -141 -149 -141zM1249 1559c-86 0 -149 63 -149 141s63 141 149 141s149 -63 149 -141
s-63 -141 -149 -141z" />
    <glyph glyph-name="uniF50E" horiz-adv-x="1504" 
d="M907 1089l-247 -503h278l-22 503h-9zM964 0l-13 287h-438l-141 -287h-447l794 1443h532l148 -1443h-435zM1433 1786l-38 -180h-748l38 180h748z" />
    <glyph glyph-name="uniF460" horiz-adv-x="1504" 
d="M907 1089l-247 -503h278l-22 503h-9zM964 0l-13 287h-438l-141 -287h-447l794 1443h532l148 -1443h-435zM1173 1555h-322l300 321h364z" />
    <glyph glyph-name="Becyrillic" unicode="&#x411;" horiz-adv-x="1375" 
d="M652 0h-629l306 1443h1074l-72 -336h-648l-37 -173h156c334 0 524 -143 524 -395c0 -331 -260 -539 -674 -539zM514 314h143c148 0 247 77 247 191c0 80 -59 129 -173 129h-149z" />
    <glyph glyph-name="Vecyrillic" unicode="&#x412;" horiz-adv-x="1397" 
d="M813 0h-790l307 1443h669c286 0 429 -135 429 -307c0 -194 -141 -338 -340 -375l-1 -8c152 -35 268 -143 268 -293c0 -268 -228 -460 -542 -460zM687 1180l-62 -293h180c121 0 201 73 201 172c0 71 -52 121 -155 121h-164zM499 291h206c141 0 228 77 228 196
c0 83 -61 137 -178 137h-186z" />
    <glyph glyph-name="Gecyrillic" unicode="&#x413;" horiz-adv-x="1181" 
d="M446 0h-423l307 1443h1003l-72 -336h-579z" />
    <glyph glyph-name="Gjecyrillic" unicode="&#x403;" horiz-adv-x="1181" 
d="M446 0h-423l307 1443h1003l-72 -336h-579zM998 1555h-322l300 321h364z" />
    <glyph glyph-name="Geupturncyrillic" unicode="&#x490;" horiz-adv-x="1182" 
d="M682 1107l-235 -1107h-424l307 1443h604l60 285h400l-132 -621h-580z" />
    <glyph glyph-name="uni04F6" unicode="&#x4f6;" horiz-adv-x="1181" 
d="M1261 1107h-579l-164 -771h180l-132 -621h-380l61 285h-224l307 1443h1003z" />
    <glyph glyph-name="uni0492" unicode="&#x492;" horiz-adv-x="1181" 
d="M1261 1107h-579l-55 -259h366l-61 -290h-367l-119 -558h-423l119 558h-113l61 290h113l127 595h1003z" />
    <glyph glyph-name="uniF53C" horiz-adv-x="1179" 
d="M465 0h-442l307 1443h1013l-72 -336h-571l-59 -278h516l-69 -318h-515z" />
    <glyph glyph-name="uni04FA" unicode="&#x4fa;" horiz-adv-x="1181" 
d="M1261 1107h-579l-55 -259h366l-61 -290h-367l-119 -558c-56 -264 -194 -369 -488 -369c-62 0 -132 8 -176 21l61 288c13 -3 42 -5 61 -5c70 0 108 27 126 99l112 524h-113l61 290h113l127 595h1003z" />
    <glyph glyph-name="Decyrillic" unicode="&#x414;" horiz-adv-x="1629" 
d="M671 679c-42 -151 -87 -259 -149 -320l-4 -22h469l164 771h-359zM297 0l-61 -285h-380l133 622h95c113 83 153 181 209 383l199 723h1154l-235 -1106h180l-133 -622h-380l61 285h-842z" />
    <glyph glyph-name="uni0414.BUL" horiz-adv-x="1680" 
d="M328 0l-61 -285h-380l133 622h160l588 1106h552l131 -1106h171l-133 -622h-380l61 285h-842zM953 1084l-344 -729h419l-63 729h-12z" />
    <glyph glyph-name="Iecyrillic" unicode="&#x415;" horiz-adv-x="1218" 
d="M1112 336l-71 -336h-1018l307 1443h1017l-72 -336h-593l-49 -234h556l-65 -304h-556l-50 -233h594z" />
    <glyph glyph-name="Iocyrillic" unicode="&#x401;" horiz-adv-x="1218" 
d="M1112 336l-71 -336h-1018l307 1443h1017l-72 -336h-593l-49 -234h556l-65 -304h-556l-50 -233h594zM658 1559c-86 0 -149 63 -149 141s63 141 149 141s149 -63 149 -141s-63 -141 -149 -141zM1076 1559c-86 0 -149 63 -149 141s63 141 149 141s149 -63 149 -141
s-63 -141 -149 -141z" />
    <glyph glyph-name="uni04D6" unicode="&#x4d6;" horiz-adv-x="1218" 
d="M1112 336l-71 -336h-1018l307 1443h1017l-72 -336h-593l-49 -234h556l-65 -304h-556l-50 -233h594zM520 1877h229c-16 -90 35 -136 125 -136c97 0 161 46 183 136h229c-43 -196 -176 -321 -420 -321c-240 0 -377 117 -346 321z" />
    <glyph glyph-name="uniF510" horiz-adv-x="1218" 
d="M1112 336l-71 -336h-1018l307 1443h1017l-72 -336h-593l-49 -234h556l-65 -304h-556l-50 -233h594zM1260 1786l-38 -180h-748l38 180h748z" />
    <glyph glyph-name="uniF512" horiz-adv-x="1218" 
d="M1112 336l-71 -336h-1018l307 1443h1017l-72 -336h-593l-49 -234h556l-65 -304h-556l-50 -233h594zM637 1836c92 0 158 -67 158 -150c0 -82 -66 -150 -158 -150s-158 68 -158 150c0 83 66 150 158 150zM1326 2120l-38 -180h-748l38 180h748zM1081 1836
c92 0 158 -67 158 -150c0 -82 -66 -150 -158 -150s-158 68 -158 150c0 83 66 150 158 150z" />
    <glyph glyph-name="uni0400" unicode="&#x400;" horiz-adv-x="1218" 
d="M1112 336l-71 -336h-1018l307 1443h1017l-72 -336h-593l-49 -234h556l-65 -304h-556l-50 -233h594zM694 1555l-206 321h332l164 -321h-290z" />
    <glyph glyph-name="uniF461" horiz-adv-x="1218" 
d="M1112 336l-71 -336h-1018l307 1443h1017l-72 -336h-593l-49 -234h556l-65 -304h-556l-50 -233h594zM1000 1555h-322l300 321h364z" />
    <glyph glyph-name="uniF469" horiz-adv-x="1218" 
d="M1112 336l-71 -336h-1018l307 1443h1017l-72 -336h-593l-49 -234h556l-65 -304h-556l-50 -233h594zM956 1577h-250l92 340h373zM1303 1557c-92 0 -158 68 -158 150c0 83 66 150 158 150s158 -67 158 -150c0 -82 -66 -150 -158 -150zM499 1557c-92 0 -158 68 -158 150
c0 83 66 150 158 150s158 -67 158 -150c0 -82 -66 -150 -158 -150z" />
    <glyph glyph-name="uniF514" horiz-adv-x="1218" 
d="M563 2234h280c-1 -6 -1 -12 -1 -17c0 -57 42 -90 111 -90c76 0 137 40 156 107h280c-40 -188 -230 -312 -479 -312c-220 0 -354 97 -354 250c0 20 2 40 7 62zM422 1572c40 188 230 312 479 312c220 0 354 -97 354 -250c0 -20 -2 -40 -7 -62h-280c1 6 1 12 1 17
c0 57 -42 90 -111 90c-76 0 -137 -40 -156 -107h-280zM1112 336l-71 -336h-1018l307 1443h1017l-72 -336h-593l-49 -234h556l-65 -304h-556l-50 -233h594z" />
    <glyph glyph-name="Zhecyrillic" unicode="&#x416;" horiz-adv-x="2166" 
d="M902 542l-481 -542h-491l668 747l-315 696h430l259 -587h15l125 587h414l-125 -587h15l509 587h438l-658 -755l328 -688h-430l-253 542h-16l-115 -542h-414l115 542h-18z" />
    <glyph glyph-name="uni04C1" unicode="&#x4c1;" horiz-adv-x="2166" 
d="M902 542l-481 -542h-491l668 747l-315 696h430l259 -587h15l125 587h414l-125 -587h15l509 587h438l-658 -755l328 -688h-430l-253 542h-16l-115 -542h-414l115 542h-18zM1014 1870h230c-2 -11 -3 -21 -3 -31c0 -70 44 -117 132 -117c100 0 167 62 189 148h242
c-47 -182 -213 -334 -465 -334c-224 0 -331 124 -331 272c0 20 2 41 6 62z" />
    <glyph glyph-name="uni04DC" unicode="&#x4dc;" horiz-adv-x="2166" 
d="M902 542l-481 -542h-491l668 747l-315 696h430l259 -587h15l125 587h414l-125 -587h15l509 587h438l-658 -755l328 -688h-430l-253 542h-16l-115 -542h-414l115 542h-18zM1163 1559c-86 0 -149 63 -149 141s63 141 149 141s149 -63 149 -141s-63 -141 -149 -141z
M1581 1559c-86 0 -149 63 -149 141s63 141 149 141s149 -63 149 -141s-63 -141 -149 -141z" />
    <glyph glyph-name="uni0496" unicode="&#x496;" horiz-adv-x="2271" 
d="M1705 688l168 -352h293l-132 -621h-380l61 285h-112l-253 542h-16l-115 -542h-414l115 542h-18l-481 -542h-491l668 747l-315 696h430l259 -587h15l125 587h414l-125 -587h15l509 587h438z" />
    <glyph glyph-name="uni0416.BUL" horiz-adv-x="2195" 
d="M2392 1443l-591 -650l268 -793h-445l-148 538l-163 -170l-78 -368h-424l78 368l-82 155l-385 -523h-492l646 826l-317 617h445l267 -595h20l127 595h424l-127 -595h20l511 595h446z" />
    <glyph glyph-name="Zecyrillic" unicode="&#x417;" horiz-adv-x="1367" 
d="M527 591l60 293h175c136 0 216 52 216 139c0 78 -68 126 -179 126c-99 0 -181 -55 -197 -131h-382c38 265 289 450 612 450s546 -159 546 -391c0 -183 -137 -327 -337 -353l-1 -8c156 -38 249 -148 249 -296c0 -260 -255 -445 -612 -445c-390 0 -645 214 -592 496h389
c-8 -99 80 -174 205 -174c115 0 202 68 202 158c0 84 -84 136 -220 136h-134z" />
    <glyph glyph-name="uni04DE" unicode="&#x4de;" horiz-adv-x="1367" 
d="M527 591l60 293h175c136 0 216 52 216 139c0 78 -68 126 -179 126c-99 0 -181 -55 -197 -131h-382c38 265 289 450 612 450s546 -159 546 -391c0 -183 -137 -327 -337 -353l-1 -8c156 -38 249 -148 249 -296c0 -260 -255 -445 -612 -445c-390 0 -645 214 -592 496h389
c-8 -99 80 -174 205 -174c115 0 202 68 202 158c0 84 -84 136 -220 136h-134zM709 1559c-86 0 -149 63 -149 141s63 141 149 141s149 -63 149 -141s-63 -141 -149 -141zM1127 1559c-86 0 -149 63 -149 141s63 141 149 141s149 -63 149 -141s-63 -141 -149 -141z" />
    <glyph glyph-name="uni0498" unicode="&#x498;" horiz-adv-x="1367" 
d="M1041 724l-1 -8c156 -38 249 -148 249 -296c0 -219 -181 -385 -452 -432l-58 -273h-358l60 280c-276 59 -439 245 -396 476h389c-8 -99 80 -174 205 -174c115 0 202 68 202 158c0 84 -84 136 -220 136h-134l60 293h175c136 0 216 52 216 139c0 78 -68 126 -179 126
c-99 0 -181 -55 -197 -131h-382c38 265 289 450 612 450s546 -159 546 -391c0 -183 -137 -327 -337 -353z" />
    <glyph glyph-name="uniF50A" horiz-adv-x="1367" 
d="M1041 724l-1 -8c156 -38 249 -148 249 -296c0 -247 -230 -426 -558 -444l-43 -52c90 -13 138 -65 138 -149c0 -136 -139 -236 -328 -236c-60 0 -114 6 -138 15l35 161c25 -7 69 -12 110 -12c74 0 112 16 112 47c0 29 -28 39 -111 39h-58l29 125l59 71
c-308 45 -497 240 -451 486h389c-8 -99 80 -174 205 -174c115 0 202 68 202 158c0 84 -84 136 -220 136h-134l60 293h175c136 0 216 52 216 139c0 78 -68 126 -179 126c-99 0 -181 -55 -197 -131h-382c38 265 289 450 612 450s546 -159 546 -391c0 -183 -137 -327 -337 -353
z" />
    <glyph glyph-name="uniF516" horiz-adv-x="1367" 
d="M527 591l60 293h175c136 0 216 52 216 139c0 78 -68 126 -179 126c-99 0 -181 -55 -197 -131h-382c38 265 289 450 612 450s546 -159 546 -391c0 -183 -137 -327 -337 -353l-1 -8c156 -38 249 -148 249 -296c0 -260 -255 -445 -612 -445c-390 0 -645 214 -592 496h389
c-8 -99 80 -174 205 -174c115 0 202 68 202 158c0 84 -84 136 -220 136h-134zM726 1536l-183 336h276l91 -192h8l173 192h276l-327 -336h-314z" />
    <glyph glyph-name="Iicyrillic" unicode="&#x418;" horiz-adv-x="1592" 
d="M975 0l175 818h-20l-703 -818h-404l307 1443h414l-175 -818h20l703 818h404l-307 -1443h-414z" />
    <glyph glyph-name="Iishortcyrillic" unicode="&#x419;" horiz-adv-x="1592" 
d="M975 0l175 818h-20l-703 -818h-404l307 1443h414l-175 -818h20l703 818h404l-307 -1443h-414zM720 1877h229c-16 -90 35 -136 125 -136c97 0 161 46 183 136h229c-43 -196 -176 -321 -420 -321c-240 0 -377 117 -346 321z" />
    <glyph glyph-name="uni040D" unicode="&#x40d;" horiz-adv-x="1592" 
d="M975 0l175 818h-20l-703 -818h-404l307 1443h414l-175 -818h20l703 818h404l-307 -1443h-414zM894 1555l-206 321h332l164 -321h-290z" />
    <glyph glyph-name="uni04E2" unicode="&#x4e2;" horiz-adv-x="1592" 
d="M975 0l175 818h-20l-703 -818h-404l307 1443h414l-175 -818h20l703 818h404l-307 -1443h-414zM1460 1786l-38 -180h-748l38 180h748z" />
    <glyph glyph-name="uni04E4" unicode="&#x4e4;" horiz-adv-x="1592" 
d="M975 0l175 818h-20l-703 -818h-404l307 1443h414l-175 -818h20l703 818h404l-307 -1443h-414zM858 1559c-86 0 -149 63 -149 141s63 141 149 141s149 -63 149 -141s-63 -141 -149 -141zM1276 1559c-86 0 -149 63 -149 141s63 141 149 141s149 -63 149 -141
s-63 -141 -149 -141z" />
    <glyph glyph-name="uni048A" unicode="&#x48a;" horiz-adv-x="1791" 
d="M1257 1877h229c-43 -196 -176 -321 -420 -321c-240 0 -377 117 -346 321h229c-16 -90 35 -136 125 -136c97 0 161 46 183 136zM1696 1443l-236 -1107h236l-15 -73l-281 -548h-383l142 285h-184l175 818h-20l-703 -818h-404l307 1443h414l-175 -818h20l703 818h404z" />
    <glyph glyph-name="uniF462" horiz-adv-x="1592" 
d="M975 0l175 818h-20l-703 -818h-404l307 1443h414l-175 -818h20l703 818h404l-307 -1443h-414zM1200 1555h-322l300 321h364z" />
    <glyph glyph-name="uniF532" horiz-adv-x="1592" 
d="M1257 1877h229c-43 -196 -176 -321 -420 -321c-240 0 -377 117 -346 321h229c-16 -90 35 -136 125 -136c97 0 161 46 183 136zM1696 1443l-307 -1441l20 -2h-20c-56 -264 -194 -369 -488 -369c-62 0 -132 8 -176 21l61 288c13 -3 36 -5 55 -5c84 0 117 30 134 111h10
l165 772h-20l-703 -818h-404l307 1443h414l-175 -818h20l703 818h404z" />
    <glyph glyph-name="Kacyrillic" unicode="&#x41a;" horiz-adv-x="1478" 
d="M1668 1443l-712 -753l412 -690h-471l-321 543h-13l-116 -543h-424l307 1443h424l-124 -582h10l548 582h480z" />
    <glyph glyph-name="Kjecyrillic" unicode="&#x40c;" horiz-adv-x="1478" 
d="M1450 1876l-342 -321h-322l300 321h364zM1668 1443l-712 -753l412 -690h-471l-321 543h-13l-116 -543h-424l307 1443h424l-124 -582h10l548 582h480z" />
    <glyph glyph-name="uni049A" unicode="&#x49a;" horiz-adv-x="1565" 
d="M956 690l211 -354h293l-132 -621h-380l61 285h-112l-321 543h-13l-116 -543h-424l307 1443h424l-124 -582h10l548 582h480z" />
    <glyph glyph-name="uni049C" unicode="&#x49c;" horiz-adv-x="1603" 
d="M1793 1443l-499 -740l184 -703h-452l-133 540h-15l-55 -260h-226l55 260h-90l-115 -540h-424l307 1443h424l-129 -605h91l59 280h226l-59 -280h12l404 605h435z" />
    <glyph glyph-name="uni049E" unicode="&#x49e;" horiz-adv-x="1478" 
d="M1668 1443l-712 -753l412 -690h-471l-321 543h-13l-116 -543h-424l228 1071h-123l55 261h123l24 111h424l-24 -111h133l-56 -261h-132l-45 -210h10l548 582h480z" />
    <glyph glyph-name="uni04A0" unicode="&#x4a0;" horiz-adv-x="1984" 
d="M2174 1443l-712 -753l412 -690h-471l-321 543h-13l-116 -543h-424l236 1107h-580l71 336h580h424l-124 -582h10l548 582h480z" />
    <glyph glyph-name="uni04C3" unicode="&#x4c3;" horiz-adv-x="1471" 
d="M590 -428c-70 0 -134 7 -168 17l68 321c23 -6 54 -8 92 -8c212 0 328 186 328 355c0 152 -125 255 -332 255h-22l-109 -512h-424l307 1443h424l-127 -595h6l545 595h480l-614 -665c206 -96 301 -273 301 -481c0 -338 -264 -725 -755 -725z" />
    <glyph glyph-name="uni041A.BUL" horiz-adv-x="1457" 
d="M442 0h-424l307 1443h424l-126 -590h8l561 590h480l-644 -675l322 -768h-464l-212 530l-154 -162z" />
    <glyph glyph-name="Elcyrillic" unicode="&#x41b;" horiz-adv-x="1536" 
d="M1333 0h-424l235 1107h-314l-131 -507c-101 -390 -252 -616 -618 -616c-71 0 -124 10 -144 16l78 362c16 -3 42 -9 78 -9c112 0 184 112 227 280l206 810h1114z" />
    <glyph glyph-name="uni04C5" unicode="&#x4c5;" horiz-adv-x="1725" 
d="M1640 1443l-236 -1107h226l-15 -73l-281 -548h-383l142 285h-184l235 1107h-314l-131 -507c-101 -390 -252 -616 -618 -616c-71 0 -124 10 -144 16l78 362c16 -3 42 -9 78 -9c112 0 184 112 227 280l206 810h1114z" />
    <glyph glyph-name="uniF530" horiz-adv-x="1694" 
d="M1640 1443l-236 -1107h180l-132 -621h-380l61 285h-224l235 1107h-314l-131 -507c-101 -390 -252 -616 -618 -616c-71 0 -124 10 -144 16l78 362c16 -3 42 -9 78 -9c112 0 184 112 227 280l206 810h1114z" />
    <glyph glyph-name="uni052E" unicode="&#x52e;" horiz-adv-x="1694" 
d="M1640 1443l-236 -1107h180l-132 -621h-380l61 285h-224l235 1107h-314l-131 -507c-101 -390 -252 -616 -618 -616c-71 0 -124 10 -144 16l78 362c16 -3 42 -9 78 -9c112 0 184 112 227 280l206 810h1114z" />
    <glyph glyph-name="uni0512" unicode="&#x512;" horiz-adv-x="1536" 
d="M1640 1443l-307 -1442l10 -1h-10c-56 -264 -194 -369 -488 -369c-62 0 -132 8 -176 21l61 288c13 -3 36 -5 55 -5c79 0 112 30 129 111h5l225 1061h-314l-131 -507c-101 -390 -252 -616 -618 -616c-71 0 -124 10 -144 16l78 362c16 -3 42 -9 78 -9c112 0 184 112 227 280
l206 810h1114z" />
    <glyph glyph-name="uni041B.BUL" horiz-adv-x="1456" 
d="M-75 0l736 1443h552l138 -1443h-493l-16 1016h-20l-436 -1016h-461z" />
    <glyph glyph-name="Emcyrillic" unicode="&#x41c;" horiz-adv-x="1860" 
d="M398 0h-374l306 1443h491l119 -905h8l487 905h529l-307 -1443h-375l195 908h-12l-502 -908h-244l-120 908h-8z" />
    <glyph glyph-name="uni04CD" unicode="&#x4cd;" horiz-adv-x="2098" 
d="M1728 336h275l-15 -73l-281 -548h-383l142 285h-184l72 336v0l123 572h-12l-502 -908h-244l-120 908h-8l-193 -908h-374l306 1443h491l119 -905h8l487 905h529z" />
    <glyph glyph-name="Encyrillic" unicode="&#x41d;" horiz-adv-x="1582" 
d="M1379 0h-434l120 562h-488l-120 -562h-434l307 1443h434l-118 -551h488l118 551h434z" />
    <glyph glyph-name="uni04C7" unicode="&#x4c7;" horiz-adv-x="1582" 
d="M1252 1443h434l-307 -1443c-56 -264 -194 -369 -488 -369c-62 0 -132 8 -176 21l61 288c13 -3 36 -5 55 -5c70 0 103 27 121 99l113 528h-488l-120 -562h-434l307 1443h434l-118 -551h488z" />
    <glyph glyph-name="uni04A2" unicode="&#x4a2;" horiz-adv-x="1730" 
d="M1686 1443l-236 -1107h170l-132 -621h-380l61 285h-224l120 562h-488l-120 -562h-434l307 1443h434l-118 -551h488l118 551h434z" />
    <glyph glyph-name="uni04C9" unicode="&#x4c9;" horiz-adv-x="1761" 
d="M1686 1443l-236 -1107h216l-15 -73l-281 -548h-383l142 285h-184l120 562h-488l-120 -562h-434l307 1443h434l-118 -551h488l118 551h434z" />
    <glyph glyph-name="uni04A4" unicode="&#x4a4;" horiz-adv-x="2003" 
d="M2155 1443l-71 -336h-469l-236 -1107h-434l120 562h-488l-120 -562h-434l307 1443h434l-118 -551h488l118 551h434h469z" />
    <glyph glyph-name="Ocyrillic" unicode="&#x41e;" horiz-adv-x="1596" 
d="M920 1130c-194 0 -359 -231 -359 -515c0 -183 95 -302 241 -302c194 0 360 230 360 516c0 184 -96 301 -242 301zM789 -25c-412 0 -658 264 -658 614c0 529 356 879 799 879c423 0 662 -265 662 -614c0 -531 -361 -879 -803 -879z" />
    <glyph glyph-name="uni04E6" unicode="&#x4e6;" horiz-adv-x="1596" 
d="M920 1130c-194 0 -359 -231 -359 -515c0 -183 95 -302 241 -302c194 0 360 230 360 516c0 184 -96 301 -242 301zM789 -25c-412 0 -658 264 -658 614c0 529 356 879 799 879c423 0 662 -265 662 -614c0 -531 -361 -879 -803 -879zM788 1559c-86 0 -149 63 -149 141
s63 141 149 141s149 -63 149 -141s-63 -141 -149 -141zM1206 1559c-86 0 -149 63 -149 141s63 141 149 141s149 -63 149 -141s-63 -141 -149 -141z" />
    <glyph glyph-name="uniF518" horiz-adv-x="1596" 
d="M920 1130c-194 0 -359 -231 -359 -515c0 -183 95 -302 241 -302c194 0 360 230 360 516c0 184 -96 301 -242 301zM789 -25c-412 0 -658 264 -658 614c0 529 356 879 799 879c423 0 662 -265 662 -614c0 -531 -361 -879 -803 -879zM1390 1786l-38 -180h-748l38 180h748z
" />
    <glyph glyph-name="uniF463" horiz-adv-x="1596" 
d="M920 1130c-194 0 -359 -231 -359 -515c0 -183 95 -302 241 -302c194 0 360 230 360 516c0 184 -96 301 -242 301zM789 -25c-412 0 -658 264 -658 614c0 529 356 879 799 879c423 0 662 -265 662 -614c0 -531 -361 -879 -803 -879zM1130 1555h-322l300 321h364z" />
    <glyph glyph-name="uniF4D2" horiz-adv-x="1596" 
d="M920 1130c-194 0 -359 -231 -359 -515c0 -183 95 -302 241 -302c194 0 360 230 360 516c0 184 -96 301 -242 301zM789 -25c-412 0 -658 264 -658 614c0 529 356 879 799 879c423 0 662 -265 662 -614c0 -531 -361 -879 -803 -879zM824 1555l-206 321h332l164 -321h-290z
" />
    <glyph glyph-name="uniF51A" horiz-adv-x="1596" 
d="M920 1130c-194 0 -359 -231 -359 -515c0 -183 95 -302 241 -302c194 0 360 230 360 516c0 184 -96 301 -242 301zM789 -25c-412 0 -658 264 -658 614c0 529 356 879 799 879c423 0 662 -265 662 -614c0 -531 -361 -879 -803 -879zM650 1877h229c-16 -90 35 -136 125 -136
c97 0 161 46 183 136h229c-43 -196 -176 -321 -420 -321c-240 0 -377 117 -346 321z" />
    <glyph glyph-name="uni04E8" unicode="&#x4e8;" horiz-adv-x="1596" 
d="M1117 569h-559c15 -157 108 -256 244 -256c132 0 250 103 315 256zM611 885h553c-18 151 -111 245 -244 245c-128 0 -244 -98 -309 -245zM930 1468c423 0 662 -265 662 -614c0 -531 -361 -879 -803 -879c-412 0 -658 264 -658 614c0 529 356 879 799 879z" />
    <glyph glyph-name="uniF49A" horiz-adv-x="1596" 
d="M1469 1786l-38 -180h-748l38 180h748zM1117 569h-559c15 -157 108 -256 244 -256c132 0 250 103 315 256zM611 885h553c-18 151 -111 245 -244 245c-128 0 -244 -98 -309 -245zM930 1468c423 0 662 -265 662 -614c0 -531 -361 -879 -803 -879c-412 0 -658 264 -658 614
c0 529 356 879 799 879z" />
    <glyph glyph-name="uniF51C" horiz-adv-x="1596" 
d="M1266 1877h229c-43 -196 -176 -321 -420 -321c-240 0 -377 117 -346 321h229c-16 -90 35 -136 125 -136c97 0 161 46 183 136zM1117 569h-559c15 -157 108 -256 244 -256c132 0 250 103 315 256zM611 885h553c-18 151 -111 245 -244 245c-128 0 -244 -98 -309 -245z
M930 1468c423 0 662 -265 662 -614c0 -531 -361 -879 -803 -879c-412 0 -658 264 -658 614c0 529 356 879 799 879z" />
    <glyph glyph-name="uniF51E" horiz-adv-x="1596" 
d="M1323 2234h280c-40 -188 -230 -312 -479 -312c-220 0 -354 97 -354 250c0 20 2 40 7 62h280c-1 -6 -1 -12 -1 -17c0 -57 42 -90 111 -90c76 0 137 40 156 107zM1462 1572h-280c1 6 1 12 1 17c0 57 -42 90 -111 90c-76 0 -137 -40 -156 -107h-280c40 188 230 312 479 312
c220 0 354 -97 354 -250c0 -20 -2 -40 -7 -62zM1117 569h-559c15 -157 108 -256 244 -256c132 0 250 103 315 256zM611 885h553c-18 151 -111 245 -244 245c-128 0 -244 -98 -309 -245zM930 1468c423 0 662 -265 662 -614c0 -531 -361 -879 -803 -879
c-412 0 -658 264 -658 614c0 529 356 879 799 879z" />
    <glyph glyph-name="uni04EA" unicode="&#x4ea;" horiz-adv-x="1596" 
d="M1285 1559c-86 0 -149 63 -149 141s63 141 149 141s149 -63 149 -141s-63 -141 -149 -141zM867 1559c-86 0 -149 63 -149 141s63 141 149 141s149 -63 149 -141s-63 -141 -149 -141zM1117 569h-559c15 -157 108 -256 244 -256c132 0 250 103 315 256zM611 885h553
c-18 151 -111 245 -244 245c-128 0 -244 -98 -309 -245zM930 1468c423 0 662 -265 662 -614c0 -531 -361 -879 -803 -879c-412 0 -658 264 -658 614c0 529 356 879 799 879z" />
    <glyph glyph-name="uni0472" unicode="&#x472;" horiz-adv-x="1596" 
d="M802 313c141 0 267 117 327 288c-56 -40 -115 -58 -164 -58c-117 0 -188 61 -289 61c-47 0 -92 -18 -118 -38c16 -155 109 -253 244 -253zM920 1130c-140 0 -266 -117 -326 -288c51 39 106 59 159 59c123 0 192 -61 295 -61c46 0 90 16 117 34c-15 158 -108 256 -245 256
zM930 1468c423 0 662 -265 662 -614c0 -531 -361 -879 -803 -879c-412 0 -658 264 -658 614c0 529 356 879 799 879z" />
    <glyph glyph-name="Pecyrillic" unicode="&#x41f;" horiz-adv-x="1572" 
d="M1369 0h-424l235 1107h-498l-235 -1107h-424l307 1443h1346z" />
    <glyph glyph-name="uni0524" unicode="&#x524;" horiz-adv-x="1730" 
d="M1676 1443l-236 -1107h180l-132 -621h-380l61 285h-224l235 1107h-498l-235 -1107h-424l307 1443h1346z" />
    <glyph glyph-name="Dzhecyrillic" unicode="&#x40f;" horiz-adv-x="1572" 
d="M1369 0h-466l-61 -285h-358l61 285h-522l307 1443h424l-235 -1107h498l235 1107h424z" />
    <glyph glyph-name="Ercyrillic" unicode="&#x420;" horiz-adv-x="1367" 
d="M330 1443h547c341 0 532 -180 532 -449c0 -368 -258 -600 -672 -600h-205l-84 -394h-423zM686 1123l-89 -415h143c148 0 244 107 244 248c0 114 -66 167 -187 167h-111z" />
    <glyph glyph-name="uni048E" unicode="&#x48e;" horiz-adv-x="1365" 
d="M684 1123l-89 -415h136l-63 145l198 87l64 -145c33 43 52 99 52 161c0 114 -66 167 -187 167h-111zM328 1443h547c341 0 532 -180 532 -449c0 -235 -105 -415 -290 -514l59 -132l-271 -132l-81 182c-29 -3 -58 -4 -89 -4h-205l-84 -394h-423z" />
    <glyph glyph-name="uniF4D4" horiz-adv-x="1367" 
d="M330 1443h547c341 0 532 -180 532 -449c0 -368 -258 -600 -672 -600h-205l-84 -394h-423zM686 1123l-89 -415h143c148 0 244 107 244 248c0 114 -66 167 -187 167h-111zM595 1536l-183 336h276l91 -192h8l173 192h276l-327 -336h-314z" />
    <glyph glyph-name="Escyrillic" unicode="&#x421;" horiz-adv-x="1550" 
d="M1158 862c1 6 1 10 1 40c0 127 -100 225 -230 225c-212 0 -362 -216 -362 -521c0 -177 88 -286 232 -286c140 0 253 89 295 232h411c-50 -345 -346 -577 -736 -577c-387 0 -639 238 -639 605c0 541 329 888 843 888c349 0 601 -227 601 -542c0 -25 -2 -48 -5 -64h-411z
" />
    <glyph glyph-name="uni04AA" unicode="&#x4aa;" horiz-adv-x="1550" 
d="M1569 862h-411c1 6 1 10 1 40c0 127 -100 225 -230 225c-212 0 -362 -216 -362 -521c0 -177 88 -286 232 -286c140 0 253 89 295 232h411c-47 -322 -307 -545 -659 -574l-44 -54c90 -13 138 -65 138 -149c0 -136 -139 -236 -328 -236c-60 0 -114 6 -138 15l35 161
c25 -7 69 -12 110 -12c74 0 112 16 112 47c0 29 -28 39 -111 39h-58l29 125l58 69c-318 45 -519 270 -519 597c0 541 329 888 843 888c349 0 601 -227 601 -542c0 -25 -2 -48 -5 -64z" />
    <glyph glyph-name="uniF53E" horiz-adv-x="1550" 
d="M1569 862h-411c1 6 1 10 1 40c0 127 -100 225 -230 225c-212 0 -362 -216 -362 -521c0 -177 88 -286 232 -286c140 0 253 89 295 232h411c-42 -289 -256 -498 -553 -559l-59 -278h-358l59 278c-286 61 -464 279 -464 587c0 541 329 888 843 888c349 0 601 -227 601 -542
c0 -25 -2 -48 -5 -64z" />
    <glyph glyph-name="Tecyrillic" unicode="&#x422;" horiz-adv-x="1316" 
d="M780 0h-424l235 1107h-401l72 336h1226l-72 -336h-401z" />
    <glyph glyph-name="uni04AC" unicode="&#x4ac;" horiz-adv-x="1316" 
d="M1416 1107h-401l-164 -771h180l-132 -621h-380l61 285h-224l235 1107h-401l72 336h1226z" />
    <glyph glyph-name="Ucyrillic" unicode="&#x423;" horiz-adv-x="1455" 
d="M326 -16c-91 0 -156 16 -156 16l70 330s28 -10 90 -10s124 17 168 60l-234 1063h444l92 -669h20l361 669h454l-661 -1030c-172 -268 -344 -429 -648 -429z" />
    <glyph glyph-name="Ushortcyrillic" unicode="&#x40e;" horiz-adv-x="1455" 
d="M326 -16c-91 0 -156 16 -156 16l70 330s28 -10 90 -10s124 17 168 60l-234 1063h444l92 -669h20l361 669h454l-661 -1030c-172 -268 -344 -429 -648 -429zM650 1877h229c-16 -90 35 -136 125 -136c97 0 161 46 183 136h229c-43 -196 -176 -321 -420 -321
c-240 0 -377 117 -346 321z" />
    <glyph glyph-name="uni04EE" unicode="&#x4ee;" horiz-adv-x="1455" 
d="M326 -16c-91 0 -156 16 -156 16l70 330s28 -10 90 -10s124 17 168 60l-234 1063h444l92 -669h20l361 669h454l-661 -1030c-172 -268 -344 -429 -648 -429zM1390 1786l-38 -180h-748l38 180h748z" />
    <glyph glyph-name="uni04F0" unicode="&#x4f0;" horiz-adv-x="1455" 
d="M326 -16c-91 0 -156 16 -156 16l70 330s28 -10 90 -10s124 17 168 60l-234 1063h444l92 -669h20l361 669h454l-661 -1030c-172 -268 -344 -429 -648 -429zM788 1559c-86 0 -149 63 -149 141s63 141 149 141s149 -63 149 -141s-63 -141 -149 -141zM1206 1559
c-86 0 -149 63 -149 141s63 141 149 141s149 -63 149 -141s-63 -141 -149 -141z" />
    <glyph glyph-name="uni04F2" unicode="&#x4f2;" horiz-adv-x="1455" 
d="M326 -16c-91 0 -156 16 -156 16l70 330s28 -10 90 -10s124 17 168 60l-234 1063h444l92 -669h20l361 669h454l-661 -1030c-172 -268 -344 -429 -648 -429zM1390 1555h-322l300 321h364zM870 1555h-322l300 321h364z" />
    <glyph glyph-name="uniF4CC" horiz-adv-x="1455" 
d="M326 -16c-91 0 -156 16 -156 16l70 330s28 -10 90 -10s124 17 168 60l-234 1063h444l92 -669h20l361 669h454l-661 -1030c-172 -268 -344 -429 -648 -429zM1130 1555h-322l300 321h364z" />
    <glyph glyph-name="uniF464" horiz-adv-x="1455" 
d="M326 -16c-91 0 -156 16 -156 16l70 330s28 -10 90 -10s124 17 168 60l-234 1063h444l92 -669h20l361 669h454l-661 -1030c-172 -268 -344 -429 -648 -429zM1130 1555h-322l300 321h364z" />
    <glyph glyph-name="Efcyrillic" unicode="&#x424;" horiz-adv-x="1963" 
d="M1091 -40h-420l33 157c-355 13 -576 218 -576 530c0 402 319 661 833 679l34 157h420l-33 -157c355 -13 577 -218 577 -534c0 -398 -320 -657 -835 -675zM564 664c0 -131 75 -212 213 -223l120 561c-195 -13 -333 -148 -333 -338zM1523 768c0 141 -75 223 -214 233
l-120 -560c197 13 334 148 334 327z" />
    <glyph glyph-name="Xacyrillic" unicode="&#x425;" horiz-adv-x="1486" 
d="M-59 0l609 727l-304 716h454l169 -413h8l307 413h490l-614 -724l306 -719h-453l-173 420h-8l-313 -420h-478z" />
    <glyph glyph-name="uni04B2" unicode="&#x4b2;" horiz-adv-x="1585" 
d="M1058 719l163 -383h259l-132 -621h-380l61 285h-112h-6l-173 420h-8l-313 -420h-478l609 727l-304 716h454l169 -413h8l307 413h490z" />
    <glyph glyph-name="uni04FE" unicode="&#x4fe;" horiz-adv-x="1486" 
d="M1404 866l-62 -290h-221l245 -576h-453l-173 420h-8l-313 -420h-478l483 576h-224l61 290h230l-245 577h454l169 -413h8l307 413h490l-489 -577h219z" />
    <glyph glyph-name="uni04FC" unicode="&#x4fc;" horiz-adv-x="1503" 
d="M241 1443h454l169 -413h8l306 413h489l-613 -725l147 -341c38 -86 62 -150 77 -205s20 -102 20 -154c0 -261 -211 -443 -514 -443c-76 0 -158 5 -196 12l67 314c25 -4 46 -5 81 -5c84 0 141 49 141 122c0 21 -3 44 -10 70s-17 55 -31 88l-101 244h-8l-313 -420h-478
l609 727z" />
    <glyph glyph-name="Tsecyrillic" unicode="&#x426;" horiz-adv-x="1659" 
d="M1488 -285h-380l61 285h-1146l307 1443h424l-236 -1107h498l236 1107h424l-236 -1107h180z" />
    <glyph glyph-name="uni04B4" unicode="&#x4b4;" horiz-adv-x="1902" 
d="M1919 1443l-236 -1107h180l-132 -621h-380l61 285h-1146l236 1107h-312l71 336h312h424h307l-71 -336h-308l-164 -771h498l236 1107h424z" />
    <glyph glyph-name="Checyrillic" unicode="&#x427;" horiz-adv-x="1523" 
d="M1320 0h-424l114 539h-8c-83 -46 -187 -79 -335 -79c-331 0 -503 249 -427 604l81 379h424l-83 -389c-33 -154 28 -242 187 -242c98 0 181 25 233 64l121 567h424z" />
    <glyph glyph-name="uni04F4" unicode="&#x4f4;" horiz-adv-x="1523" 
d="M1320 0h-424l114 539h-8c-83 -46 -187 -79 -335 -79c-331 0 -503 249 -427 604l81 379h424l-83 -389c-33 -154 28 -242 187 -242c98 0 181 25 233 64l121 567h424zM805 1559c-86 0 -149 63 -149 141s63 141 149 141s149 -63 149 -141s-63 -141 -149 -141zM1223 1559
c-86 0 -149 63 -149 141s63 141 149 141s149 -63 149 -141s-63 -141 -149 -141z" />
    <glyph glyph-name="uni04B6" unicode="&#x4b6;" horiz-adv-x="1681" 
d="M1627 1443l-236 -1107h180l-132 -621h-380l61 285h-224l114 539h-8c-83 -46 -187 -79 -335 -79c-331 0 -503 249 -427 604l81 379h424l-83 -389c-33 -154 28 -242 187 -242c98 0 181 25 233 64l121 567h424z" />
    <glyph glyph-name="uni04CB" unicode="&#x4cb;" horiz-adv-x="1523" 
d="M1627 1443l-236 -1107h7l-78 -336h-224l-66 -285h-380l145 621h172l43 203h-8c-83 -46 -187 -79 -335 -79c-331 0 -503 249 -427 604l81 379h424l-83 -389c-33 -154 28 -242 187 -242c98 0 181 25 233 64l121 567h424z" />
    <glyph glyph-name="uniF4C6" horiz-adv-x="1523" 
d="M1627 1443l-307 -1442l10 -1h-10c-56 -264 -194 -369 -488 -369c-62 0 -132 8 -176 21l61 288c13 -3 36 -5 55 -5c79 0 112 30 129 111h5l104 493h-8c-83 -46 -187 -79 -335 -79c-331 0 -503 249 -427 604l81 379h424l-83 -389c-33 -154 28 -242 187 -242
c98 0 181 25 233 64l121 567h424z" />
    <glyph glyph-name="uni04B8" unicode="&#x4b8;" horiz-adv-x="1550" 
d="M1230 1443h424l-307 -1443h-424l114 539h-8c-35 -19 -73 -35 -116 -47l-40 -187h-256l33 155c-328 2 -499 250 -423 604l81 379h424l-83 -389c-24 -113 2 -190 80 -223l52 245h256l-53 -250c51 10 94 27 125 50z" />
    <glyph glyph-name="uni04BA" unicode="&#x4ba;" horiz-adv-x="1529" 
d="M330 1443h424l-119 -557h20c95 60 217 97 349 97c318 0 489 -210 419 -539l-94 -444h-424l84 397c33 152 -31 234 -180 234c-110 0 -196 -40 -252 -115l-110 -516h-424z" />
    <glyph glyph-name="uniF49E" horiz-adv-x="1529" 
d="M635 886h20c95 60 217 97 349 97c318 0 489 -210 419 -539l-94 -444h-424l84 397c33 152 -31 234 -180 234c-110 0 -196 -40 -252 -115l-110 -516h-424l228 1071h-143l55 261h143l24 111h424l-24 -111h347l-55 -261h-347z" />
    <glyph glyph-name="uni0526" unicode="&#x526;" horiz-adv-x="1690" 
d="M1400 336h180l-132 -621h-380l61 285h-224l84 397c33 152 -31 234 -180 234c-110 0 -196 -40 -252 -115l-110 -516h-424l307 1443h424l-119 -557h20c95 60 217 97 349 97c318 0 489 -210 419 -539z" />
    <glyph glyph-name="Tshecyrillic" unicode="&#x40b;" horiz-adv-x="1790" 
d="M1102 554c-102 0 -179 -56 -229 -115l-93 -439h-424l235 1107h-381l72 336h1186l-72 -336h-381l-63 -298h8c70 55 187 97 312 97c336 0 485 -212 413 -549l-76 -357h-424l76 355c25 117 -25 199 -159 199z" />
    <glyph glyph-name="Shacyrillic" unicode="&#x428;" horiz-adv-x="2094" 
d="M23 0l307 1443h424l-236 -1107h298l236 1107h424l-236 -1107h298l236 1107h424l-307 -1443h-1868z" />
    <glyph glyph-name="Shchacyrillic" unicode="&#x429;" horiz-adv-x="2181" 
d="M2010 -285h-380l61 285h-1668l307 1443h424l-236 -1107h298l236 1107h424l-236 -1107h298l236 1107h424l-236 -1107h180z" />
    <glyph glyph-name="Hardsigncyrillic" unicode="&#x42a;" horiz-adv-x="1635" 
d="M918 0h-629l236 1108h-340l71 335h764l-88 -414h136c334 0 524 -164 524 -455c0 -352 -260 -574 -674 -574zM980 709h-116l-84 -395h143c148 0 247 91 247 226c0 108 -69 169 -190 169z" />
    <glyph glyph-name="Yericyrillic" unicode="&#x42b;" horiz-adv-x="2009" 
d="M714 709h-116l-84 -395h143c148 0 247 91 247 226c0 108 -69 169 -190 169zM23 0l307 1443h424l-88 -414h136c334 0 524 -164 524 -455c0 -352 -260 -574 -674 -574h-629zM1811 0h-424l307 1443h424z" />
    <glyph glyph-name="uni04F8" unicode="&#x4f8;" horiz-adv-x="2009" 
d="M714 709h-116l-84 -395h143c148 0 247 91 247 226c0 108 -69 169 -190 169zM23 0l307 1443h424l-88 -414h136c334 0 524 -164 524 -455c0 -352 -260 -574 -674 -574h-629zM1811 0h-424l307 1443h424zM1046 1559c-86 0 -149 63 -149 141s63 141 149 141s149 -63 149 -141
s-63 -141 -149 -141zM1464 1559c-86 0 -149 63 -149 141s63 141 149 141s149 -63 149 -141s-63 -141 -149 -141z" />
    <glyph glyph-name="uniF520" horiz-adv-x="2009" 
d="M714 709h-116l-84 -395h143c148 0 247 91 247 226c0 108 -69 169 -190 169zM23 0l307 1443h424l-88 -414h136c334 0 524 -164 524 -455c0 -352 -260 -574 -674 -574h-629zM1811 0h-424l307 1443h424zM1648 1786l-38 -180h-748l38 180h748z" />
    <glyph glyph-name="uniF536" horiz-adv-x="2009" 
d="M714 709h-116l-84 -395h143c148 0 247 91 247 226c0 108 -69 169 -190 169zM23 0l307 1443h424l-88 -414h136c334 0 524 -164 524 -455c0 -352 -260 -574 -674 -574h-629zM1811 0h-424l307 1443h424zM908 1877h229c-16 -90 35 -136 125 -136c97 0 161 46 183 136h229
c-43 -196 -176 -321 -420 -321c-240 0 -377 117 -346 321z" />
    <glyph glyph-name="uniF465" horiz-adv-x="2009" 
d="M714 709h-116l-84 -395h143c148 0 247 91 247 226c0 108 -69 169 -190 169zM23 0l307 1443h424l-88 -414h136c334 0 524 -164 524 -455c0 -352 -260 -574 -674 -574h-629zM1811 0h-424l307 1443h424zM1388 1555h-322l300 321h364z" />
    <glyph glyph-name="uni048C" unicode="&#x48c;" horiz-adv-x="1368" 
d="M514 314h143c146 0 243 82 243 204c0 89 -72 139 -198 139h-116zM653 969h136c340 0 533 -150 533 -415c0 -340 -258 -554 -670 -554h-629l228 1071h-143l55 261h143l44 206h424l-44 -206h347l-55 -261h-347z" />
    <glyph glyph-name="uni0462" unicode="&#x462;" horiz-adv-x="1368" 
d="M514 314h143c146 0 243 82 243 204c0 89 -72 139 -198 139h-116zM653 969h136c340 0 533 -150 533 -415c0 -340 -258 -554 -670 -554h-629l228 1071h-143l55 261h143l44 206h424l-44 -206h347l-55 -261h-347z" />
    <glyph glyph-name="Softsigncyrillic" unicode="&#x42c;" horiz-adv-x="1369" 
d="M714 709h-116l-84 -395h143c148 0 247 91 247 226c0 108 -69 169 -190 169zM23 0l307 1443h424l-88 -414h136c334 0 524 -164 524 -455c0 -352 -260 -574 -674 -574h-629z" />
    <glyph glyph-name="Ljecyrillic" unicode="&#x409;" horiz-adv-x="2255" 
d="M699 600c-104 -401 -250 -616 -618 -616c-71 0 -124 10 -144 16l78 362c16 -3 42 -9 78 -9c118 0 186 117 227 280l206 810h1114l-88 -414h136c334 0 524 -164 524 -455c0 -352 -260 -574 -674 -574h-629l236 1107h-315zM1600 709h-116l-84 -395h143
c148 0 247 91 247 226c0 108 -69 169 -190 169z" />
    <glyph glyph-name="Njecyrillic" unicode="&#x40a;" horiz-adv-x="2245" 
d="M904 0l125 589h-457l-126 -589h-423l307 1443h424l-113 -528h458l112 528h424l-112 -527h160c331 0 519 -150 519 -392c0 -321 -258 -524 -669 -524h-629zM1395 315h152c135 0 230 66 230 169c0 84 -65 122 -171 122h-149z" />
    <glyph glyph-name="Ereversedcyrillic" unicode="&#x42d;" horiz-adv-x="1540" 
d="M758 -25c-383 0 -637 226 -641 570h411c8 -135 102 -219 246 -219c151 0 263 92 304 249h-500l68 300h467c-3 153 -94 245 -244 245c-125 0 -231 -86 -273 -221h-412c72 354 344 569 720 569c389 0 632 -250 632 -649c0 -502 -315 -844 -778 -844z" />
    <glyph glyph-name="uni04EC" unicode="&#x4ec;" horiz-adv-x="1540" 
d="M758 -25c-383 0 -637 226 -641 570h411c8 -135 102 -219 246 -219c151 0 263 92 304 249h-500l68 300h467c-3 153 -94 245 -244 245c-125 0 -231 -86 -273 -221h-412c72 354 344 569 720 569c389 0 632 -250 632 -649c0 -502 -315 -844 -778 -844zM758 1559
c-86 0 -149 63 -149 141s63 141 149 141s149 -63 149 -141s-63 -141 -149 -141zM1176 1559c-86 0 -149 63 -149 141s63 141 149 141s149 -63 149 -141s-63 -141 -149 -141z" />
    <glyph glyph-name="uniF522" horiz-adv-x="1540" 
d="M758 -25c-383 0 -637 226 -641 570h411c8 -135 102 -219 246 -219c151 0 263 92 304 249h-500l68 300h467c-3 153 -94 245 -244 245c-125 0 -231 -86 -273 -221h-412c72 354 344 569 720 569c389 0 632 -250 632 -649c0 -502 -315 -844 -778 -844zM1360 1786l-38 -180
h-748l38 180h748z" />
    <glyph glyph-name="uniF466" horiz-adv-x="1540" 
d="M758 -25c-383 0 -637 226 -641 570h411c8 -135 102 -219 246 -219c151 0 263 92 304 249h-500l68 300h467c-3 153 -94 245 -244 245c-125 0 -231 -86 -273 -221h-412c72 354 344 569 720 569c389 0 632 -250 632 -649c0 -502 -315 -844 -778 -844zM1100 1555h-322
l300 321h364z" />
    <glyph glyph-name="uniF524" horiz-adv-x="1540" 
d="M758 -25c-383 0 -637 226 -641 570h411c8 -135 102 -219 246 -219c151 0 263 92 304 249h-500l68 300h467c-3 153 -94 245 -244 245c-125 0 -231 -86 -273 -221h-412c72 354 344 569 720 569c389 0 632 -250 632 -649c0 -502 -315 -844 -778 -844zM620 1877h229
c-16 -90 35 -136 125 -136c97 0 161 46 183 136h229c-43 -196 -176 -321 -420 -321c-240 0 -377 117 -346 321z" />
    <glyph glyph-name="uniF4D6" horiz-adv-x="1540" 
d="M758 -25c-383 0 -637 226 -641 570h411c8 -135 102 -219 246 -219c151 0 263 92 304 249h-500l68 300h467c-3 153 -94 245 -244 245c-125 0 -231 -86 -273 -221h-412c72 354 344 569 720 569c389 0 632 -250 632 -649c0 -502 -315 -844 -778 -844zM983 1603
c-100 0 -177 78 -177 173s77 173 177 173s177 -78 177 -173s-77 -173 -177 -173z" />
    <glyph glyph-name="IUcyrillic" unicode="&#x42e;" horiz-adv-x="2200" 
d="M1415 313c189 0 351 230 351 516c0 184 -92 301 -233 301c-188 0 -349 -231 -349 -515c0 -183 91 -302 231 -302zM637 895h169c105 354 391 573 737 573c417 0 653 -265 653 -614c0 -531 -357 -879 -794 -879c-394 0 -625 249 -637 584h-200l-119 -559h-423l307 1443h424
z" />
    <glyph glyph-name="uniF52C" horiz-adv-x="2200" 
d="M1578 1786l-38 -180h-748l38 180h748zM1415 313c189 0 351 230 351 516c0 184 -92 301 -233 301c-188 0 -349 -231 -349 -515c0 -183 91 -302 231 -302zM637 895h169c105 354 391 573 737 573c417 0 653 -265 653 -614c0 -531 -357 -879 -794 -879
c-394 0 -625 249 -637 584h-200l-119 -559h-423l307 1443h424z" />
    <glyph glyph-name="uniF467" horiz-adv-x="2200" 
d="M1660 1876l-342 -321h-322l300 321h364zM1415 313c189 0 351 230 351 516c0 184 -92 301 -233 301c-188 0 -349 -231 -349 -515c0 -183 91 -302 231 -302zM637 895h169c105 354 391 573 737 573c417 0 653 -265 653 -614c0 -531 -357 -879 -794 -879
c-394 0 -625 249 -637 584h-200l-119 -559h-423l307 1443h424z" />
    <glyph glyph-name="uniF52E" horiz-adv-x="2200" 
d="M1375 1877h229c-43 -196 -176 -321 -420 -321c-240 0 -377 117 -346 321h229c-16 -90 35 -136 125 -136c97 0 161 46 183 136zM1415 313c189 0 351 230 351 516c0 184 -92 301 -233 301c-188 0 -349 -231 -349 -515c0 -183 91 -302 231 -302zM637 895h169
c105 354 391 573 737 573c417 0 653 -265 653 -614c0 -531 -357 -879 -794 -879c-394 0 -625 249 -637 584h-200l-119 -559h-423l307 1443h424z" />
    <glyph glyph-name="uniF498" horiz-adv-x="2200" 
d="M1394 1559c-86 0 -149 63 -149 141s63 141 149 141s149 -63 149 -141s-63 -141 -149 -141zM976 1559c-86 0 -149 63 -149 141s63 141 149 141s149 -63 149 -141s-63 -141 -149 -141zM1415 313c189 0 351 230 351 516c0 184 -92 301 -233 301c-188 0 -349 -231 -349 -515
c0 -183 91 -302 231 -302zM637 895h169c105 354 391 573 737 573c417 0 653 -265 653 -614c0 -531 -357 -879 -794 -879c-394 0 -625 249 -637 584h-200l-119 -559h-423l307 1443h424z" />
    <glyph glyph-name="IAcyrillic" unicode="&#x42f;" horiz-adv-x="1450" 
d="M852 774h145l73 345h-161c-156 0 -247 -69 -247 -186c0 -98 73 -159 190 -159zM844 484l-406 -484h-486l472 560c-122 69 -193 207 -193 374c0 314 258 509 674 509h649l-307 -1443h-424l103 484h-82v0z" />
    <glyph glyph-name="uniF528" horiz-adv-x="1450" 
d="M852 774h145l73 345h-161c-156 0 -247 -69 -247 -186c0 -98 73 -159 190 -159zM844 484l-406 -484h-486l472 560c-122 69 -193 207 -193 374c0 314 258 509 674 509h649l-307 -1443h-424l103 484h-82v0zM1485 1786l-38 -180h-748l38 180h748z" />
    <glyph glyph-name="uniF468" horiz-adv-x="1450" 
d="M852 774h145l73 345h-161c-156 0 -247 -69 -247 -186c0 -98 73 -159 190 -159zM844 484l-406 -484h-486l472 560c-122 69 -193 207 -193 374c0 314 258 509 674 509h649l-307 -1443h-424l103 484h-82v0zM1225 1555h-322l300 321h364z" />
    <glyph glyph-name="uniF4D9" horiz-adv-x="1450" 
d="M852 774h145l73 345h-161c-156 0 -247 -69 -247 -186c0 -98 73 -159 190 -159zM844 484l-406 -484h-486l472 560c-122 69 -193 207 -193 374c0 314 258 509 674 509h649l-307 -1443h-424l103 484h-82v0zM883 1559c-86 0 -149 63 -149 141s63 141 149 141
s149 -63 149 -141s-63 -141 -149 -141zM1301 1559c-86 0 -149 63 -149 141s63 141 149 141s149 -63 149 -141s-63 -141 -149 -141z" />
    <glyph glyph-name="uniF52A" horiz-adv-x="1450" 
d="M852 774h145l73 345h-161c-156 0 -247 -69 -247 -186c0 -98 73 -159 190 -159zM844 484l-406 -484h-486l472 560c-122 69 -193 207 -193 374c0 314 258 509 674 509h649l-307 -1443h-424l103 484h-82v0zM745 1877h229c-16 -90 35 -136 125 -136c97 0 161 46 183 136h229
c-43 -196 -176 -321 -420 -321c-240 0 -377 117 -346 321z" />
    <glyph glyph-name="uni0494" unicode="&#x494;" horiz-adv-x="1463" 
d="M1334 1443l-72 -336h-580l-63 -298h18c91 61 202 97 341 97c254 0 430 -155 430 -383c0 -360 -236 -641 -704 -641c-104 0 -158 17 -158 17l66 312s32 -9 107 -9c156 0 247 95 247 211c0 91 -62 141 -172 141c-109 0 -200 -46 -254 -115l-93 -439h-424l307 1443h1004z
" />
    <glyph glyph-name="uni04A6" unicode="&#x4a6;" horiz-adv-x="2332" 
d="M327 1443h1296l-135 -634h18c97 65 210 97 331 97c283 0 440 -161 440 -394c0 -328 -208 -630 -704 -630c-60 0 -127 7 -158 17l66 312c19 -5 63 -9 107 -9c156 0 247 94 247 213c0 92 -61 139 -172 139c-104 0 -197 -42 -254 -115l-93 -439h-424l235 1107h-448
l-235 -1107h-424z" />
    <glyph glyph-name="Ecyrillic" unicode="&#x404;" horiz-adv-x="1527" 
d="M1485 541c-70 -353 -353 -581 -733 -581c-386 0 -622 252 -622 662c0 509 322 861 788 861c370 0 633 -228 633 -549v-31h-413c-8 141 -97 228 -236 228c-137 0 -269 -100 -310 -253h492l-65 -306h-464c0 -166 106 -263 242 -263c134 0 232 86 276 232h412z" />
    <glyph glyph-name="uniF526" horiz-adv-x="1527" 
d="M1485 541c-70 -353 -353 -581 -733 -581c-386 0 -622 252 -622 662c0 509 322 861 788 861c370 0 633 -228 633 -549v-31h-413c-8 141 -97 228 -236 228c-137 0 -269 -100 -310 -253h492l-65 -306h-464c0 -166 106 -263 242 -263c134 0 232 86 276 232h412zM760 1559
c-86 0 -149 63 -149 141s63 141 149 141s149 -63 149 -141s-63 -141 -149 -141zM1178 1559c-86 0 -149 63 -149 141s63 141 149 141s149 -63 149 -141s-63 -141 -149 -141z" />
    <glyph glyph-name="uni04C0" unicode="&#x4c0;" horiz-adv-x="650" 
d="M447 0h-424l307 1443h424z" />
    <glyph glyph-name="Icyrillic" unicode="&#x406;" horiz-adv-x="650" 
d="M447 0h-424l307 1443h424z" />
    <glyph glyph-name="Yicyrillic" unicode="&#x407;" horiz-adv-x="650" 
d="M447 0h-424l307 1443h424zM388 1559c-86 0 -149 63 -149 141s63 141 149 141s149 -63 149 -141s-63 -141 -149 -141zM806 1559c-86 0 -149 63 -149 141s63 141 149 141s149 -63 149 -141s-63 -141 -149 -141z" />
    <glyph glyph-name="uni04C0.1" horiz-adv-x="1104" 
d="M1178 1122h-266l-171 -801h267l-68 -321h-267h-424h-265l68 321h265l171 801h-266l69 321h265h424h267z" />
    <glyph glyph-name="Icyrillic.1" horiz-adv-x="1104" 
d="M1178 1122h-266l-171 -801h267l-68 -321h-267h-424h-265l68 321h265l171 801h-266l69 321h265h424h267z" />
    <glyph glyph-name="Yicyrillic.1" horiz-adv-x="1104" 
d="M1032 1559c-86 0 -149 63 -149 141s63 141 149 141s149 -63 149 -141s-63 -141 -149 -141zM614 1559c-86 0 -149 63 -149 141s63 141 149 141s149 -63 149 -141s-63 -141 -149 -141zM1178 1122h-266l-171 -801h267l-68 -321h-267h-424h-265l68 321h265l171 801h-266
l69 321h265h424h267z" />
    <glyph glyph-name="uni04A8" unicode="&#x4a8;" horiz-adv-x="2045" 
d="M1435 971c-115 0 -192 -143 -192 -305c0 -91 27 -171 79 -233c127 106 215 274 215 413c0 79 -37 125 -102 125zM1018 1487l-78 -366c-242 -52 -382 -259 -382 -488c0 -192 118 -334 318 -334c24 0 48 1 71 2c-72 91 -110 203 -110 343c0 351 257 657 651 657
c299 0 459 -150 459 -412c0 -230 -127 -443 -310 -592h14c78 0 159 29 221 65l67 -294c-116 -72 -241 -106 -361 -106c-145 0 -256 31 -351 93c-130 -64 -265 -91 -415 -91c-419 0 -682 232 -682 663c0 400 310 816 888 860z" />
    <glyph glyph-name="uni04AE" unicode="&#x4ae;" horiz-adv-x="1440" 
d="M843 0h-424l97 457l-284 986h439l133 -585h8l371 585h459l-702 -986z" />
    <glyph glyph-name="uniF43A" horiz-adv-x="1440" 
d="M843 0h-424l97 457l-284 986h439l133 -585h8l371 585h459l-702 -986zM1380 1786l-38 -180h-748l38 180h748z" />
    <glyph glyph-name="uni04B0" unicode="&#x4b0;" horiz-adv-x="1430" 
d="M1637 1443l-585 -821h251l-62 -290h-333l-70 -332h-424l70 332h-287l62 290h204l-236 821h439l133 -585h8l371 585h459z" />
    <glyph glyph-name="uni04BC" unicode="&#x4bc;" horiz-adv-x="1881" 
d="M959 912h536c2 14 3 28 3 41c0 117 -89 193 -227 193c-139 0 -271 -99 -312 -234zM882 626l-2 -9c-39 -175 58 -310 222 -310c128 0 237 61 289 162h417c-103 -301 -398 -494 -757 -494c-352 0 -573 220 -573 571c0 26 1 52 2 78h-23c-220 0 -358 109 -358 282
c0 89 27 170 81 246h321c-32 -43 -56 -107 -56 -149c0 -52 31 -81 88 -81h7c120 334 404 546 770 546c376 0 591 -197 591 -541c0 -99 -29 -255 -56 -301h-963z" />
    <glyph glyph-name="uni04BE" unicode="&#x4be;" horiz-adv-x="1881" 
d="M959 912h536c2 14 3 28 3 41c0 117 -89 193 -227 193c-139 0 -271 -99 -312 -234zM882 626l-2 -9c-39 -175 58 -310 222 -310c128 0 237 61 289 162h417c-87 -253 -309 -430 -592 -480l-58 -274h-358l61 284c-240 67 -383 264 -383 547c0 26 1 52 2 78h-23
c-220 0 -358 109 -358 282c0 89 27 170 81 246h321c-32 -43 -56 -107 -56 -149c0 -52 31 -81 88 -81h7c120 334 404 546 770 546c376 0 591 -197 591 -541c0 -99 -29 -255 -56 -301h-963z" />
    <glyph glyph-name="uni04D4" unicode="&#x4d4;" horiz-adv-x="2096" 
d="M1124 1129h-112l-303 -543h300zM884 0l61 286h-403l-160 -286h-426l847 1443h1407l-72 -336h-643l-49 -234h606l-65 -304h-606l-50 -233h643l-71 -336h-1019z" />
    <glyph glyph-name="uni04D8" unicode="&#x18f;" horiz-adv-x="1586" 
d="M754 -25c-373 0 -624 232 -624 577c0 87 25 217 52 275h966l1 6c31 185 -55 303 -221 303c-122 0 -219 -56 -278 -162h-427c103 306 388 494 750 494c365 0 596 -220 596 -569c0 -560 -321 -924 -815 -924zM777 307c146 0 276 99 319 244h-537c-2 -15 -3 -30 -3 -44
c0 -123 85 -200 221 -200z" />
    <glyph glyph-name="uni04D8" unicode="&#x4d8;" horiz-adv-x="1586" 
d="M754 -25c-373 0 -624 232 -624 577c0 87 25 217 52 275h966l1 6c31 185 -55 303 -221 303c-122 0 -219 -56 -278 -162h-427c103 306 388 494 750 494c365 0 596 -220 596 -569c0 -560 -321 -924 -815 -924zM777 307c146 0 276 99 319 244h-537c-2 -15 -3 -30 -3 -44
c0 -123 85 -200 221 -200z" />
    <glyph glyph-name="uni04DA" unicode="&#x4da;" horiz-adv-x="1586" 
d="M754 -25c-373 0 -624 232 -624 577c0 87 25 217 52 275h966l1 6c31 185 -55 303 -221 303c-122 0 -219 -56 -278 -162h-427c103 306 388 494 750 494c365 0 596 -220 596 -569c0 -560 -321 -924 -815 -924zM777 307c146 0 276 99 319 244h-537c-2 -15 -3 -30 -3 -44
c0 -123 85 -200 221 -200zM833 1559c-86 0 -149 63 -149 141s63 141 149 141s149 -63 149 -141s-63 -141 -149 -141zM1251 1559c-86 0 -149 63 -149 141s63 141 149 141s149 -63 149 -141s-63 -141 -149 -141z" />
    <glyph glyph-name="uniF49C" horiz-adv-x="1586" 
d="M754 -25c-373 0 -624 232 -624 577c0 87 25 217 52 275h966l1 6c31 185 -55 303 -221 303c-122 0 -219 -56 -278 -162h-427c103 306 388 494 750 494c365 0 596 -220 596 -569c0 -560 -321 -924 -815 -924zM777 307c146 0 276 99 319 244h-537c-2 -15 -3 -30 -3 -44
c0 -123 85 -200 221 -200zM1435 1786l-38 -180h-748l38 180h748z" />
    <glyph glyph-name="uni04E0" unicode="&#x4e0;" horiz-adv-x="1355" 
d="M669 -25c-363 0 -591 168 -591 436c0 44 2 65 8 82h383c-25 -112 64 -196 207 -196c123 0 207 67 207 166c0 89 -85 144 -224 144h-164l46 265l337 228l1 7h-614l72 336h1092l-65 -305l-408 -282l-4 -20c205 -32 329 -162 329 -346c0 -310 -244 -515 -612 -515z" />
    <glyph glyph-name="uni0510" unicode="&#x510;" horiz-adv-x="1385" 
d="M919 591h-185c-129 0 -219 -57 -227 -145c-8 -85 70 -149 182 -149c132 0 218 66 228 174h406c-45 -315 -280 -496 -645 -496c-359 0 -597 177 -579 430c13 186 163 327 367 347l2 7c-142 36 -225 155 -211 303c23 251 252 406 600 406c369 0 595 -183 557 -450h-383
c3 86 -74 146 -187 146c-112 0 -191 -55 -202 -141c-11 -82 57 -139 166 -139h177z" />
    <glyph glyph-name="uniF538" horiz-adv-x="1385" 
d="M919 591h-185c-129 0 -219 -57 -227 -145c-8 -85 70 -149 182 -149c132 0 218 66 228 174h406c-45 -315 -280 -496 -645 -496c-359 0 -597 177 -579 430c13 186 163 327 367 347l2 7c-142 36 -225 155 -211 303c23 251 252 406 600 406c369 0 595 -183 557 -450h-383
c3 86 -74 146 -187 146c-112 0 -191 -55 -202 -141c-11 -82 57 -139 166 -139h177zM746 1561c-86 0 -149 63 -149 141s63 141 149 141s149 -63 149 -141s-63 -141 -149 -141zM1164 1561c-86 0 -149 63 -149 141s63 141 149 141s149 -63 149 -141s-63 -141 -149 -141z" />
    <glyph glyph-name="uni0474" unicode="&#x474;" horiz-adv-x="1660" 
d="M947 0h-552l-138 1443h493l16 -1016h20l246 573c85 198 168 321 273 389c75 49 159 72 265 72c102 0 214 -30 284 -77l-184 -334c-28 13 -59 21 -83 21c-29 0 -54 -8 -75 -24c-25 -18 -46 -45 -73 -95z" />
    <glyph glyph-name="uni051C" unicode="&#x51c;" horiz-adv-x="2024" 
d="M1092 821l-387 -821h-401l-66 1443h436l-24 -899h8l406 899h328l34 -899h8l350 899h436l-678 -1443h-396l-46 821h-8z" />
    <glyph glyph-name="Djecyrillic" unicode="&#x402;" horiz-adv-x="1796" 
d="M356 0l235 1107h-381l72 336h1186l-72 -336h-381l-63 -298h18c74 55 171 97 301 97c305 0 470 -194 470 -433c0 -334 -255 -591 -676 -591c-130 0 -186 17 -186 17l66 312s32 -9 120 -9c136 0 234 80 234 197c0 96 -74 155 -189 155c-101 0 -189 -53 -237 -115l-93 -439
h-424z" />
    <glyph glyph-name="Dzecyrillic" unicode="&#x405;" horiz-adv-x="1394" 
d="M67 425h401c12 -79 107 -136 226 -136c123 0 200 49 200 121c0 53 -27 84 -163 126l-151 46c-241 73 -369 203 -369 400c0 294 254 486 604 486c372 0 599 -170 601 -456h-387c-3 86 -84 143 -204 143c-111 0 -183 -50 -183 -118c0 -58 40 -98 156 -132l158 -46
c259 -75 371 -183 371 -391c0 -304 -260 -493 -641 -493c-389 0 -618 165 -619 450z" />
    <glyph glyph-name="Jecyrillic" unicode="&#x408;" horiz-adv-x="1270" 
d="M43 434c0 19 1 50 3 71h404v-21c0 -90 49 -149 137 -149c84 0 137 54 160 160l202 948h424l-212 -996c-65 -307 -265 -472 -577 -472c-329 0 -541 181 -541 459z" />
    <glyph glyph-name="a" unicode="a" horiz-adv-x="1182" 
d="M530 252c87 0 165 56 181 131l15 71l-171 -4c-90 -2 -150 -45 -150 -108c0 -54 51 -90 125 -90zM345 -16c-183 0 -321 127 -321 299c0 229 193 373 507 380l241 5l13 64c3 17 4 24 4 31c0 51 -54 85 -134 85c-74 0 -129 -30 -149 -88h-357c44 231 252 372 534 372
c293 0 492 -136 492 -337c0 -28 -4 -67 -9 -89l-150 -706h-385l28 130h-8c-54 -87 -167 -146 -306 -146z" />
    <glyph glyph-name="agrave" unicode="&#xe0;" horiz-adv-x="1182" 
d="M530 252c87 0 165 56 181 131l15 71l-171 -4c-90 -2 -150 -45 -150 -108c0 -54 51 -90 125 -90zM345 -16c-183 0 -321 127 -321 299c0 229 193 373 507 380l241 5l13 64c3 17 4 24 4 31c0 51 -54 85 -134 85c-74 0 -129 -30 -149 -88h-357c44 231 252 372 534 372
c293 0 492 -136 492 -337c0 -28 -4 -67 -9 -89l-150 -706h-385l28 130h-8c-54 -87 -167 -146 -306 -146zM851 1275h-314l-197 321h347z" />
    <glyph glyph-name="aacute" unicode="&#xe1;" horiz-adv-x="1182" 
d="M530 252c87 0 165 56 181 131l15 71l-171 -4c-90 -2 -150 -45 -150 -108c0 -54 51 -90 125 -90zM345 -16c-183 0 -321 127 -321 299c0 229 193 373 507 380l241 5l13 64c3 17 4 24 4 31c0 51 -54 85 -134 85c-74 0 -129 -30 -149 -88h-357c44 231 252 372 534 372
c293 0 492 -136 492 -337c0 -28 -4 -67 -9 -89l-150 -706h-385l28 130h-8c-54 -87 -167 -146 -306 -146zM943 1275h-314l300 321h348z" />
    <glyph glyph-name="adieresis" unicode="&#xe4;" horiz-adv-x="1182" 
d="M530 252c87 0 165 56 181 131l15 71l-171 -4c-90 -2 -150 -45 -150 -108c0 -54 51 -90 125 -90zM345 -16c-183 0 -321 127 -321 299c0 229 193 373 507 380l241 5l13 64c3 17 4 24 4 31c0 51 -54 85 -134 85c-74 0 -129 -30 -149 -88h-357c44 231 252 372 534 372
c293 0 492 -136 492 -337c0 -28 -4 -67 -9 -89l-150 -706h-385l28 130h-8c-54 -87 -167 -146 -306 -146zM551 1255c-86 0 -149 63 -149 141s63 141 149 141s149 -63 149 -141s-63 -141 -149 -141zM969 1255c-86 0 -149 63 -149 141s63 141 149 141s149 -63 149 -141
s-63 -141 -149 -141z" />
    <glyph glyph-name="adieresismacron" unicode="&#x1df;" horiz-adv-x="1182" 
d="M530 252c87 0 165 56 181 131l15 71l-171 -4c-90 -2 -150 -45 -150 -108c0 -54 51 -90 125 -90zM345 -16c-183 0 -321 127 -321 299c0 229 193 373 507 380l241 5l13 64c3 17 4 24 4 31c0 51 -54 85 -134 85c-74 0 -129 -30 -149 -88h-357c44 231 252 372 534 372
c293 0 492 -136 492 -337c0 -28 -4 -67 -9 -89l-150 -706h-385l28 130h-8c-54 -87 -167 -146 -306 -146zM529 1235c-86 0 -149 63 -149 141s63 141 149 141s149 -63 149 -141s-63 -141 -149 -141zM947 1235c-86 0 -149 63 -149 141s63 141 149 141s149 -63 149 -141
s-63 -141 -149 -141zM1207 1820l-38 -180h-704l38 180h704z" />
    <glyph glyph-name="aring" unicode="&#xe5;" horiz-adv-x="1182" 
d="M530 252c87 0 165 56 181 131l15 71l-171 -4c-90 -2 -150 -45 -150 -108c0 -54 51 -90 125 -90zM345 -16c-183 0 -321 127 -321 299c0 229 193 373 507 380l241 5l13 64c3 17 4 24 4 31c0 51 -54 85 -134 85c-74 0 -129 -30 -149 -88h-357c44 231 252 372 534 372
c293 0 492 -136 492 -337c0 -28 -4 -67 -9 -89l-150 -706h-385l28 130h-8c-54 -87 -167 -146 -306 -146zM774 1235c-132 0 -244 106 -244 235c0 130 112 236 244 236s243 -106 243 -236c0 -129 -111 -235 -243 -235zM774 1386c47 0 88 38 88 84c0 47 -41 86 -88 86
s-88 -39 -88 -86c0 -46 41 -84 88 -84z" />
    <glyph glyph-name="aringacute" unicode="&#x1fb;" horiz-adv-x="1182" 
d="M530 252c87 0 165 56 181 131l15 71l-171 -4c-90 -2 -150 -45 -150 -108c0 -54 51 -90 125 -90zM345 -16c-183 0 -321 127 -321 299c0 229 193 373 507 380l241 5l13 64c3 17 4 24 4 31c0 51 -54 85 -134 85c-74 0 -129 -30 -149 -88h-357c44 231 252 372 534 372
c293 0 492 -136 492 -337c0 -28 -4 -67 -9 -89l-150 -706h-385l28 130h-8c-54 -87 -167 -146 -306 -146zM678 1751l193 230h314l-239 -230h-268zM753 1216c-139 0 -237 96 -237 228s98 228 237 228s237 -96 237 -228s-98 -228 -237 -228zM675 1444c0 -45 33 -78 78 -78
s78 33 78 78s-33 78 -78 78s-78 -33 -78 -78z" />
    <glyph glyph-name="atilde" unicode="&#xe3;" horiz-adv-x="1182" 
d="M530 252c87 0 165 56 181 131l15 71l-171 -4c-90 -2 -150 -45 -150 -108c0 -54 51 -90 125 -90zM345 -16c-183 0 -321 127 -321 299c0 229 193 373 507 380l241 5l13 64c3 17 4 24 4 31c0 51 -54 85 -134 85c-74 0 -129 -30 -149 -88h-357c44 231 252 372 534 372
c293 0 492 -136 492 -337c0 -28 -4 -67 -9 -89l-150 -706h-385l28 130h-8c-54 -87 -167 -146 -306 -146zM891 1256c-146 0 -182 119 -261 119c-40 0 -71 -38 -88 -101h-205c37 178 152 293 293 293c146 0 182 -119 261 -119c42 0 71 37 89 106h205
c-39 -180 -155 -298 -294 -298z" />
    <glyph glyph-name="abrevegrave" unicode="&#x1eb1;" horiz-adv-x="1182" 
d="M530 252c87 0 165 56 181 131l15 71l-171 -4c-90 -2 -150 -45 -150 -108c0 -54 51 -90 125 -90zM345 -16c-183 0 -321 127 -321 299c0 229 193 373 507 380l241 5l13 64c3 17 4 24 4 31c0 51 -54 85 -134 85c-74 0 -129 -30 -149 -88h-357c44 231 252 372 534 372
c293 0 492 -136 492 -337c0 -28 -4 -67 -9 -89l-150 -706h-385l28 130h-8c-54 -87 -167 -146 -306 -146zM937 1625h-261l-172 287h322zM1175 1570c-46 -182 -210 -334 -464 -334c-223 0 -332 120 -332 273c0 20 2 40 6 61h230c-2 -11 -3 -21 -3 -31c0 -70 43 -117 131 -117
c100 0 168 62 190 148h242z" />
    <glyph glyph-name="adotmacron" unicode="&#x1e1;" horiz-adv-x="1182" 
d="M530 252c87 0 165 56 181 131l15 71l-171 -4c-90 -2 -150 -45 -150 -108c0 -54 51 -90 125 -90zM345 -16c-183 0 -321 127 -321 299c0 229 193 373 507 380l241 5l13 64c3 17 4 24 4 31c0 51 -54 85 -134 85c-74 0 -129 -30 -149 -88h-357c44 231 252 372 534 372
c293 0 492 -136 492 -337c0 -28 -4 -67 -9 -89l-150 -706h-385l28 130h-8c-54 -87 -167 -146 -306 -146zM743 1222c-100 0 -177 78 -177 173s77 173 177 173s177 -78 177 -173s-77 -173 -177 -173zM1207 1820l-38 -180h-704l38 180h704z" />
    <glyph glyph-name="aringbelow" unicode="&#x1e01;" horiz-adv-x="1182" 
d="M530 252c87 0 165 56 181 131l15 71l-171 -4c-90 -2 -150 -45 -150 -108c0 -54 51 -90 125 -90zM345 -16c-183 0 -321 127 -321 299c0 229 193 373 507 380l241 5l13 64c3 17 4 24 4 31c0 51 -54 85 -134 85c-74 0 -129 -30 -149 -88h-357c44 231 252 372 534 372
c293 0 492 -136 492 -337c0 -28 -4 -67 -9 -89l-150 -706h-385l28 130h-8c-54 -87 -167 -146 -306 -146zM499 -545c-132 0 -244 106 -244 235c0 130 112 236 244 236s243 -106 243 -236c0 -129 -111 -235 -243 -235zM499 -394c47 0 88 38 88 84c0 47 -41 86 -88 86
s-88 -39 -88 -86c0 -46 41 -84 88 -84z" />
    <glyph glyph-name="acircumflex" unicode="&#xe2;" horiz-adv-x="1182" 
d="M530 252c87 0 165 56 181 131l15 71l-171 -4c-90 -2 -150 -45 -150 -108c0 -54 51 -90 125 -90zM345 -16c-183 0 -321 127 -321 299c0 229 193 373 507 380l241 5l13 64c3 17 4 24 4 31c0 51 -54 85 -134 85c-74 0 -129 -30 -149 -88h-357c44 231 252 372 534 372
c293 0 492 -136 492 -337c0 -28 -4 -67 -9 -89l-150 -706h-385l28 130h-8c-54 -87 -167 -146 -306 -146zM957 1592l183 -336h-272l-85 180h-8l-163 -180h-296l327 336h314z" />
    <glyph glyph-name="acircumflexdotbelow" unicode="&#x1ead;" horiz-adv-x="1182" 
d="M530 252c87 0 165 56 181 131l15 71l-171 -4c-90 -2 -150 -45 -150 -108c0 -54 51 -90 125 -90zM345 -16c-183 0 -321 127 -321 299c0 229 193 373 507 380l241 5l13 64c3 17 4 24 4 31c0 51 -54 85 -134 85c-74 0 -129 -30 -149 -88h-357c44 231 252 372 534 372
c293 0 492 -136 492 -337c0 -28 -4 -67 -9 -89l-150 -706h-385l28 130h-8c-54 -87 -167 -146 -306 -146zM957 1592l183 -336h-272l-85 180h-8l-163 -180h-296l327 336h314zM483 -482c-100 0 -177 78 -177 173s77 173 177 173s177 -78 177 -173s-77 -173 -177 -173z" />
    <glyph glyph-name="acircumflexacute" unicode="&#x1ea5;" horiz-adv-x="1182" 
d="M530 252c87 0 165 56 181 131l15 71l-171 -4c-90 -2 -150 -45 -150 -108c0 -54 51 -90 125 -90zM345 -16c-183 0 -321 127 -321 299c0 229 193 373 507 380l241 5l13 64c3 17 4 24 4 31c0 51 -54 85 -134 85c-74 0 -129 -30 -149 -88h-357c44 231 252 372 534 372
c293 0 492 -136 492 -337c0 -28 -4 -67 -9 -89l-150 -706h-385l28 130h-8c-54 -87 -167 -146 -306 -146zM926 1572l183 -336h-272l-85 180h-8l-163 -180h-296l327 336h314zM969 1631l262 281h322l-298 -281h-286z" />
    <glyph glyph-name="acircumflextilde" unicode="&#x1eab;" horiz-adv-x="1182" 
d="M530 252c87 0 165 56 181 131l15 71l-171 -4c-90 -2 -150 -45 -150 -108c0 -54 51 -90 125 -90zM345 -16c-183 0 -321 127 -321 299c0 229 193 373 507 380l241 5l13 64c3 17 4 24 4 31c0 51 -54 85 -134 85c-74 0 -129 -30 -149 -88h-357c44 231 252 372 534 372
c293 0 492 -136 492 -337c0 -28 -4 -67 -9 -89l-150 -706h-385l28 130h-8c-54 -87 -167 -146 -306 -146zM921 1552l187 -316h-272l-89 164h-8l-159 -164h-296l323 316h314zM955 1619c-146 0 -182 119 -261 119c-40 0 -71 -38 -88 -101h-205c37 178 152 293 293 293
c146 0 182 -119 261 -119c42 0 71 37 89 106h205c-39 -180 -155 -298 -294 -298z" />
    <glyph glyph-name="acircumflexgrave" unicode="&#x1ea7;" horiz-adv-x="1182" 
d="M530 252c87 0 165 56 181 131l15 71l-171 -4c-90 -2 -150 -45 -150 -108c0 -54 51 -90 125 -90zM345 -16c-183 0 -321 127 -321 299c0 229 193 373 507 380l241 5l13 64c3 17 4 24 4 31c0 51 -54 85 -134 85c-74 0 -129 -30 -149 -88h-357c44 231 252 372 534 372
c293 0 492 -136 492 -337c0 -28 -4 -67 -9 -89l-150 -706h-385l28 130h-8c-54 -87 -167 -146 -306 -146zM1337 1625h-261l-172 287h322zM926 1572l183 -336h-272l-85 180h-8l-163 -180h-296l327 336h314z" />
    <glyph glyph-name="acircumflexhookabove" unicode="&#x1ea9;" horiz-adv-x="1182" 
d="M530 252c87 0 165 56 181 131l15 71l-171 -4c-90 -2 -150 -45 -150 -108c0 -54 51 -90 125 -90zM345 -16c-183 0 -321 127 -321 299c0 229 193 373 507 380l241 5l13 64c3 17 4 24 4 31c0 51 -54 85 -134 85c-74 0 -129 -30 -149 -88h-357c44 231 252 372 534 372
c293 0 492 -136 492 -337c0 -28 -4 -67 -9 -89l-150 -706h-385l28 130h-8c-54 -87 -167 -146 -306 -146zM970 1816l39 182c46 13 99 21 143 21c143 0 243 -84 243 -205c0 -139 -105 -263 -269 -320l-81 146c78 32 119 73 119 119c0 45 -35 71 -96 71c-38 0 -72 -5 -98 -14z
M926 1572l183 -336h-272l-85 180h-8l-163 -180h-296l327 336h314z" />
    <glyph glyph-name="abreve" unicode="&#x103;" horiz-adv-x="1182" 
d="M530 252c87 0 165 56 181 131l15 71l-171 -4c-90 -2 -150 -45 -150 -108c0 -54 51 -90 125 -90zM345 -16c-183 0 -321 127 -321 299c0 229 193 373 507 380l241 5l13 64c3 17 4 24 4 31c0 51 -54 85 -134 85c-74 0 -129 -30 -149 -88h-357c44 231 252 372 534 372
c293 0 492 -136 492 -337c0 -28 -4 -67 -9 -89l-150 -706h-385l28 130h-8c-54 -87 -167 -146 -306 -146zM410 1590h232c-2 -11 -3 -21 -3 -31c0 -74 48 -117 131 -117c94 0 167 56 190 148h240c-48 -202 -220 -334 -464 -334c-194 0 -331 116 -331 279c0 16 2 33 5 55z" />
    <glyph glyph-name="abreveacute" unicode="&#x1eaf;" horiz-adv-x="1182" 
d="M530 252c87 0 165 56 181 131l15 71l-171 -4c-90 -2 -150 -45 -150 -108c0 -54 51 -90 125 -90zM345 -16c-183 0 -321 127 -321 299c0 229 193 373 507 380l241 5l13 64c3 17 4 24 4 31c0 51 -54 85 -134 85c-74 0 -129 -30 -149 -88h-357c44 231 252 372 534 372
c293 0 492 -136 492 -337c0 -28 -4 -67 -9 -89l-150 -706h-385l28 130h-8c-54 -87 -167 -146 -306 -146zM639 1631l262 281h322l-298 -281h-286zM1175 1570c-46 -182 -210 -334 -464 -334c-223 0 -332 120 -332 273c0 20 2 40 6 61h230c-2 -11 -3 -21 -3 -31
c0 -70 43 -117 131 -117c100 0 168 62 190 148h242z" />
    <glyph glyph-name="abrevetilde" unicode="&#x1eb5;" horiz-adv-x="1182" 
d="M530 252c87 0 165 56 181 131l15 71l-171 -4c-90 -2 -150 -45 -150 -108c0 -54 51 -90 125 -90zM345 -16c-183 0 -321 127 -321 299c0 229 193 373 507 380l241 5l13 64c3 17 4 24 4 31c0 51 -54 85 -134 85c-74 0 -129 -30 -149 -88h-357c44 231 252 372 534 372
c293 0 492 -136 492 -337c0 -28 -4 -67 -9 -89l-150 -706h-385l28 130h-8c-54 -87 -167 -146 -306 -146zM1175 1570c-46 -182 -210 -334 -464 -334c-223 0 -332 120 -332 273c0 20 2 40 6 61h230c-2 -11 -3 -21 -3 -31c0 -70 43 -117 131 -117c100 0 168 62 190 148h242z
M955 1619c-146 0 -182 119 -261 119c-40 0 -71 -38 -88 -101h-205c37 178 152 293 293 293c146 0 182 -119 261 -119c42 0 71 37 89 106h205c-39 -180 -155 -298 -294 -298z" />
    <glyph glyph-name="abrevehookabove" unicode="&#x1eb3;" horiz-adv-x="1182" 
d="M530 252c87 0 165 56 181 131l15 71l-171 -4c-90 -2 -150 -45 -150 -108c0 -54 51 -90 125 -90zM345 -16c-183 0 -321 127 -321 299c0 229 193 373 507 380l241 5l13 64c3 17 4 24 4 31c0 51 -54 85 -134 85c-74 0 -129 -30 -149 -88h-357c44 231 252 372 534 372
c293 0 492 -136 492 -337c0 -28 -4 -67 -9 -89l-150 -706h-385l28 130h-8c-54 -87 -167 -146 -306 -146zM587 1840l35 161c46 12 96 18 136 18c135 0 228 -74 228 -181c0 -108 -105 -226 -236 -274l-78 128c63 25 97 57 97 97s-33 63 -90 63c-33 0 -65 -4 -92 -12z
M1175 1570c-46 -182 -210 -334 -464 -334c-223 0 -332 120 -332 273c0 20 2 40 6 61h230c-2 -11 -3 -21 -3 -31c0 -70 43 -117 131 -117c100 0 168 62 190 148h242z" />
    <glyph glyph-name="abrevedotbelow" unicode="&#x1eb7;" horiz-adv-x="1182" 
d="M530 252c87 0 165 56 181 131l15 71l-171 -4c-90 -2 -150 -45 -150 -108c0 -54 51 -90 125 -90zM345 -16c-183 0 -321 127 -321 299c0 229 193 373 507 380l241 5l13 64c3 17 4 24 4 31c0 51 -54 85 -134 85c-74 0 -129 -30 -149 -88h-357c44 231 252 372 534 372
c293 0 492 -136 492 -337c0 -28 -4 -67 -9 -89l-150 -706h-385l28 130h-8c-54 -87 -167 -146 -306 -146zM410 1590h232c-2 -11 -3 -21 -3 -31c0 -74 48 -117 131 -117c94 0 167 56 190 148h240c-48 -202 -220 -334 -464 -334c-194 0 -331 116 -331 279c0 16 2 33 5 55z
M483 -482c-100 0 -177 78 -177 173s77 173 177 173s177 -78 177 -173s-77 -173 -177 -173z" />
    <glyph glyph-name="ainvertedbreve" unicode="&#x203;" horiz-adv-x="1182" 
d="M530 252c87 0 165 56 181 131l15 71l-171 -4c-90 -2 -150 -45 -150 -108c0 -54 51 -90 125 -90zM345 -16c-183 0 -321 127 -321 299c0 229 193 373 507 380l241 5l13 64c3 17 4 24 4 31c0 51 -54 85 -134 85c-74 0 -129 -30 -149 -88h-357c44 231 252 372 534 372
c293 0 492 -136 492 -337c0 -28 -4 -67 -9 -89l-150 -706h-385l28 130h-8c-54 -87 -167 -146 -306 -146zM1101 1236h-232c2 11 3 21 3 31c0 74 -48 117 -131 117c-94 0 -167 -56 -190 -148h-240c48 202 220 334 464 334c194 0 331 -116 331 -279c0 -16 -2 -33 -5 -55z" />
    <glyph glyph-name="acaron" unicode="&#x1ce;" horiz-adv-x="1182" 
d="M530 252c87 0 165 56 181 131l15 71l-171 -4c-90 -2 -150 -45 -150 -108c0 -54 51 -90 125 -90zM345 -16c-183 0 -321 127 -321 299c0 229 193 373 507 380l241 5l13 64c3 17 4 24 4 31c0 51 -54 85 -134 85c-74 0 -129 -30 -149 -88h-357c44 231 252 372 534 372
c293 0 492 -136 492 -337c0 -28 -4 -67 -9 -89l-150 -706h-385l28 130h-8c-54 -87 -167 -146 -306 -146zM886 1256h-314l-184 336h272l86 -180h8l162 180h296z" />
    <glyph glyph-name="adotaccent" unicode="&#x227;" horiz-adv-x="1182" 
d="M530 252c87 0 165 56 181 131l15 71l-171 -4c-90 -2 -150 -45 -150 -108c0 -54 51 -90 125 -90zM345 -16c-183 0 -321 127 -321 299c0 229 193 373 507 380l241 5l13 64c3 17 4 24 4 31c0 51 -54 85 -134 85c-74 0 -129 -30 -149 -88h-357c44 231 252 372 534 372
c293 0 492 -136 492 -337c0 -28 -4 -67 -9 -89l-150 -706h-385l28 130h-8c-54 -87 -167 -146 -306 -146zM751 1264c-100 0 -177 78 -177 173s77 173 177 173s177 -78 177 -173s-77 -173 -177 -173z" />
    <glyph glyph-name="adotbelow" unicode="&#x1ea1;" horiz-adv-x="1182" 
d="M530 252c87 0 165 56 181 131l15 71l-171 -4c-90 -2 -150 -45 -150 -108c0 -54 51 -90 125 -90zM345 -16c-183 0 -321 127 -321 299c0 229 193 373 507 380l241 5l13 64c3 17 4 24 4 31c0 51 -54 85 -134 85c-74 0 -129 -30 -149 -88h-357c44 231 252 372 534 372
c293 0 492 -136 492 -337c0 -28 -4 -67 -9 -89l-150 -706h-385l28 130h-8c-54 -87 -167 -146 -306 -146zM483 -482c-100 0 -177 78 -177 173s77 173 177 173s177 -78 177 -173s-77 -173 -177 -173z" />
    <glyph glyph-name="ahookabove" unicode="&#x1ea3;" horiz-adv-x="1182" 
d="M530 252c87 0 165 56 181 131l15 71l-171 -4c-90 -2 -150 -45 -150 -108c0 -54 51 -90 125 -90zM345 -16c-183 0 -321 127 -321 299c0 229 193 373 507 380l241 5l13 64c3 17 4 24 4 31c0 51 -54 85 -134 85c-74 0 -129 -30 -149 -88h-357c44 231 252 372 534 372
c293 0 492 -136 492 -337c0 -28 -4 -67 -9 -89l-150 -706h-385l28 130h-8c-54 -87 -167 -146 -306 -146zM593 1522l42 172c38 11 92 18 137 18c140 0 237 -81 237 -199c0 -131 -100 -254 -250 -306l-85 140c73 28 110 66 110 114c0 45 -38 75 -96 75c-36 0 -69 -5 -95 -14z
" />
    <glyph glyph-name="adblgrave" unicode="&#x201;" horiz-adv-x="1182" 
d="M530 252c87 0 165 56 181 131l15 71l-171 -4c-90 -2 -150 -45 -150 -108c0 -54 51 -90 125 -90zM345 -16c-183 0 -321 127 -321 299c0 229 193 373 507 380l241 5l13 64c3 17 4 24 4 31c0 51 -54 85 -134 85c-74 0 -129 -30 -149 -88h-357c44 231 252 372 534 372
c293 0 492 -136 492 -337c0 -28 -4 -67 -9 -89l-150 -706h-385l28 130h-8c-54 -87 -167 -146 -306 -146zM708 1276h-280l-211 320h309zM1133 1276h-280l-211 320h308z" />
    <glyph glyph-name="amacron" unicode="&#x101;" horiz-adv-x="1182" 
d="M530 252c87 0 165 56 181 131l15 71l-171 -4c-90 -2 -150 -45 -150 -108c0 -54 51 -90 125 -90zM345 -16c-183 0 -321 127 -321 299c0 229 193 373 507 380l241 5l13 64c3 17 4 24 4 31c0 51 -54 85 -134 85c-74 0 -129 -30 -149 -88h-357c44 231 252 372 534 372
c293 0 492 -136 492 -337c0 -28 -4 -67 -9 -89l-150 -706h-385l28 130h-8c-54 -87 -167 -146 -306 -146zM1129 1456l-38 -180h-704l38 180h704z" />
    <glyph glyph-name="aogonek" unicode="&#x105;" horiz-adv-x="1182" 
d="M533 252c87 0 165 56 181 131l15 71l-171 -4c-90 -2 -150 -45 -150 -108c0 -54 51 -90 125 -90zM867 -461c-35 -14 -93 -26 -177 -26c-160 0 -257 87 -257 201c0 118 89 204 196 265l33 151h-8c-54 -87 -167 -146 -306 -146c-183 0 -321 127 -321 299
c0 229 193 373 507 380l241 5l13 64c3 17 4 24 4 31c0 51 -54 85 -134 85c-74 0 -129 -30 -149 -88h-357c44 231 252 372 534 372c293 0 492 -136 492 -337c0 -28 -4 -67 -9 -89l-148 -696l-39 -10c-124 -32 -253 -128 -253 -206c0 -44 49 -72 105 -72c32 0 61 5 73 9z" />
    <glyph glyph-name="a.1" horiz-adv-x="1328" 
d="M634 285c126 0 236 157 236 335c0 115 -60 189 -153 189c-132 0 -238 -151 -238 -338c0 -112 62 -186 155 -186zM1148 0h-396l33 156h-18c-81 -115 -191 -172 -330 -172c-227 0 -368 160 -368 419c0 411 235 717 552 717c159 0 283 -76 318 -194h19l38 178h387z" />
    <glyph glyph-name="agrave.1" horiz-adv-x="1328" 
d="M634 285c126 0 236 157 236 335c0 115 -60 189 -153 189c-132 0 -238 -151 -238 -338c0 -112 62 -186 155 -186zM1148 0h-396l33 156h-18c-81 -115 -191 -172 -330 -172c-227 0 -368 160 -368 419c0 411 235 717 552 717c159 0 283 -76 318 -194h19l38 178h387zM953 1276
h-314l-197 321h347z" />
    <glyph glyph-name="aacute.1" horiz-adv-x="1328" 
d="M634 285c126 0 236 157 236 335c0 115 -60 189 -153 189c-132 0 -238 -151 -238 -338c0 -112 62 -186 155 -186zM1148 0h-396l33 156h-18c-81 -115 -191 -172 -330 -172c-227 0 -368 160 -368 419c0 411 235 717 552 717c159 0 283 -76 318 -194h19l38 178h387z
M1045 1276h-314l300 321h348z" />
    <glyph glyph-name="adieresis.1" horiz-adv-x="1328" 
d="M634 285c126 0 236 157 236 335c0 115 -60 189 -153 189c-132 0 -238 -151 -238 -338c0 -112 62 -186 155 -186zM1148 0h-396l33 156h-18c-81 -115 -191 -172 -330 -172c-227 0 -368 160 -368 419c0 411 235 717 552 717c159 0 283 -76 318 -194h19l38 178h387zM653 1256
c-86 0 -149 63 -149 141s63 141 149 141s149 -63 149 -141s-63 -141 -149 -141zM1071 1256c-86 0 -149 63 -149 141s63 141 149 141s149 -63 149 -141s-63 -141 -149 -141z" />
    <glyph glyph-name="adieresismacron.1" horiz-adv-x="1328" 
d="M634 285c126 0 236 157 236 335c0 115 -60 189 -153 189c-132 0 -238 -151 -238 -338c0 -112 62 -186 155 -186zM1148 0h-396l33 156h-18c-81 -115 -191 -172 -330 -172c-227 0 -368 160 -368 419c0 411 235 717 552 717c159 0 283 -76 318 -194h19l38 178h387zM631 1236
c-86 0 -149 63 -149 141s63 141 149 141s149 -63 149 -141s-63 -141 -149 -141zM1049 1236c-86 0 -149 63 -149 141s63 141 149 141s149 -63 149 -141s-63 -141 -149 -141zM1309 1821l-38 -180h-704l38 180h704z" />
    <glyph glyph-name="aring.1" horiz-adv-x="1328" 
d="M634 285c126 0 236 157 236 335c0 115 -60 189 -153 189c-132 0 -238 -151 -238 -338c0 -112 62 -186 155 -186zM1148 0h-396l33 156h-18c-81 -115 -191 -172 -330 -172c-227 0 -368 160 -368 419c0 411 235 717 552 717c159 0 283 -76 318 -194h19l38 178h387zM876 1236
c-132 0 -244 106 -244 235c0 130 112 236 244 236s243 -106 243 -236c0 -129 -111 -235 -243 -235zM876 1387c47 0 88 38 88 84c0 47 -41 86 -88 86s-88 -39 -88 -86c0 -46 41 -84 88 -84z" />
    <glyph glyph-name="aringacute.1" horiz-adv-x="1328" 
d="M634 285c126 0 236 157 236 335c0 115 -60 189 -153 189c-132 0 -238 -151 -238 -338c0 -112 62 -186 155 -186zM1148 0h-396l33 156h-18c-81 -115 -191 -172 -330 -172c-227 0 -368 160 -368 419c0 411 235 717 552 717c159 0 283 -76 318 -194h19l38 178h387zM780 1752
l193 230h314l-239 -230h-268zM855 1217c-139 0 -237 96 -237 228s98 228 237 228s237 -96 237 -228s-98 -228 -237 -228zM777 1445c0 -45 33 -78 78 -78s78 33 78 78s-33 78 -78 78s-78 -33 -78 -78z" />
    <glyph glyph-name="atilde.1" horiz-adv-x="1328" 
d="M634 285c126 0 236 157 236 335c0 115 -60 189 -153 189c-132 0 -238 -151 -238 -338c0 -112 62 -186 155 -186zM1148 0h-396l33 156h-18c-81 -115 -191 -172 -330 -172c-227 0 -368 160 -368 419c0 411 235 717 552 717c159 0 283 -76 318 -194h19l38 178h387zM993 1257
c-146 0 -182 119 -261 119c-40 0 -71 -38 -88 -101h-205c37 178 152 293 293 293c146 0 182 -119 261 -119c42 0 71 37 89 106h205c-39 -180 -155 -298 -294 -298z" />
    <glyph glyph-name="abrevegrave.1" horiz-adv-x="1328" 
d="M634 285c126 0 236 157 236 335c0 115 -60 189 -153 189c-132 0 -238 -151 -238 -338c0 -112 62 -186 155 -186zM1148 0h-396l33 156h-18c-81 -115 -191 -172 -330 -172c-227 0 -368 160 -368 419c0 411 235 717 552 717c159 0 283 -76 318 -194h19l38 178h387z
M1039 1626h-261l-172 287h322zM1277 1571c-46 -182 -210 -334 -464 -334c-223 0 -332 120 -332 273c0 20 2 40 6 61h230c-2 -11 -3 -21 -3 -31c0 -70 43 -117 131 -117c100 0 168 62 190 148h242z" />
    <glyph glyph-name="adotmacron.1" horiz-adv-x="1328" 
d="M634 285c126 0 236 157 236 335c0 115 -60 189 -153 189c-132 0 -238 -151 -238 -338c0 -112 62 -186 155 -186zM1148 0h-396l33 156h-18c-81 -115 -191 -172 -330 -172c-227 0 -368 160 -368 419c0 411 235 717 552 717c159 0 283 -76 318 -194h19l38 178h387zM845 1223
c-100 0 -177 78 -177 173s77 173 177 173s177 -78 177 -173s-77 -173 -177 -173zM1309 1821l-38 -180h-704l38 180h704z" />
    <glyph glyph-name="aringbelow.1" horiz-adv-x="1328" 
d="M634 285c126 0 236 157 236 335c0 115 -60 189 -153 189c-132 0 -238 -151 -238 -338c0 -112 62 -186 155 -186zM1148 0h-396l33 156h-18c-81 -115 -191 -172 -330 -172c-227 0 -368 160 -368 419c0 411 235 717 552 717c159 0 283 -76 318 -194h19l38 178h387zM501 -545
c-132 0 -244 106 -244 235c0 130 112 236 244 236s243 -106 243 -236c0 -129 -111 -235 -243 -235zM501 -394c47 0 88 38 88 84c0 47 -41 86 -88 86s-88 -39 -88 -86c0 -46 41 -84 88 -84z" />
    <glyph glyph-name="acircumflex.1" horiz-adv-x="1328" 
d="M634 285c126 0 236 157 236 335c0 115 -60 189 -153 189c-132 0 -238 -151 -238 -338c0 -112 62 -186 155 -186zM1148 0h-396l33 156h-18c-81 -115 -191 -172 -330 -172c-227 0 -368 160 -368 419c0 411 235 717 552 717c159 0 283 -76 318 -194h19l38 178h387z
M1059 1593l183 -336h-272l-85 180h-8l-163 -180h-296l327 336h314z" />
    <glyph glyph-name="acircumflexdotbelow.1" horiz-adv-x="1328" 
d="M634 285c126 0 236 157 236 335c0 115 -60 189 -153 189c-132 0 -238 -151 -238 -338c0 -112 62 -186 155 -186zM1148 0h-396l33 156h-18c-81 -115 -191 -172 -330 -172c-227 0 -368 160 -368 419c0 411 235 717 552 717c159 0 283 -76 318 -194h19l38 178h387z
M1059 1593l183 -336h-272l-85 180h-8l-163 -180h-296l327 336h314zM485 -482c-100 0 -177 78 -177 173s77 173 177 173s177 -78 177 -173s-77 -173 -177 -173z" />
    <glyph glyph-name="acircumflexacute.1" horiz-adv-x="1328" 
d="M634 285c126 0 236 157 236 335c0 115 -60 189 -153 189c-132 0 -238 -151 -238 -338c0 -112 62 -186 155 -186zM1148 0h-396l33 156h-18c-81 -115 -191 -172 -330 -172c-227 0 -368 160 -368 419c0 411 235 717 552 717c159 0 283 -76 318 -194h19l38 178h387z
M1028 1573l183 -336h-272l-85 180h-8l-163 -180h-296l327 336h314zM1071 1632l262 281h322l-298 -281h-286z" />
    <glyph glyph-name="acircumflextilde.1" horiz-adv-x="1328" 
d="M634 285c126 0 236 157 236 335c0 115 -60 189 -153 189c-132 0 -238 -151 -238 -338c0 -112 62 -186 155 -186zM1148 0h-396l33 156h-18c-81 -115 -191 -172 -330 -172c-227 0 -368 160 -368 419c0 411 235 717 552 717c159 0 283 -76 318 -194h19l38 178h387z
M1023 1553l187 -316h-272l-89 164h-8l-159 -164h-296l323 316h314zM1057 1620c-146 0 -182 119 -261 119c-40 0 -71 -38 -88 -101h-205c37 178 152 293 293 293c146 0 182 -119 261 -119c42 0 71 37 89 106h205c-39 -180 -155 -298 -294 -298z" />
    <glyph glyph-name="acircumflexgrave.1" horiz-adv-x="1328" 
d="M634 285c126 0 236 157 236 335c0 115 -60 189 -153 189c-132 0 -238 -151 -238 -338c0 -112 62 -186 155 -186zM1148 0h-396l33 156h-18c-81 -115 -191 -172 -330 -172c-227 0 -368 160 -368 419c0 411 235 717 552 717c159 0 283 -76 318 -194h19l38 178h387z
M1439 1626h-261l-172 287h322zM1028 1573l183 -336h-272l-85 180h-8l-163 -180h-296l327 336h314z" />
    <glyph glyph-name="acircumflexhookabove.1" horiz-adv-x="1328" 
d="M634 285c126 0 236 157 236 335c0 115 -60 189 -153 189c-132 0 -238 -151 -238 -338c0 -112 62 -186 155 -186zM1148 0h-396l33 156h-18c-81 -115 -191 -172 -330 -172c-227 0 -368 160 -368 419c0 411 235 717 552 717c159 0 283 -76 318 -194h19l38 178h387z
M1072 1817l39 182c46 13 99 21 143 21c143 0 243 -84 243 -205c0 -139 -105 -263 -269 -320l-81 146c78 32 119 73 119 119c0 45 -35 71 -96 71c-38 0 -72 -5 -98 -14zM1028 1573l183 -336h-272l-85 180h-8l-163 -180h-296l327 336h314z" />
    <glyph glyph-name="abreve.1" horiz-adv-x="1328" 
d="M634 285c126 0 236 157 236 335c0 115 -60 189 -153 189c-132 0 -238 -151 -238 -338c0 -112 62 -186 155 -186zM1148 0h-396l33 156h-18c-81 -115 -191 -172 -330 -172c-227 0 -368 160 -368 419c0 411 235 717 552 717c159 0 283 -76 318 -194h19l38 178h387zM512 1591
h232c-2 -11 -3 -21 -3 -31c0 -74 48 -117 131 -117c94 0 167 56 190 148h240c-48 -202 -220 -334 -464 -334c-194 0 -331 116 -331 279c0 16 2 33 5 55z" />
    <glyph glyph-name="abreveacute.1" horiz-adv-x="1328" 
d="M634 285c126 0 236 157 236 335c0 115 -60 189 -153 189c-132 0 -238 -151 -238 -338c0 -112 62 -186 155 -186zM1148 0h-396l33 156h-18c-81 -115 -191 -172 -330 -172c-227 0 -368 160 -368 419c0 411 235 717 552 717c159 0 283 -76 318 -194h19l38 178h387zM741 1632
l262 281h322l-298 -281h-286zM1277 1571c-46 -182 -210 -334 -464 -334c-223 0 -332 120 -332 273c0 20 2 40 6 61h230c-2 -11 -3 -21 -3 -31c0 -70 43 -117 131 -117c100 0 168 62 190 148h242z" />
    <glyph glyph-name="abrevetilde.1" horiz-adv-x="1328" 
d="M634 285c126 0 236 157 236 335c0 115 -60 189 -153 189c-132 0 -238 -151 -238 -338c0 -112 62 -186 155 -186zM1148 0h-396l33 156h-18c-81 -115 -191 -172 -330 -172c-227 0 -368 160 -368 419c0 411 235 717 552 717c159 0 283 -76 318 -194h19l38 178h387z
M1277 1571c-46 -182 -210 -334 -464 -334c-223 0 -332 120 -332 273c0 20 2 40 6 61h230c-2 -11 -3 -21 -3 -31c0 -70 43 -117 131 -117c100 0 168 62 190 148h242zM1057 1620c-146 0 -182 119 -261 119c-40 0 -71 -38 -88 -101h-205c37 178 152 293 293 293
c146 0 182 -119 261 -119c42 0 71 37 89 106h205c-39 -180 -155 -298 -294 -298z" />
    <glyph glyph-name="abrevehookabove.1" horiz-adv-x="1328" 
d="M634 285c126 0 236 157 236 335c0 115 -60 189 -153 189c-132 0 -238 -151 -238 -338c0 -112 62 -186 155 -186zM1148 0h-396l33 156h-18c-81 -115 -191 -172 -330 -172c-227 0 -368 160 -368 419c0 411 235 717 552 717c159 0 283 -76 318 -194h19l38 178h387zM689 1841
l35 161c46 12 96 18 136 18c135 0 228 -74 228 -181c0 -108 -105 -226 -236 -274l-78 128c63 25 97 57 97 97s-33 63 -90 63c-33 0 -65 -4 -92 -12zM1277 1571c-46 -182 -210 -334 -464 -334c-223 0 -332 120 -332 273c0 20 2 40 6 61h230c-2 -11 -3 -21 -3 -31
c0 -70 43 -117 131 -117c100 0 168 62 190 148h242z" />
    <glyph glyph-name="abrevedotbelow.1" horiz-adv-x="1328" 
d="M634 285c126 0 236 157 236 335c0 115 -60 189 -153 189c-132 0 -238 -151 -238 -338c0 -112 62 -186 155 -186zM1148 0h-396l33 156h-18c-81 -115 -191 -172 -330 -172c-227 0 -368 160 -368 419c0 411 235 717 552 717c159 0 283 -76 318 -194h19l38 178h387zM512 1591
h232c-2 -11 -3 -21 -3 -31c0 -74 48 -117 131 -117c94 0 167 56 190 148h240c-48 -202 -220 -334 -464 -334c-194 0 -331 116 -331 279c0 16 2 33 5 55zM485 -482c-100 0 -177 78 -177 173s77 173 177 173s177 -78 177 -173s-77 -173 -177 -173z" />
    <glyph glyph-name="ainvertedbreve.1" horiz-adv-x="1328" 
d="M634 285c126 0 236 157 236 335c0 115 -60 189 -153 189c-132 0 -238 -151 -238 -338c0 -112 62 -186 155 -186zM1148 0h-396l33 156h-18c-81 -115 -191 -172 -330 -172c-227 0 -368 160 -368 419c0 411 235 717 552 717c159 0 283 -76 318 -194h19l38 178h387z
M1203 1237h-232c2 11 3 21 3 31c0 74 -48 117 -131 117c-94 0 -167 -56 -190 -148h-240c48 202 220 334 464 334c194 0 331 -116 331 -279c0 -16 -2 -33 -5 -55z" />
    <glyph glyph-name="acaron.1" horiz-adv-x="1328" 
d="M634 285c126 0 236 157 236 335c0 115 -60 189 -153 189c-132 0 -238 -151 -238 -338c0 -112 62 -186 155 -186zM1148 0h-396l33 156h-18c-81 -115 -191 -172 -330 -172c-227 0 -368 160 -368 419c0 411 235 717 552 717c159 0 283 -76 318 -194h19l38 178h387zM988 1257
h-314l-184 336h272l86 -180h8l162 180h296z" />
    <glyph glyph-name="adotaccent.1" horiz-adv-x="1328" 
d="M634 285c126 0 236 157 236 335c0 115 -60 189 -153 189c-132 0 -238 -151 -238 -338c0 -112 62 -186 155 -186zM1148 0h-396l33 156h-18c-81 -115 -191 -172 -330 -172c-227 0 -368 160 -368 419c0 411 235 717 552 717c159 0 283 -76 318 -194h19l38 178h387zM853 1265
c-100 0 -177 78 -177 173s77 173 177 173s177 -78 177 -173s-77 -173 -177 -173z" />
    <glyph glyph-name="adotbelow.1" horiz-adv-x="1328" 
d="M634 285c126 0 236 157 236 335c0 115 -60 189 -153 189c-132 0 -238 -151 -238 -338c0 -112 62 -186 155 -186zM1148 0h-396l33 156h-18c-81 -115 -191 -172 -330 -172c-227 0 -368 160 -368 419c0 411 235 717 552 717c159 0 283 -76 318 -194h19l38 178h387zM485 -482
c-100 0 -177 78 -177 173s77 173 177 173s177 -78 177 -173s-77 -173 -177 -173z" />
    <glyph glyph-name="ahookabove.1" horiz-adv-x="1328" 
d="M634 285c126 0 236 157 236 335c0 115 -60 189 -153 189c-132 0 -238 -151 -238 -338c0 -112 62 -186 155 -186zM1148 0h-396l33 156h-18c-81 -115 -191 -172 -330 -172c-227 0 -368 160 -368 419c0 411 235 717 552 717c159 0 283 -76 318 -194h19l38 178h387zM695 1523
l42 172c38 11 92 18 137 18c140 0 237 -81 237 -199c0 -131 -100 -254 -250 -306l-85 140c73 28 110 66 110 114c0 45 -38 75 -96 75c-36 0 -69 -5 -95 -14z" />
    <glyph glyph-name="adblgrave.1" horiz-adv-x="1328" 
d="M634 285c126 0 236 157 236 335c0 115 -60 189 -153 189c-132 0 -238 -151 -238 -338c0 -112 62 -186 155 -186zM1148 0h-396l33 156h-18c-81 -115 -191 -172 -330 -172c-227 0 -368 160 -368 419c0 411 235 717 552 717c159 0 283 -76 318 -194h19l38 178h387zM810 1277
h-280l-211 320h309zM1235 1277h-280l-211 320h308z" />
    <glyph glyph-name="amacron.1" horiz-adv-x="1328" 
d="M634 285c126 0 236 157 236 335c0 115 -60 189 -153 189c-132 0 -238 -151 -238 -338c0 -112 62 -186 155 -186zM1148 0h-396l33 156h-18c-81 -115 -191 -172 -330 -172c-227 0 -368 160 -368 419c0 411 235 717 552 717c159 0 283 -76 318 -194h19l38 178h387z
M1231 1457l-38 -180h-704l38 180h704z" />
    <glyph glyph-name="aogonek.1" horiz-adv-x="1328" 
d="M634 285c126 0 236 157 236 335c0 115 -60 189 -153 189c-132 0 -238 -151 -238 -338c0 -112 62 -186 155 -186zM996 -461c-35 -14 -93 -26 -177 -26c-160 0 -257 87 -257 201s87 199 184 258l39 184h-18c-81 -115 -191 -172 -330 -172c-227 0 -368 160 -368 419
c0 411 235 717 552 717c159 0 283 -76 318 -194h19l38 178h387l-233 -1094l-39 -10c-124 -32 -253 -128 -253 -206c0 -44 49 -72 105 -72c32 0 61 5 73 9z" />
    <glyph glyph-name="b" unicode="b" horiz-adv-x="1324" 
d="M768 -16c-161 0 -290 83 -332 213h-8l-42 -197h-386l308 1443h397l-108 -496h10c68 110 190 173 333 173c226 0 366 -159 366 -418c0 -410 -231 -718 -538 -718zM659 296c131 0 237 151 237 339c0 112 -61 185 -154 185c-126 0 -237 -158 -237 -339
c0 -112 61 -185 154 -185z" />
    <glyph glyph-name="blinebelow" unicode="&#x1e07;" horiz-adv-x="1324" 
d="M768 -16c-161 0 -290 83 -332 213h-8l-42 -197h-386l308 1443h397l-108 -496h10c68 110 190 173 333 173c226 0 366 -159 366 -418c0 -410 -231 -718 -538 -718zM659 296c131 0 237 151 237 339c0 112 -61 185 -154 185c-126 0 -237 -158 -237 -339
c0 -112 61 -185 154 -185zM831 -213l-38 -180h-748l38 180h748z" />
    <glyph glyph-name="bdotbelow" unicode="&#x1e05;" horiz-adv-x="1324" 
d="M768 -16c-161 0 -290 83 -332 213h-8l-42 -197h-386l308 1443h397l-108 -496h10c68 110 190 173 333 173c226 0 366 -159 366 -418c0 -410 -231 -718 -538 -718zM659 296c131 0 237 151 237 339c0 112 -61 185 -154 185c-126 0 -237 -158 -237 -339
c0 -112 61 -185 154 -185zM438 -476c-100 0 -177 78 -177 173s77 173 177 173s177 -78 177 -173s-77 -173 -177 -173z" />
    <glyph glyph-name="bdotaccent" unicode="&#x1e03;" horiz-adv-x="1324" 
d="M768 -16c-161 0 -290 83 -332 213h-8l-42 -197h-386l308 1443h397l-108 -496h10c68 110 190 173 333 173c226 0 366 -159 366 -418c0 -410 -231 -718 -538 -718zM659 296c131 0 237 151 237 339c0 112 -61 185 -154 185c-126 0 -237 -158 -237 -339
c0 -112 61 -185 154 -185zM581 1603c-100 0 -177 78 -177 173s77 173 177 173s177 -78 177 -173s-77 -173 -177 -173z" />
    <glyph glyph-name="c" unicode="c" horiz-adv-x="1200" 
d="M706 1132c286 0 497 -175 497 -411c0 -43 0 -48 -1 -54h-378c0 92 -53 150 -138 150c-125 0 -211 -144 -211 -354c0 -106 55 -176 139 -176c86 0 148 57 169 154h378c-33 -280 -260 -469 -565 -469c-314 0 -516 186 -516 474c0 424 239 686 626 686z" />
    <glyph glyph-name="cacute" unicode="&#x107;" horiz-adv-x="1200" 
d="M706 1132c286 0 497 -175 497 -411c0 -43 0 -48 -1 -54h-378c0 92 -53 150 -138 150c-125 0 -211 -144 -211 -354c0 -106 55 -176 139 -176c86 0 148 57 169 154h378c-33 -280 -260 -469 -565 -469c-314 0 -516 186 -516 474c0 424 239 686 626 686zM978 1276h-314
l300 321h348z" />
    <glyph glyph-name="ccaron" unicode="&#x10d;" horiz-adv-x="1200" 
d="M706 1132c286 0 497 -175 497 -411c0 -43 0 -48 -1 -54h-378c0 92 -53 150 -138 150c-125 0 -211 -144 -211 -354c0 -106 55 -176 139 -176c86 0 148 57 169 154h378c-33 -280 -260 -469 -565 -469c-314 0 -516 186 -516 474c0 424 239 686 626 686zM921 1257h-314
l-184 336h272l86 -180h8l162 180h296z" />
    <glyph glyph-name="ccircumflex" unicode="&#x109;" horiz-adv-x="1200" 
d="M706 1132c286 0 497 -175 497 -411c0 -43 0 -48 -1 -54h-378c0 92 -53 150 -138 150c-125 0 -211 -144 -211 -354c0 -106 55 -176 139 -176c86 0 148 57 169 154h378c-33 -280 -260 -469 -565 -469c-314 0 -516 186 -516 474c0 424 239 686 626 686zM992 1593l183 -336
h-272l-85 180h-8l-163 -180h-296l327 336h314z" />
    <glyph glyph-name="cdotaccent" unicode="&#x10b;" horiz-adv-x="1200" 
d="M706 1132c286 0 497 -175 497 -411c0 -43 0 -48 -1 -54h-378c0 92 -53 150 -138 150c-125 0 -211 -144 -211 -354c0 -106 55 -176 139 -176c86 0 148 57 169 154h378c-33 -280 -260 -469 -565 -469c-314 0 -516 186 -516 474c0 424 239 686 626 686zM786 1265
c-100 0 -177 78 -177 173s77 173 177 173s177 -78 177 -173s-77 -173 -177 -173z" />
    <glyph glyph-name="ccedilla" unicode="&#xe7;" horiz-adv-x="1200" 
d="M1202 667h-378c0 92 -53 150 -138 150c-125 0 -211 -144 -211 -354c0 -106 55 -176 139 -176c86 0 148 57 169 154h378c-30 -258 -226 -439 -495 -466l-42 -51c90 -13 138 -65 138 -149c0 -136 -139 -236 -328 -236c-60 0 -114 6 -138 15l35 161c25 -7 69 -12 110 -12
c74 0 112 16 112 47c0 29 -28 39 -111 39h-58l29 125l57 69c-241 43 -390 216 -390 463c0 424 239 686 626 686c286 0 497 -175 497 -411c0 -43 0 -48 -1 -54z" />
    <glyph glyph-name="ccedillaacute" unicode="&#x1e09;" horiz-adv-x="1200" 
d="M1312 1597l-334 -321h-314l300 321h348zM413 -86l57 69c-241 43 -390 216 -390 463c0 424 239 686 626 686c286 0 497 -175 497 -411c0 -43 0 -48 -1 -54h-378c0 92 -53 150 -138 150c-125 0 -211 -144 -211 -354c0 -106 55 -176 139 -176c86 0 148 57 169 154h378
c-30 -258 -226 -439 -495 -466l-42 -51c90 -13 138 -65 138 -149c0 -136 -139 -236 -328 -236c-60 0 -114 6 -138 15l35 161c25 -7 69 -12 110 -12c74 0 112 16 112 47c0 29 -28 39 -111 39h-58z" />
    <glyph glyph-name="d" unicode="d" horiz-adv-x="1323" 
d="M439 -16c-226 0 -367 160 -367 419c0 411 235 717 552 717c160 0 274 -71 311 -193h8l110 516h397l-308 -1443h-386l33 155h-8c-81 -115 -193 -171 -342 -171zM636 285c127 0 237 158 237 339c0 111 -61 185 -153 185c-132 0 -238 -150 -238 -338
c0 -111 62 -186 154 -186z" />
    <glyph glyph-name="ddotaccent" unicode="&#x1e0b;" horiz-adv-x="1323" 
d="M439 -16c-226 0 -367 160 -367 419c0 411 235 717 552 717c160 0 274 -71 311 -193h8l110 516h397l-308 -1443h-386l33 155h-8c-81 -115 -193 -171 -342 -171zM636 285c127 0 237 158 237 339c0 111 -61 185 -153 185c-132 0 -238 -150 -238 -338
c0 -111 62 -186 154 -186zM1326 1603c-100 0 -177 78 -177 173s77 173 177 173s177 -78 177 -173s-77 -173 -177 -173z" />
    <glyph glyph-name="dcircumflexbelow" unicode="&#x1e13;" horiz-adv-x="1323" 
d="M439 -16c-226 0 -367 160 -367 419c0 411 235 717 552 717c160 0 274 -71 311 -193h8l110 516h397l-308 -1443h-386l33 155h-8c-81 -115 -193 -171 -342 -171zM636 285c127 0 237 158 237 339c0 111 -61 185 -153 185c-132 0 -238 -150 -238 -338
c0 -111 62 -186 154 -186zM789 -165l183 -336h-276l-91 192h-8l-173 -192h-276l327 336h314z" />
    <glyph glyph-name="dcommaaccent" unicode="&#x1e11;" horiz-adv-x="1323" 
d="M439 -16c-226 0 -367 160 -367 419c0 411 235 717 552 717c160 0 274 -71 311 -193h8l110 516h397l-308 -1443h-386l33 155h-8c-81 -115 -193 -171 -342 -171zM636 285c127 0 237 158 237 339c0 111 -61 185 -153 185c-132 0 -238 -150 -238 -338
c0 -111 62 -186 154 -186zM499 -475h-308l220 321h359z" />
    <glyph glyph-name="dlinebelow" unicode="&#x1e0f;" horiz-adv-x="1323" 
d="M439 -16c-226 0 -367 160 -367 419c0 411 235 717 552 717c160 0 274 -71 311 -193h8l110 516h397l-308 -1443h-386l33 155h-8c-81 -115 -193 -171 -342 -171zM636 285c127 0 237 158 237 339c0 111 -61 185 -153 185c-132 0 -238 -150 -238 -338
c0 -111 62 -186 154 -186zM995 -219l-38 -180h-748l38 180h748z" />
    <glyph glyph-name="dcaron" unicode="&#x10f;" horiz-adv-x="1655" 
d="M1550 1443h322l-160 -518h-272zM439 -16c-226 0 -367 160 -367 419c0 411 235 717 552 717c160 0 274 -71 311 -193h8l110 516h397l-308 -1443h-386l33 155h-8c-81 -115 -193 -171 -342 -171zM636 285c127 0 237 158 237 339c0 111 -61 185 -153 185
c-132 0 -238 -150 -238 -338c0 -111 62 -186 154 -186z" />
    <glyph glyph-name="ddotbelow" unicode="&#x1e0d;" horiz-adv-x="1323" 
d="M439 -16c-226 0 -367 160 -367 419c0 411 235 717 552 717c160 0 274 -71 311 -193h8l110 516h397l-308 -1443h-386l33 155h-8c-81 -115 -193 -171 -342 -171zM636 285c127 0 237 158 237 339c0 111 -61 185 -153 185c-132 0 -238 -150 -238 -338
c0 -111 62 -186 154 -186zM602 -482c-100 0 -177 78 -177 173s77 173 177 173s177 -78 177 -173s-77 -173 -177 -173z" />
    <glyph glyph-name="dcroat" unicode="&#x111;" horiz-adv-x="1323" 
d="M636 285c127 0 237 158 237 339c0 111 -61 185 -153 185c-132 0 -238 -150 -238 -338c0 -111 62 -186 154 -186zM1522 1359l-40 -188h-90l-250 -1171h-386l33 155h-8c-81 -115 -193 -171 -342 -171c-226 0 -367 160 -367 419c0 411 235 717 552 717
c160 0 274 -71 311 -193h8l52 244h-221l40 188h221l18 84h397l-18 -84h90z" />
    <glyph glyph-name="e" unicode="e" horiz-adv-x="1234" 
d="M474 682h374c2 5 3 21 3 32c0 84 -66 144 -161 144c-103 0 -190 -71 -216 -176zM604 -27c-316 0 -522 187 -522 505c0 378 250 654 626 654c296 0 502 -188 502 -476c0 -60 -6 -134 -20 -190h-752c-2 -11 -3 -22 -3 -32c0 -102 70 -182 189 -182c87 0 154 44 173 108h368
c-57 -232 -267 -387 -561 -387z" />
    <glyph glyph-name="egrave" unicode="&#xe8;" horiz-adv-x="1234" 
d="M474 682h374c2 5 3 21 3 32c0 84 -66 144 -161 144c-103 0 -190 -71 -216 -176zM604 -27c-316 0 -522 187 -522 505c0 378 250 654 626 654c296 0 502 -188 502 -476c0 -60 -6 -134 -20 -190h-752c-2 -11 -3 -22 -3 -32c0 -102 70 -182 189 -182c87 0 154 44 173 108h368
c-57 -232 -267 -387 -561 -387zM871 1275h-314l-197 321h347z" />
    <glyph glyph-name="edblgrave" unicode="&#x205;" horiz-adv-x="1234" 
d="M474 682h374c2 5 3 21 3 32c0 84 -66 144 -161 144c-103 0 -190 -71 -216 -176zM604 -27c-316 0 -522 187 -522 505c0 378 250 654 626 654c296 0 502 -188 502 -476c0 -60 -6 -134 -20 -190h-752c-2 -11 -3 -22 -3 -32c0 -102 70 -182 189 -182c87 0 154 44 173 108h368
c-57 -232 -267 -387 -561 -387zM728 1276h-280l-211 320h309zM1153 1276h-280l-211 320h308z" />
    <glyph glyph-name="eacute" unicode="&#xe9;" horiz-adv-x="1234" 
d="M474 682h374c2 5 3 21 3 32c0 84 -66 144 -161 144c-103 0 -190 -71 -216 -176zM604 -27c-316 0 -522 187 -522 505c0 378 250 654 626 654c296 0 502 -188 502 -476c0 -60 -6 -134 -20 -190h-752c-2 -11 -3 -22 -3 -32c0 -102 70 -182 189 -182c87 0 154 44 173 108h368
c-57 -232 -267 -387 -561 -387zM963 1275h-314l300 321h348z" />
    <glyph glyph-name="ecircumflex" unicode="&#xea;" horiz-adv-x="1234" 
d="M474 682h374c2 5 3 21 3 32c0 84 -66 144 -161 144c-103 0 -190 -71 -216 -176zM604 -27c-316 0 -522 187 -522 505c0 378 250 654 626 654c296 0 502 -188 502 -476c0 -60 -6 -134 -20 -190h-752c-2 -11 -3 -22 -3 -32c0 -102 70 -182 189 -182c87 0 154 44 173 108h368
c-57 -232 -267 -387 -561 -387zM977 1592l183 -336h-272l-85 180h-8l-163 -180h-296l327 336h314z" />
    <glyph glyph-name="ecircumflexhookabove" unicode="&#x1ec3;" horiz-adv-x="1234" 
d="M474 682h374c2 5 3 21 3 32c0 84 -66 144 -161 144c-103 0 -190 -71 -216 -176zM604 -27c-316 0 -522 187 -522 505c0 378 250 654 626 654c296 0 502 -188 502 -476c0 -60 -6 -134 -20 -190h-752c-2 -11 -3 -22 -3 -32c0 -102 70 -182 189 -182c87 0 154 44 173 108h368
c-57 -232 -267 -387 -561 -387zM990 1816l39 182c46 13 99 21 143 21c143 0 243 -84 243 -205c0 -139 -105 -263 -269 -320l-81 146c78 32 119 73 119 119c0 45 -35 71 -96 71c-38 0 -72 -5 -98 -14zM946 1572l183 -336h-272l-85 180h-8l-163 -180h-296l327 336h314z" />
    <glyph glyph-name="ecircumflexgrave" unicode="&#x1ec1;" horiz-adv-x="1234" 
d="M474 682h374c2 5 3 21 3 32c0 84 -66 144 -161 144c-103 0 -190 -71 -216 -176zM604 -27c-316 0 -522 187 -522 505c0 378 250 654 626 654c296 0 502 -188 502 -476c0 -60 -6 -134 -20 -190h-752c-2 -11 -3 -22 -3 -32c0 -102 70 -182 189 -182c87 0 154 44 173 108h368
c-57 -232 -267 -387 -561 -387zM1357 1625h-261l-172 287h322zM946 1572l183 -336h-272l-85 180h-8l-163 -180h-296l327 336h314z" />
    <glyph glyph-name="ecircumflextilde" unicode="&#x1ec5;" horiz-adv-x="1234" 
d="M474 682h374c2 5 3 21 3 32c0 84 -66 144 -161 144c-103 0 -190 -71 -216 -176zM604 -27c-316 0 -522 187 -522 505c0 378 250 654 626 654c296 0 502 -188 502 -476c0 -60 -6 -134 -20 -190h-752c-2 -11 -3 -22 -3 -32c0 -102 70 -182 189 -182c87 0 154 44 173 108h368
c-57 -232 -267 -387 -561 -387zM941 1552l187 -316h-272l-89 164h-8l-159 -164h-296l323 316h314zM975 1619c-146 0 -182 119 -261 119c-40 0 -71 -38 -88 -101h-205c37 178 152 293 293 293c146 0 182 -119 261 -119c42 0 71 37 89 106h205c-39 -180 -155 -298 -294 -298z
" />
    <glyph glyph-name="ecircumflexdotbelow" unicode="&#x1ec7;" horiz-adv-x="1234" 
d="M474 682h374c2 5 3 21 3 32c0 84 -66 144 -161 144c-103 0 -190 -71 -216 -176zM604 -27c-316 0 -522 187 -522 505c0 378 250 654 626 654c296 0 502 -188 502 -476c0 -60 -6 -134 -20 -190h-752c-2 -11 -3 -22 -3 -32c0 -102 70 -182 189 -182c87 0 154 44 173 108h368
c-57 -232 -267 -387 -561 -387zM977 1592l183 -336h-272l-85 180h-8l-163 -180h-296l327 336h314zM545 -482c-100 0 -177 78 -177 173s77 173 177 173s177 -78 177 -173s-77 -173 -177 -173z" />
    <glyph glyph-name="ecircumflexacute" unicode="&#x1ebf;" horiz-adv-x="1234" 
d="M474 682h374c2 5 3 21 3 32c0 84 -66 144 -161 144c-103 0 -190 -71 -216 -176zM604 -27c-316 0 -522 187 -522 505c0 378 250 654 626 654c296 0 502 -188 502 -476c0 -60 -6 -134 -20 -190h-752c-2 -11 -3 -22 -3 -32c0 -102 70 -182 189 -182c87 0 154 44 173 108h368
c-57 -232 -267 -387 -561 -387zM946 1572l183 -336h-272l-85 180h-8l-163 -180h-296l327 336h314zM989 1631l262 281h322l-298 -281h-286z" />
    <glyph glyph-name="edieresis" unicode="&#xeb;" horiz-adv-x="1234" 
d="M474 682h374c2 5 3 21 3 32c0 84 -66 144 -161 144c-103 0 -190 -71 -216 -176zM604 -27c-316 0 -522 187 -522 505c0 378 250 654 626 654c296 0 502 -188 502 -476c0 -60 -6 -134 -20 -190h-752c-2 -11 -3 -22 -3 -32c0 -102 70 -182 189 -182c87 0 154 44 173 108h368
c-57 -232 -267 -387 -561 -387zM571 1255c-86 0 -149 63 -149 141s63 141 149 141s149 -63 149 -141s-63 -141 -149 -141zM989 1255c-86 0 -149 63 -149 141s63 141 149 141s149 -63 149 -141s-63 -141 -149 -141z" />
    <glyph glyph-name="edotbelow" unicode="&#x1eb9;" horiz-adv-x="1234" 
d="M474 682h374c2 5 3 21 3 32c0 84 -66 144 -161 144c-103 0 -190 -71 -216 -176zM604 -27c-316 0 -522 187 -522 505c0 378 250 654 626 654c296 0 502 -188 502 -476c0 -60 -6 -134 -20 -190h-752c-2 -11 -3 -22 -3 -32c0 -102 70 -182 189 -182c87 0 154 44 173 108h368
c-57 -232 -267 -387 -561 -387zM545 -482c-100 0 -177 78 -177 173s77 173 177 173s177 -78 177 -173s-77 -173 -177 -173z" />
    <glyph glyph-name="einvertedbreve" unicode="&#x207;" horiz-adv-x="1234" 
d="M474 682h374c2 5 3 21 3 32c0 84 -66 144 -161 144c-103 0 -190 -71 -216 -176zM604 -27c-316 0 -522 187 -522 505c0 378 250 654 626 654c296 0 502 -188 502 -476c0 -60 -6 -134 -20 -190h-752c-2 -11 -3 -22 -3 -32c0 -102 70 -182 189 -182c87 0 154 44 173 108h368
c-57 -232 -267 -387 -561 -387zM1121 1236h-232c2 11 3 21 3 31c0 74 -48 117 -131 117c-94 0 -167 -56 -190 -148h-240c48 202 220 334 464 334c194 0 331 -116 331 -279c0 -16 -2 -33 -5 -55z" />
    <glyph glyph-name="ehookabove" unicode="&#x1ebb;" horiz-adv-x="1234" 
d="M474 682h374c2 5 3 21 3 32c0 84 -66 144 -161 144c-103 0 -190 -71 -216 -176zM604 -27c-316 0 -522 187 -522 505c0 378 250 654 626 654c296 0 502 -188 502 -476c0 -60 -6 -134 -20 -190h-752c-2 -11 -3 -22 -3 -32c0 -102 70 -182 189 -182c87 0 154 44 173 108h368
c-57 -232 -267 -387 -561 -387zM613 1522l42 172c38 11 92 18 137 18c140 0 237 -81 237 -199c0 -131 -100 -254 -250 -306l-85 140c73 28 110 66 110 114c0 45 -38 75 -96 75c-36 0 -69 -5 -95 -14z" />
    <glyph glyph-name="ecaron" unicode="&#x11b;" horiz-adv-x="1234" 
d="M474 682h374c2 5 3 21 3 32c0 84 -66 144 -161 144c-103 0 -190 -71 -216 -176zM604 -27c-316 0 -522 187 -522 505c0 378 250 654 626 654c296 0 502 -188 502 -476c0 -60 -6 -134 -20 -190h-752c-2 -11 -3 -22 -3 -32c0 -102 70 -182 189 -182c87 0 154 44 173 108h368
c-57 -232 -267 -387 -561 -387zM906 1256h-314l-184 336h272l86 -180h8l162 180h296z" />
    <glyph glyph-name="emacron" unicode="&#x113;" horiz-adv-x="1234" 
d="M474 682h374c2 5 3 21 3 32c0 84 -66 144 -161 144c-103 0 -190 -71 -216 -176zM604 -27c-316 0 -522 187 -522 505c0 378 250 654 626 654c296 0 502 -188 502 -476c0 -60 -6 -134 -20 -190h-752c-2 -11 -3 -22 -3 -32c0 -102 70 -182 189 -182c87 0 154 44 173 108h368
c-57 -232 -267 -387 -561 -387zM1149 1456l-38 -180h-704l38 180h704z" />
    <glyph glyph-name="emacrongrave" unicode="&#x1e15;" horiz-adv-x="1234" 
d="M474 682h374c2 5 3 21 3 32c0 84 -66 144 -161 144c-103 0 -190 -71 -216 -176zM604 -27c-316 0 -522 187 -522 505c0 378 250 654 626 654c296 0 502 -188 502 -476c0 -60 -6 -134 -20 -190h-752c-2 -11 -3 -22 -3 -32c0 -102 70 -182 189 -182c87 0 154 44 173 108h368
c-57 -232 -267 -387 -561 -387zM957 1625h-261l-172 287h322zM1145 1436l-38 -180h-704l38 180h704z" />
    <glyph glyph-name="emacronacute" unicode="&#x1e17;" horiz-adv-x="1234" 
d="M474 682h374c2 5 3 21 3 32c0 84 -66 144 -161 144c-103 0 -190 -71 -216 -176zM604 -27c-316 0 -522 187 -522 505c0 378 250 654 626 654c296 0 502 -188 502 -476c0 -60 -6 -134 -20 -190h-752c-2 -11 -3 -22 -3 -32c0 -102 70 -182 189 -182c87 0 154 44 173 108h368
c-57 -232 -267 -387 -561 -387zM659 1631l262 281h322l-298 -281h-286zM1145 1436l-38 -180h-704l38 180h704z" />
    <glyph glyph-name="etilde" unicode="&#x1ebd;" horiz-adv-x="1234" 
d="M474 682h374c2 5 3 21 3 32c0 84 -66 144 -161 144c-103 0 -190 -71 -216 -176zM604 -27c-316 0 -522 187 -522 505c0 378 250 654 626 654c296 0 502 -188 502 -476c0 -60 -6 -134 -20 -190h-752c-2 -11 -3 -22 -3 -32c0 -102 70 -182 189 -182c87 0 154 44 173 108h368
c-57 -232 -267 -387 -561 -387zM911 1256c-146 0 -182 119 -261 119c-40 0 -71 -38 -88 -101h-205c37 178 152 293 293 293c146 0 182 -119 261 -119c42 0 71 37 89 106h205c-39 -180 -155 -298 -294 -298z" />
    <glyph glyph-name="ecircumflexbelow" unicode="&#x1e19;" horiz-adv-x="1234" 
d="M474 682h374c2 5 3 21 3 32c0 84 -66 144 -161 144c-103 0 -190 -71 -216 -176zM604 -27c-316 0 -522 187 -522 505c0 378 250 654 626 654c296 0 502 -188 502 -476c0 -60 -6 -134 -20 -190h-752c-2 -11 -3 -22 -3 -32c0 -102 70 -182 189 -182c87 0 154 44 173 108h368
c-57 -232 -267 -387 -561 -387zM732 -165l183 -336h-276l-91 192h-8l-173 -192h-276l327 336h314z" />
    </font>
</defs>
</svg>
